<?xml version="1.0" standalone="no"?>
<!DOCTYPE svg PUBLIC "-//W3C//DTD SVG 1.1//EN" "http://www.w3.org/Graphics/SVG/1.1/DTD/svg11.dtd" >
<svg xmlns="http://www.w3.org/2000/svg" xmlns:xlink="http://www.w3.org/1999/xlink" version="1.1">
<metadata>
Created by FontForge 20150824 at Wed Jun  8 06:24:07 2016
 By Everything Fonts
Copyright (c) 2004 The Hoefler Type Foundry, Inc., dba Hoefler &#38; Frere-Jones. All Rights Reserved.
</metadata>
<defs>
<font id="GothamRoundedBoldItalic" horiz-adv-x="500" >
  <font-face 
    font-family="GothamRoundedBoldItalic"
    font-weight="400"
    font-style="italic"
    font-stretch="normal"
    units-per-em="1000"
    panose-1="0 0 0 0 0 0 0 0 0 0"
    ascent="800"
    descent="-200"
    x-height="536"
    cap-height="706"
    bbox="-157 -297 1247 1087"
    underline-thickness="50"
    underline-position="-150"
    slope="-15"
    unicode-range="U+0020-2212"
  />
<missing-glyph 
d="M0 -200v1000h500v-1000h-500zM71 750l179 -390l179 390h-358zM50 -76l172 376l-172 376v-752zM450 676l-172 -376l172 -376v752zM250 240l-179 -390h358z" />
    <glyph glyph-name="f_f" unicode="ff" horiz-adv-x="822" 
d="M285 406l-91 -335q-10 -37 -32.5 -57t-52.5 -20q-39 0 -56.5 27t-4.5 73l85 312q-22 3 -39 20t-17 45t18.5 46.5t44.5 18.5h27l7 29q45 172 217 172q28 0 46 -3q50 -9 50 -58q0 -35 -20.5 -54.5t-46.5 -14.5q-16 2 -24 2q-59 0 -75 -58l-4 -15h54q26 0 44.5 -18.5
t18.5 -46.5t-18.5 -46.5t-44.5 -18.5h-86zM696 406l-91 -335q-10 -37 -32.5 -57t-52.5 -20q-39 0 -56.5 27t-4.5 73l85 312q-22 3 -39 20t-17 45t18.5 46.5t44.5 18.5h27l7 29q45 172 217 172q28 0 46 -3q50 -9 50 -58q0 -35 -20.5 -54.5t-46.5 -14.5q-16 2 -24 2
q-59 0 -75 -58l-4 -15h54q26 0 44.5 -18.5t18.5 -46.5t-18.5 -46.5t-44.5 -18.5h-86z" />
    <glyph glyph-name="fi" unicode="fi" horiz-adv-x="713" 
d="M285 406l-91 -335q-10 -37 -32.5 -57t-52.5 -20q-39 0 -56.5 27t-4.5 73l85 312q-22 3 -39 20t-17 45t18.5 46.5t44.5 18.5h27l7 29q45 172 217 172q28 0 46 -3q50 -9 50 -58q0 -35 -20.5 -54.5t-46.5 -14.5q-16 2 -24 2q-59 0 -75 -58l-4 -15h54q26 0 44.5 -18.5
t18.5 -46.5t-18.5 -46.5t-44.5 -18.5h-86zM685 442l-100 -371q-10 -37 -32.5 -57t-52.5 -20q-39 0 -56.5 27t-4.5 73l100 371q10 37 32.5 57t52.5 20q39 0 56.5 -27t4.5 -73zM753 660q-7 -32 -34 -51t-64 -19q-36 0 -57.5 20t-15.5 50l1 5q7 32 34 51t64 19q36 0 57.5 -20
t15.5 -50z" />
    <glyph glyph-name="fl" unicode="fl" horiz-adv-x="713" 
d="M285 406l-91 -335q-10 -37 -32.5 -57t-52.5 -20q-39 0 -56.5 27t-4.5 73l85 312q-22 3 -39 20t-17 45t18.5 46.5t44.5 18.5h27l7 29q45 172 217 172q28 0 46 -3q50 -9 50 -58q0 -35 -20.5 -54.5t-46.5 -14.5q-16 2 -24 2q-59 0 -75 -58l-4 -15h54q26 0 44.5 -18.5
t18.5 -46.5t-18.5 -46.5t-44.5 -18.5h-86zM737 636l-152 -565q-10 -37 -32.5 -57t-52.5 -20q-39 0 -56.5 27t-4.5 73l152 565q10 37 32.5 57t52.5 20q39 0 56.5 -27t4.5 -73z" />
    <glyph glyph-name="f_f_i" unicode="ffi" horiz-adv-x="1124" 
d="M285 406l-91 -335q-10 -37 -32.5 -57t-52.5 -20q-39 0 -56.5 27t-4.5 73l85 312q-22 3 -39 20t-17 45t18.5 46.5t44.5 18.5h27l7 29q45 172 217 172q28 0 46 -3q50 -9 50 -58q0 -35 -20.5 -54.5t-46.5 -14.5q-16 2 -24 2q-59 0 -75 -58l-4 -15h54q26 0 44.5 -18.5
t18.5 -46.5t-18.5 -46.5t-44.5 -18.5h-86zM696 406l-91 -335q-10 -37 -32.5 -57t-52.5 -20q-39 0 -56.5 27t-4.5 73l85 312q-22 3 -39 20t-17 45t18.5 46.5t44.5 18.5h27l7 29q45 172 217 172q28 0 46 -3q50 -9 50 -58q0 -35 -20.5 -54.5t-46.5 -14.5q-16 2 -24 2
q-59 0 -75 -58l-4 -15h54q26 0 44.5 -18.5t18.5 -46.5t-18.5 -46.5t-44.5 -18.5h-86zM1096 442l-100 -371q-10 -37 -32.5 -57t-52.5 -20q-39 0 -56.5 27t-4.5 73l100 371q10 37 32.5 57t52.5 20q39 0 56.5 -27t4.5 -73zM1164 660q-7 -32 -34 -51t-64 -19q-36 0 -57.5 20
t-15.5 50l1 5q7 32 34 51t64 19q36 0 57.5 -20t15.5 -50z" />
    <glyph glyph-name="f_f_l" unicode="ffl" horiz-adv-x="1124" 
d="M285 406l-91 -335q-10 -37 -32.5 -57t-52.5 -20q-39 0 -56.5 27t-4.5 73l85 312q-22 3 -39 20t-17 45t18.5 46.5t44.5 18.5h27l7 29q45 172 217 172q28 0 46 -3q50 -9 50 -58q0 -35 -20.5 -54.5t-46.5 -14.5q-16 2 -24 2q-59 0 -75 -58l-4 -15h54q26 0 44.5 -18.5
t18.5 -46.5t-18.5 -46.5t-44.5 -18.5h-86zM696 406l-91 -335q-10 -37 -32.5 -57t-52.5 -20q-39 0 -56.5 27t-4.5 73l85 312q-22 3 -39 20t-17 45t18.5 46.5t44.5 18.5h27l7 29q45 172 217 172q28 0 46 -3q50 -9 50 -58q0 -35 -20.5 -54.5t-46.5 -14.5q-16 2 -24 2
q-59 0 -75 -58l-4 -15h54q26 0 44.5 -18.5t18.5 -46.5t-18.5 -46.5t-44.5 -18.5h-86zM1148 636l-152 -565q-10 -37 -32.5 -57t-52.5 -20q-39 0 -56.5 27t-4.5 73l152 565q10 37 32.5 57t52.5 20q39 0 56.5 -27t4.5 -73z" />
    <glyph glyph-name=".notdef" 
d="M0 -200v1000h500v-1000h-500zM71 750l179 -390l179 390h-358zM50 -76l172 376l-172 376v-752zM450 676l-172 -376l172 -376v752zM250 240l-179 -390h358z" />
    <glyph glyph-name=".null" horiz-adv-x="0" 
 />
    <glyph glyph-name="nonmarkingreturn" horiz-adv-x="333" 
 />
    <glyph glyph-name="space" unicode=" " horiz-adv-x="300" 
 />
    <glyph glyph-name="exclam" unicode="!" horiz-adv-x="325" 
d="M351 652l-143 -382q-15 -38 -50 -38q-21 0 -32 13t-7 36l60 371q4 22 18 36.5t34 14.5h91q20 0 28.5 -15t0.5 -36zM198 83l-1 -6q-6 -36 -33 -59.5t-65 -23.5q-39 0 -60 23.5t-15 59.5l1 6q7 37 33.5 60t64.5 23q39 0 60 -23.5t15 -59.5z" />
    <glyph glyph-name="quotedbl" unicode="&#x22;" horiz-adv-x="528" 
d="M195 413q-21 -38 -54 -38q-19 0 -27.5 13t-3.5 33l56 214q8 30 28 49.5t49 19.5h45q32 0 38 -24.5t-10 -48.5zM437 413q-21 -38 -54 -38q-19 0 -27.5 13t-3.5 33l56 214q8 30 28 49.5t49 19.5h45q32 0 38 -24.5t-10 -48.5z" />
    <glyph glyph-name="numbersign" unicode="#" horiz-adv-x="691" 
d="M274 278h135l51 148h-135zM399 637l-29 -83h135l35 99q8 23 29 38t45 15q29 0 45.5 -21t6.5 -48l-29 -83h12q26 0 45 -19t19 -45t-19 -45t-45 -19h-57l-51 -148h23q26 0 45 -19t19 -45t-19 -45t-45 -19h-68l-36 -103q-8 -23 -28 -38t-44 -15q-30 0 -47 21t-7 48l30 87
h-135l-36 -103q-7 -21 -27 -37t-45 -16q-30 0 -47 20t-7 49l30 87h-11q-26 0 -45 19t-19 45t19 45t45 19h56l51 148h-23q-26 0 -45 19t-19 45t19 45t45 19h68l35 99q8 23 28 38t44 15q30 0 47 -21t7 -48z" />
    <glyph glyph-name="dollar" unicode="$" horiz-adv-x="636" 
d="M180 -36l14 46q-90 20 -149 67q-32 24 -32 62q0 31 21.5 52t53.5 21q25 0 50 -20q45 -37 99 -52l47 155q-82 31 -124 71t-42 114q0 94 79.5 157t196.5 63h8l4 12q18 52 58 52q27 0 39 -18t3 -49l-3 -10q54 -13 103 -48q37 -25 37 -61q0 -31 -22 -51.5t-54 -20.5
q-23 0 -51 19q-25 18 -55 30l-45 -149q80 -30 120.5 -72t40.5 -114q0 -97 -80.5 -158.5t-200.5 -61.5h-1l-16 -52q-18 -52 -58 -52q-27 0 -38.5 18t-2.5 50zM329 439l39 129q-46 -3 -69 -23t-23 -49q0 -18 11.5 -31t41.5 -26zM330 132q89 8 89 72q0 35 -49 58z" />
    <glyph glyph-name="percent" unicode="%" horiz-adv-x="880" 
d="M238 346q-69 0 -111.5 42.5t-42.5 111.5q0 81 55 144.5t139 63.5q69 0 111.5 -42.5t42.5 -111.5q0 -81 -55 -144.5t-139 -63.5zM645 -8q-69 0 -111.5 42.5t-42.5 111.5q0 81 55 144.5t139 63.5q69 0 111.5 -42.5t42.5 -111.5q0 -81 -55 -144.5t-139 -63.5zM244 433
q39 0 64.5 37t25.5 80q0 33 -16.5 52t-45.5 19q-39 0 -64.5 -37t-25.5 -80q0 -33 16.5 -52t45.5 -19zM651 79q39 0 64.5 37t25.5 80q0 33 -16.5 52t-45.5 19q-39 0 -64.5 -37t-25.5 -80q0 -33 16.5 -52t45.5 -19zM790 624l-587 -611q-19 -19 -41 -19q-20 0 -33 12.5
t-13 31.5q0 21 17 38l587 611q19 19 41 19q20 0 33 -12.5t13 -31.5q0 -21 -17 -38z" />
    <glyph glyph-name="ampersand" unicode="&#x26;" horiz-adv-x="696" 
d="M348 436q66 24 90.5 46t24.5 53q0 22 -16.5 39.5t-46.5 17.5q-36 0 -58.5 -23t-22.5 -54q0 -36 29 -79zM262 116q57 0 129 45l-108 148q-57 -22 -86 -54.5t-29 -67.5q0 -31 24.5 -51t69.5 -20zM500 16l-37 50q-109 -76 -218 -76q-99 0 -160.5 50.5t-61.5 137.5
q0 68 48.5 126.5t149.5 91.5q-37 64 -37 121q0 80 62 137.5t161 57.5q86 0 139.5 -47.5t53.5 -120.5q0 -130 -188 -194l78 -104q21 23 57 67q27 33 54 33q24 0 40 -13.5t16 -35.5t-12 -40q-41 -58 -83 -103l34 -47q23 -31 23 -51q0 -28 -18.5 -47t-47.5 -19q-34 0 -53 26z
" />
    <glyph glyph-name="quotesingle" unicode="'" horiz-adv-x="286" 
d="M195 413q-21 -38 -54 -38q-19 0 -27.5 13t-3.5 33l56 214q8 30 28 49.5t49 19.5h45q32 0 38 -24.5t-10 -48.5z" />
    <glyph glyph-name="parenleft" unicode="(" horiz-adv-x="445" 
d="M309 -16q19 -22 19 -52q0 -28 -19 -46.5t-49 -18.5q-32 0 -54 20q-148 141 -148 322q0 156 91 281t265 208q18 9 37 9q27 0 44.5 -18t17.5 -46q0 -39 -42 -62q-129 -71 -194 -165.5t-65 -201.5q0 -111 97 -230z" />
    <glyph glyph-name="parenright" unicode=")" horiz-adv-x="445" 
d="M146 590q-19 22 -19 52q0 28 19 46.5t49 18.5q32 0 54 -20q148 -141 148 -322q0 -156 -91 -281t-265 -208q-18 -9 -37 -9q-27 0 -44.5 18t-17.5 46q0 39 42 62q129 71 194 165.5t65 201.5q0 111 -97 230z" />
    <glyph glyph-name="asterisk" unicode="*" horiz-adv-x="430" 
d="M294 487l-11 -80q-5 -38 -39 -38q-20 0 -30 16.5t-1 36.5l32 78l-74 -30q-18 -7 -27 -7q-14 0 -24.5 10t-11.5 26q-1 15 8.5 26t26.5 13l88 12l-68 53q-20 15 -20 34q0 15 11 26.5t28 11.5q20 0 33 -18l53 -70l11 80q5 38 38 38q23 0 32 -16t-1 -39l-31 -76l74 30
q15 6 30 6q14 0 23 -9.5t10 -24.5q2 -36 -35 -41l-88 -11l68 -53q20 -15 20 -34q0 -15 -11 -26.5t-28 -11.5q-20 0 -33 18z" />
    <glyph glyph-name="plus" unicode="+" horiz-adv-x="640" 
d="M395 283l-29 -109q-10 -36 -32 -56.5t-49 -20.5q-36 0 -52 25t-4 71l24 90h-99q-28 0 -48.5 20.5t-20.5 48.5t20.5 48.5t48.5 20.5h136l29 109q10 36 32 56.5t49 20.5q36 0 52 -25t4 -71l-24 -90h99q29 0 49 -20.5t20 -48.5t-20 -48.5t-49 -20.5h-136z" />
    <glyph glyph-name="comma" unicode="," horiz-adv-x="319" 
d="M-32 -94q96 20 104 94q-60 16 -48 80l1 5q8 36 33 58.5t60 22.5q44 0 63 -29.5t8 -82.5l-1 -5q-20 -99 -95 -161q-27 -22 -61.5 -36t-62.5 -14q-36 0 -36 33q0 27 35 35z" />
    <glyph glyph-name="hyphen" unicode="-" horiz-adv-x="412" 
d="M305 237h-174q-30 0 -51.5 21.5t-21.5 51.5t21.5 51.5t51.5 21.5h174q30 0 51.5 -21.5t21.5 -51.5t-21.5 -51.5t-51.5 -21.5z" />
    <glyph glyph-name="period" unicode="." horiz-adv-x="319" 
d="M196 83l-1 -6q-6 -36 -33 -59.5t-65 -23.5q-39 0 -60 23.5t-15 59.5l1 6q7 37 33.5 60t64.5 23q39 0 60 -23.5t15 -59.5z" />
    <glyph glyph-name="slash" unicode="/" horiz-adv-x="530" 
d="M-63 -30l584 794q29 40 67 40q24 0 37.5 -13.5t13.5 -36.5t-22 -54l-584 -794q-29 -40 -67 -40q-24 0 -37.5 13.5t-13.5 36.5t22 54z" />
    <glyph glyph-name="zero" unicode="0" horiz-adv-x="730" 
d="M335 -12q-123 0 -198 79.5t-75 211.5q0 78 26 154t72 138.5t119 101.5t158 39q123 0 198 -79.5t75 -211.5q0 -78 -26 -154t-72 -138.5t-119 -101.5t-158 -39zM347 127q88 0 146.5 94.5t58.5 200.5q0 73 -34 112t-93 39q-88 0 -146.5 -94.5t-58.5 -200.5q0 -73 34 -112
t93 -39z" />
    <glyph glyph-name="one" unicode="1" horiz-adv-x="434" 
d="M415 627l-149 -556q-10 -37 -32.5 -57t-52.5 -20q-39 0 -56.5 27t-4.5 73l122 453l-59 -14q-10 -2 -18 -2q-25 0 -43 16.5t-18 46.5q0 24 15 43t39 26l122 34q47 13 75 13h1q34 0 51 -24t8 -59z" />
    <glyph glyph-name="two" unicode="2" horiz-adv-x="614" 
d="M452 0h-384q-38 0 -60.5 17.5t-22.5 50.5q0 44 40 72l333 230q102 70 102 130q0 34 -23.5 53t-64.5 19q-68 0 -131 -55q-24 -22 -52 -22q-29 0 -48.5 20.5t-19.5 49.5q0 31 25 53q99 92 233 92q108 0 173.5 -54t65.5 -139q0 -66 -36.5 -119t-128.5 -117l-216 -148h215
q28 0 47.5 -19.5t19.5 -47.5t-19.5 -47t-47.5 -19z" />
    <glyph glyph-name="three" unicode="3" horiz-adv-x="604" 
d="M24 67q-26 26 -26 55q0 30 22 52t52 22q26 0 49 -19q31 -28 57.5 -39.5t70.5 -11.5q55 0 93.5 29.5t38.5 68.5q0 40 -36 61.5t-101 21.5h-3q-27 0 -41.5 15.5t-14.5 42.5q0 30 34 57l182 146h-187q-27 0 -46.5 19.5t-19.5 46.5t19.5 46.5t46.5 19.5h338q35 0 56.5 -16
t21.5 -47q0 -26 -12.5 -42t-40.5 -38l-190 -145q149 -36 149 -174q0 -106 -84.5 -178t-209.5 -72q-141 0 -218 79z" />
    <glyph glyph-name="four" unicode="4" horiz-adv-x="659" 
d="M211 276h178l60 224zM500 151l-21 -80q-10 -36 -31.5 -56.5t-50.5 -20.5q-37 0 -53.5 27t-3.5 73l15 57h-266q-32 0 -53.5 17.5t-21.5 47.5q0 47 41 85l393 358q57 52 114 52q36 0 56 -22t11 -57l-95 -356h20q26 0 44.5 -18.5t18.5 -44.5t-18.5 -44t-44.5 -18h-54z" />
    <glyph glyph-name="five" unicode="5" horiz-adv-x="610" 
d="M42 61q-31 26 -31 60q0 30 20.5 51.5t50.5 21.5q25 0 52 -21q57 -45 129 -45q61 0 101.5 32t40.5 77q0 39 -32 64.5t-92 25.5q-22 0 -48 -7t-35 -7q-30 0 -62 26q-34 26 -21 67l78 235q20 59 73 59h289q28 0 48 -20t20 -48t-20 -47.5t-48 -19.5h-241l-40 -119q37 8 71 8
q97 0 157.5 -54.5t60.5 -145.5q0 -108 -87 -186.5t-226 -78.5q-54 0 -110.5 19.5t-97.5 52.5z" />
    <glyph glyph-name="six" unicode="6" horiz-adv-x="643" 
d="M617 668q35 -20 35 -63q0 -30 -21 -50.5t-50 -20.5q-18 0 -47 16q-46 24 -97 24q-81 0 -136 -55q-49 -49 -72 -123q24 24 69 41.5t92 17.5q91 0 152 -52t61 -143q0 -108 -85 -190t-205 -82q-118 0 -182 64q-72 72 -72 197q0 102 35.5 197t101.5 161q105 105 254 105
q92 0 167 -44zM313 118q58 0 96.5 37t38.5 84q0 42 -29 67t-76 25q-61 0 -99.5 -35t-38.5 -85q0 -37 26 -63q30 -30 82 -30z" />
    <glyph glyph-name="seven" unicode="7" horiz-adv-x="609" 
d="M612 561l-396 -519q-38 -48 -83 -48q-31 0 -48 15.5t-17 43.5q0 31 24 63l352 451h-243q-28 0 -47.5 19t-19.5 47t19.5 47.5t47.5 19.5h375q71 0 71 -57q0 -39 -35 -82z" />
    <glyph glyph-name="eight" unicode="8" horiz-adv-x="662" 
d="M300 -10q-111 0 -189.5 55t-78.5 143q0 76 48.5 123.5t130.5 67.5q-41 21 -63 57t-22 78q0 76 70 136t193 60q109 0 178.5 -53t69.5 -135q0 -66 -40.5 -112t-112.5 -63q49 -19 78 -57t29 -92q0 -84 -80 -146t-211 -62zM378 416q49 0 81.5 25t33.5 62q1 35 -28.5 58
t-82.5 23q-47 0 -80 -24.5t-34 -61.5q-1 -35 29.5 -58.5t80.5 -23.5zM308 114q57 0 94.5 25.5t38.5 66.5q1 38 -34.5 62t-92.5 24t-94 -26t-38 -65q-1 -38 34 -62.5t92 -24.5z" />
    <glyph glyph-name="nine" unicode="9" horiz-adv-x="643" 
d="M243 -12q-97 0 -173 48q-41 26 -41 66q0 30 21 50.5t50 20.5q18 0 47 -16q60 -31 104 -31q80 0 137 57q46 46 68 113q-24 -24 -68 -41t-91 -17q-92 0 -152.5 52t-60.5 146q0 115 84.5 195.5t205.5 80.5q53 0 103 -16.5t80 -46.5q72 -72 72 -212q0 -96 -36.5 -187
t-103.5 -158q-104 -104 -246 -104zM346 362q60 0 98 36t38 88q0 41 -25 66q-30 30 -82 30q-60 0 -98 -37t-38 -89q0 -45 29.5 -69.5t77.5 -24.5z" />
    <glyph glyph-name="colon" unicode=":" horiz-adv-x="319" 
d="M196 83l-1 -6q-6 -36 -33 -59.5t-65 -23.5q-39 0 -60 23.5t-15 59.5l1 6q7 37 33.5 60t64.5 23q39 0 60 -23.5t15 -59.5zM297 459l-1 -6q-6 -36 -33 -59.5t-65 -23.5q-39 0 -60 23.5t-15 59.5l1 6q7 37 33.5 60t64.5 23q39 0 60 -23.5t15 -59.5z" />
    <glyph glyph-name="semicolon" unicode=";" horiz-adv-x="319" 
d="M-32 -94q96 20 104 94q-60 16 -48 80l1 5q8 36 33 58.5t60 22.5q44 0 63 -29.5t8 -82.5l-1 -5q-20 -99 -95 -161q-27 -22 -61.5 -36t-62.5 -14q-36 0 -36 33q0 27 35 35zM297 459l-1 -6q-6 -36 -33 -59.5t-65 -23.5q-39 0 -60 23.5t-15 59.5l1 6q7 37 33.5 60t64.5 23
q39 0 60 -23.5t15 -59.5z" />
    <glyph glyph-name="less" unicode="&#x3c;" horiz-adv-x="640" 
d="M152 437l382 157q22 9 39 9q25 0 41 -14.5t16 -39.5q0 -46 -41 -62l-355 -141l254 -126q41 -20 41 -61q0 -28 -18.5 -48t-47.5 -20q-19 0 -37 9l-275 144q-67 36 -67 92v6q0 66 68 95z" />
    <glyph glyph-name="equal" unicode="=" horiz-adv-x="640" 
d="M206 413q-28 0 -48.5 20.5t-20.5 48.5t20.5 48.5t48.5 20.5h347q29 0 49 -20.5t20 -48.5t-20 -48.5t-49 -20.5h-347zM136 153q-28 0 -48.5 20.5t-20.5 48.5t20.5 48.5t48.5 20.5h347q29 0 49 -20.5t20 -48.5t-20 -48.5t-49 -20.5h-347z" />
    <glyph glyph-name="greater" unicode="&#x3e;" horiz-adv-x="640" 
d="M530 267l-382 -157q-22 -9 -39 -9q-25 0 -41 14.5t-16 39.5q0 46 41 62l355 141l-254 126q-41 20 -41 61q0 28 18.5 48t47.5 20q19 0 37 -9l275 -144q67 -36 67 -92v-6q0 -66 -68 -95z" />
    <glyph glyph-name="question" unicode="?" horiz-adv-x="544" 
d="M217 539q-32 -17 -52 -17q-26 0 -43.5 18.5t-17.5 41.5q0 39 34 64q87 63 203 63q102 0 162.5 -53.5t60.5 -128.5q0 -88 -65 -144t-191 -75l-11 -27q-9 -22 -26 -35.5t-38 -13.5h-8q-22 0 -33.5 14t-8.5 38l9 76q3 24 18 35t47 16q66 10 106 34t40 62q0 62 -83 62
q-48 0 -103 -30zM275 83l-1 -6q-6 -36 -33 -59.5t-65 -23.5q-39 0 -60 23.5t-15 59.5l1 6q7 37 33.5 60t64.5 23q39 0 60 -23.5t15 -59.5z" />
    <glyph glyph-name="at" unicode="@" horiz-adv-x="980" 
d="M461 165q52 0 95 47.5t43 111.5q0 37 -24 60t-63 23q-52 0 -93.5 -46t-41.5 -110q0 -40 22.5 -63t61.5 -23zM683 -110q-99 -45 -212 -45q-183 0 -299.5 108.5t-116.5 279.5q0 127 64 238t177 177.5t246 66.5q182 0 293.5 -101t111.5 -243q0 -149 -69.5 -227.5
t-167.5 -78.5q-50 0 -86.5 20.5t-52.5 56.5q-76 -78 -160 -78q-69 0 -115 45t-46 124q0 117 77 196.5t174 79.5q88 0 131 -70l1 3q21 60 68 60q27 0 42.5 -21t5.5 -52l-66 -208q-17 -52 0 -80.5t58 -28.5q60 0 112 70.5t52 188.5q0 126 -100 215t-263 89q-123 0 -226 -61.5
t-161.5 -163t-58.5 -217.5q0 -154 104.5 -251.5t270.5 -97.5q100 0 191 39q9 3 12 3q8 0 13.5 -5.5t5.5 -13.5q0 -12 -10 -17z" />
    <glyph glyph-name="A" unicode="A" horiz-adv-x="765" 
d="M303 293h194l-36 231zM590 638l94 -530q5 -35 5 -40q0 -31 -22.5 -52.5t-56.5 -21.5q-31 0 -51 17t-24 44l-16 102h-310l-80 -115q-34 -48 -78 -48q-30 0 -46.5 16.5t-16.5 43.5t18 51l389 546q42 60 108 60h3q71 0 84 -73z" />
    <glyph glyph-name="B" unicode="B" horiz-adv-x="717" 
d="M274 417h155q126 0 126 85q0 29 -24 46t-73 17h-145zM198 135h181q58 0 91.5 23.5t33.5 64.5q0 31 -24.5 48.5t-71.5 17.5h-169zM356 0h-255q-39 0 -56.5 27t-5.5 73l140 523q10 36 33 56.5t53 20.5h207q118 0 177.5 -48.5t59.5 -123.5q0 -68 -40.5 -113t-109.5 -60
q98 -46 98 -142t-79.5 -154.5t-221.5 -58.5z" />
    <glyph glyph-name="C" unicode="C" horiz-adv-x="726" 
d="M625 63q-40 -34 -101 -54.5t-127 -20.5q-145 0 -237.5 83.5t-92.5 221.5q0 169 125.5 294t300.5 125q138 0 231 -86q32 -30 32 -65q0 -33 -23 -56.5t-56 -23.5q-35 0 -54 22q-31 34 -64 50.5t-85 16.5q-97 0 -172 -80.5t-75 -190.5q0 -75 48 -122t123 -47q40 0 66 10
t66 35q28 18 52 18q30 0 50 -21.5t20 -51.5q0 -34 -27 -57z" />
    <glyph glyph-name="D" unicode="D" horiz-adv-x="777" 
d="M203 139h87q149 0 234 85q70 70 70 175q0 70 -41 111q-51 51 -161 51h-75zM265 700h139q184 0 274 -90q76 -76 76 -205q0 -161 -115 -276q-129 -129 -367 -129h-171q-39 0 -56.5 27t-5.5 73l140 523q10 36 33 56.5t53 20.5z" />
    <glyph glyph-name="E" unicode="E" horiz-adv-x="665" 
d="M495 0h-394q-39 0 -56.5 27t-5.5 73l140 523q10 36 33 56.5t53 20.5h376q29 0 49 -20t20 -49q0 -28 -20 -48t-49 -20h-325l-38 -143h243q29 0 49 -20t20 -48t-20 -47.5t-49 -19.5h-280l-40 -148h294q29 0 49 -20.5t20 -48.5t-20 -48t-49 -20z" />
    <glyph glyph-name="F" unicode="F" horiz-adv-x="663" 
d="M265 700h385q29 0 49.5 -20.5t20.5 -49.5t-20.5 -49.5t-49.5 -20.5h-334l-40 -149h251q29 0 49.5 -20.5t20.5 -49.5t-20.5 -49.5t-49.5 -20.5h-288l-54 -200q-10 -36 -33 -56.5t-53 -20.5q-39 0 -56.5 27t-5.5 73l142 529q10 36 33 56.5t53 20.5z" />
    <glyph glyph-name="G" unicode="G" horiz-adv-x="780" 
d="M720 304l-55 -193q-15 -55 -62 -80q-82 -43 -208 -43q-62 0 -119.5 18.5t-105 54.5t-76 96t-28.5 135q0 109 56 205t157.5 155.5t223.5 59.5q82 0 145.5 -22.5t98.5 -55.5q31 -27 31 -62q0 -32 -22 -54t-54 -22q-26 0 -48 16q-39 30 -75 44.5t-88 14.5q-111 0 -188 -81.5
t-77 -192.5q0 -79 51 -123.5t128 -44.5q65 0 125 27l33 114h-86q-28 0 -47.5 19t-19.5 47t19.5 47.5t47.5 19.5h181q39 0 57 -27t5 -72z" />
    <glyph glyph-name="H" unicode="H" horiz-adv-x="756" 
d="M763 606l-144 -535q-10 -36 -33 -56.5t-53 -20.5q-39 0 -56.5 27t-5.5 73l51 187h-280l-57 -210q-10 -36 -33 -56.5t-53 -20.5q-39 0 -56.5 27t-5.5 73l144 535q10 36 33 56.5t53 20.5q39 0 56.5 -27t5.5 -73l-49 -183h280l55 206q10 36 33 56.5t53 20.5q39 0 56.5 -27
t5.5 -73z" />
    <glyph glyph-name="I" unicode="I" horiz-adv-x="336" 
d="M336 606l-144 -535q-10 -36 -33 -56.5t-53 -20.5q-39 0 -56.5 27t-5.5 73l144 535q10 36 33 56.5t53 20.5q39 0 56.5 -27t5.5 -73z" />
    <glyph glyph-name="J" unicode="J" horiz-adv-x="575" 
d="M587 606l-88 -328q-22 -85 -43.5 -130.5t-58.5 -82.5q-75 -75 -209 -75q-107 0 -179 63q-28 26 -28 59q0 31 21 52.5t51 21.5q26 0 53 -21q39 -32 91 -32q58 0 97 39q17 17 30 46t31 97l84 314q10 36 33 56.5t53 20.5q39 0 56.5 -27t5.5 -73z" />
    <glyph glyph-name="K" unicode="K" horiz-adv-x="719" 
d="M217 191l-32 -120q-10 -36 -33 -56.5t-53 -20.5q-39 0 -56.5 27t-5.5 73l144 535q10 36 33 56.5t53 20.5q39 0 56.5 -27t5.5 -73l-58 -216l341 286q36 30 64 30q31 0 50.5 -20t19.5 -49q0 -35 -27 -57l-225 -184l124 -283q12 -29 12 -50q0 -31 -23.5 -50t-53.5 -19
q-56 0 -78 54l-107 262z" />
    <glyph glyph-name="L" unicode="L" horiz-adv-x="626" 
d="M471 0h-370q-39 0 -56.5 27t-5.5 73l142 529q10 36 33 56.5t53 20.5q39 0 56.5 -27t5.5 -73l-125 -466h267q29 0 49 -20.5t20 -49.5q0 -30 -20 -50t-49 -20z" />
    <glyph glyph-name="M" unicode="M" horiz-adv-x="868" 
d="M799 704h14q39 0 56.5 -27t4.5 -73l-143 -533q-10 -36 -33.5 -56.5t-53.5 -20.5q-39 0 -57 27t-6 73l86 323l-172 -187q-41 -46 -84 -46q-25 0 -40 13t-26 43l-67 176l-93 -345q-10 -36 -33 -56.5t-53 -20.5q-39 0 -56.5 27t-5.5 73l143 532q21 78 88 78h9q54 0 78 -63
l106 -280l247 295q42 48 91 48z" />
    <glyph glyph-name="N" unicode="N" horiz-adv-x="786" 
d="M546 255l101 374q10 37 32.5 57t52.5 20q39 0 56.5 -27t4.5 -73l-145 -538q-19 -72 -83 -72h-3q-35 0 -54.5 14t-33.5 44l-187 405l-104 -388q-10 -37 -32.5 -57t-52.5 -20q-39 0 -56.5 27t-4.5 73l143 533q20 77 91 77h7q63 0 90 -61z" />
    <glyph glyph-name="O" unicode="O" horiz-adv-x="832" 
d="M387 -12q-143 0 -231.5 88t-88.5 222q0 105 52 199.5t150 154.5t219 60q143 0 231.5 -88t88.5 -222q0 -105 -52 -199.5t-150 -154.5t-219 -60zM405 130q105 0 174 82.5t69 179.5q0 80 -47 129t-131 49q-105 0 -174 -82.5t-69 -179.5q0 -80 47 -129t131 -49z" />
    <glyph glyph-name="P" unicode="P" horiz-adv-x="679" 
d="M223 212l-38 -141q-10 -36 -33 -56.5t-53 -20.5q-39 0 -56.5 27t-5.5 73l142 529q10 36 33 56.5t53 20.5h157q149 0 220 -71q54 -54 54 -144q0 -127 -96 -200t-244 -73h-133zM259 347h105q78 0 124.5 33.5t46.5 91.5q0 35 -23 58q-31 31 -96 31h-100z" />
    <glyph glyph-name="Q" unicode="Q" horiz-adv-x="832" 
d="M556 313l45 -72q47 72 47 151q0 80 -47 129t-131 49q-105 0 -174 -82.5t-69 -179.5q0 -80 47 -129t131 -49q45 0 88 18l-43 58q-26 37 -26 62q0 31 22 53.5t53 22.5q38 0 57 -31zM592 0l-20 30q-84 -42 -185 -42q-143 0 -231.5 88t-88.5 222q0 105 52 199.5t150 154.5
t219 60q143 0 231.5 -88t88.5 -222q0 -166 -119 -288l13 -16q24 -28 24 -59t-21 -51.5t-52 -20.5q-41 0 -61 33z" />
    <glyph glyph-name="R" unicode="R" horiz-adv-x="727" 
d="M226 224l-41 -153q-10 -36 -33 -56.5t-53 -20.5q-39 0 -56.5 27t-5.5 73l142 529q10 36 33 56.5t53 20.5h190q152 0 222 -70q54 -54 54 -141q0 -102 -64 -166q-55 -55 -153 -82l86 -128q17 -25 17 -49q0 -33 -23 -51.5t-52 -18.5q-59 0 -90 51l-111 179h-115zM263 360
h137q96 0 141 45q29 29 29 71q0 34 -22 56q-29 29 -102 29h-129z" />
    <glyph glyph-name="S" unicode="S" horiz-adv-x="636" 
d="M302 125q47 0 77 20t30 53q0 26 -24.5 45t-94.5 47q-81 33 -126.5 76t-45.5 113q0 104 81 167.5t197 63.5q123 0 213 -62q36 -26 36 -64q0 -32 -22 -53.5t-54 -21.5q-26 0 -42 13q-68 53 -143 53q-46 0 -74 -21.5t-28 -49.5q0 -27 24 -44t99 -48q82 -33 125 -75.5
t43 -113.5q0 -106 -81.5 -169.5t-196.5 -63.5q-166 0 -259 80q-30 25 -30 64q0 33 21.5 55.5t53.5 22.5q25 0 49 -19q45 -37 83 -52.5t89 -15.5z" />
    <glyph glyph-name="T" unicode="T" horiz-adv-x="620" 
d="M463 558l-131 -487q-10 -36 -33 -56.5t-53 -20.5q-39 0 -56.5 27t-5.5 73l125 464h-128q-29 0 -50 21t-21 50t21 50t50 21h449q29 0 50 -21t21 -50t-21 -50t-50 -21h-167z" />
    <glyph glyph-name="U" unicode="U" horiz-adv-x="764" 
d="M776 606l-87 -323q-36 -136 -108 -208q-86 -86 -238 -86q-122 0 -192 62.5t-70 173.5q0 46 17 112l78 292q10 36 33 56.5t53 20.5q39 0 56.5 -27t5.5 -73l-76 -283q-11 -44 -11 -76q0 -53 32 -84.5t90 -31.5q68 0 114 44q46 46 68 130l87 324q10 36 33 56.5t53 20.5
q39 0 56.5 -27t5.5 -73z" />
    <glyph glyph-name="V" unicode="V" horiz-adv-x="724" 
d="M767 605l-378 -554q-42 -62 -102 -62h-7q-62 0 -72 68l-80 543q-3 16 -3 36q0 30 22.5 50t58.5 20q73 0 81 -71l51 -423l293 445q32 49 80 49q31 0 50.5 -14.5t19.5 -42.5q0 -24 -14 -44z" />
    <glyph glyph-name="W" unicode="W" horiz-adv-x="1108" 
d="M1151 602l-345 -551q-38 -62 -103 -62h-7q-68 0 -71 68l-30 387l-240 -393q-38 -62 -100 -62h-7q-66 0 -72 68l-48 542q-2 22 -2 36q0 30 22.5 50.5t57.5 20.5q34 0 54.5 -17t21.5 -47l26 -416l250 421q36 61 89 61h9q65 0 70 -61l28 -421l256 429q31 51 82 51
q32 0 52 -17t20 -46q0 -19 -13 -41z" />
    <glyph glyph-name="X" unicode="X" horiz-adv-x="700" 
d="M469 346l118 -219q19 -34 19 -57q0 -32 -22.5 -54t-55.5 -22q-54 0 -81 56l-90 187l-203 -201q-15 -15 -24 -22.5t-23.5 -13.5t-31.5 -6q-27 0 -46.5 18.5t-19.5 49.5q0 34 30 62l242 239l-113 210q-19 34 -19 57q0 32 22.5 54t55.5 22q54 0 81 -56l89 -183l190 197
q40 42 79 42q27 0 46.5 -18.5t19.5 -48.5q0 -33 -27 -60z" />
    <glyph glyph-name="Y" unicode="Y" horiz-adv-x="650" 
d="M392 256l-50 -185q-10 -36 -33 -56.5t-53 -20.5q-39 0 -56.5 27t-5.5 73l47 176l-126 305q-15 36 -15 58q0 31 23.5 52t59.5 21q53 0 75 -60l89 -240l234 257q41 44 83 44q30 0 47 -17t17 -46q0 -33 -26 -61z" />
    <glyph glyph-name="Z" unicode="Z" horiz-adv-x="689" 
d="M35 138l469 427h-280q-28 0 -48 19.5t-20 47.5t20 48t48 20h445q31 0 49 -16t18 -44v-2q0 -36 -42 -76l-469 -427h296q28 0 48 -20t20 -48t-20 -47.5t-48 -19.5h-461q-31 0 -49 16t-18 44v2q0 36 42 76z" />
    <glyph glyph-name="bracketleft" unicode="[" horiz-adv-x="465" 
d="M466 581h-139l-159 -592h107q25 0 42.5 -17t17.5 -42t-17.5 -42.5t-42.5 -17.5h-202q-33 0 -51.5 23t-10.5 54l181 676q9 33 33.5 55t58.5 22h182q25 0 42.5 -17.5t17.5 -42.5t-17.5 -42t-42.5 -17z" />
    <glyph glyph-name="backslash" unicode="\" horiz-adv-x="530" 
d="M256 744l174 -775q7 -33 7 -47q0 -24 -16.5 -40t-41.5 -16q-53 0 -65 60l-174 775q-7 33 -7 47q0 24 16.5 40t41.5 16q53 0 65 -60z" />
    <glyph glyph-name="bracketright" unicode="]" horiz-adv-x="465" 
d="M190 -130h-182q-25 0 -42.5 17.5t-17.5 42.5t17.5 42t42.5 17h139l159 592h-107q-25 0 -42.5 17t-17.5 42t17.5 42.5t42.5 17.5h202q33 0 51.5 -23t10.5 -54l-181 -676q-9 -33 -33.5 -55t-58.5 -22z" />
    <glyph glyph-name="asciicircum" unicode="^" 
d="M142 552l106 107q43 43 84 43h9q49 0 70 -46l48 -107q11 -24 11 -37q0 -24 -33 -24q-30 0 -44.5 9t-32.5 45l-35 68l-73 -70q-32 -30 -50.5 -41t-41.5 -11q-16 0 -25.5 8.5t-9.5 20.5q0 18 17 35z" />
    <glyph glyph-name="underscore" unicode="_" horiz-adv-x="600" 
d="M-99 -160q-24 0 -41 17t-17 41t17 41t41 17h604q24 0 41 -17t17 -41t-17 -41t-41 -17h-604z" />
    <glyph glyph-name="grave" unicode="`" 
d="M325 622l-46 58q-14 19 -14 32q0 18 27.5 34t56.5 16q40 0 53 -37l30 -82q4 -12 4 -21q0 -33 -48 -33q-22 0 -34.5 6.5t-28.5 26.5z" />
    <glyph glyph-name="a" unicode="a" horiz-adv-x="588" 
d="M388 -6q-70 0 -65 68q-67 -72 -160 -72q-69 0 -112.5 40.5t-43.5 103.5q0 90 65 141.5t166 51.5q74 0 151 -24l2 7q6 24 6 40q0 63 -101 63q-48 0 -93 -12q-18 -4 -25 -4q-26 0 -43 17.5t-17 43.5q0 45 46 59q78 25 164 25q107 0 162 -42.5t55 -122.5q0 -35 -12 -81
l-60 -225q-10 -37 -32.5 -57t-52.5 -20zM228 94q46 0 84 31.5t51 76.5l4 14q-49 19 -100 19q-48 0 -78.5 -23t-30.5 -61q0 -25 19 -41t51 -16z" />
    <glyph glyph-name="b" unicode="b" horiz-adv-x="674" 
d="M337 -10q-110 0 -168 88l-2 -7q-9 -34 -30 -55.5t-54 -21.5q-39 0 -56.5 27t-4.5 73l150 565q10 37 32.5 57t52.5 20q39 0 56.5 -27t4.5 -73l-42 -158q73 68 151 68q90 0 148 -62t58 -168q0 -139 -89.5 -232.5t-206.5 -93.5zM317 118q63 0 111 54.5t48 133.5
q0 52 -30.5 82t-81.5 30q-64 0 -113 -55t-49 -131q0 -51 32 -82.5t83 -31.5z" />
    <glyph glyph-name="c" unicode="c" horiz-adv-x="560" 
d="M472 51q-78 -63 -180 -63q-110 0 -180 66.5t-70 175.5q0 131 93.5 223.5t222.5 92.5q112 0 181 -67q28 -26 28 -59q0 -29 -21 -50t-52 -21t-50 22q-37 45 -98 45q-60 0 -107 -56t-47 -130q0 -51 30 -82t75 -31q48 0 92 30q25 17 45 17q26 0 43.5 -18.5t17.5 -44.5
q0 -30 -23 -50z" />
    <glyph glyph-name="d" unicode="d" horiz-adv-x="674" 
d="M464 -6q-32 0 -49.5 17.5t-17.5 46.5q-73 -68 -151 -68q-90 0 -148 62t-58 168q0 139 89.5 232.5t206.5 93.5q110 0 168 -88l53 201q10 37 32.5 57t52.5 20q39 0 56.5 -27t4.5 -73l-151 -565q-10 -37 -33 -57t-55 -20zM309 118q64 0 113 55t49 131q0 51 -32 82.5
t-83 31.5q-63 0 -111 -54.5t-48 -133.5q0 -52 30.5 -82t81.5 -30z" />
    <glyph glyph-name="e" unicode="e" horiz-adv-x="607" 
d="M306 110q45 0 83 21q26 14 46 14q24 0 40.5 -16.5t16.5 -41.5q0 -32 -29 -51q-73 -48 -174 -48q-116 0 -182 63.5t-66 174.5q0 79 38.5 151.5t113 120.5t166.5 48q102 0 160.5 -58.5t58.5 -150.5q0 -28 -6 -55q-15 -67 -73 -67h-315q8 -105 122 -105zM197 310h233
q5 17 5 35q0 35 -22 57t-66 22q-51 0 -91 -31t-59 -83z" />
    <glyph glyph-name="f" unicode="f" horiz-adv-x="411" 
d="M285 406l-91 -335q-10 -37 -32.5 -57t-52.5 -20q-39 0 -56.5 27t-4.5 73l85 312q-22 3 -39 20t-17 45t18.5 46.5t44.5 18.5h27l7 29q45 172 217 172q28 0 46 -3q50 -9 50 -58q0 -35 -20.5 -54.5t-46.5 -14.5q-16 2 -24 2q-59 0 -75 -58l-4 -15h54q26 0 44.5 -18.5
t18.5 -46.5t-18.5 -46.5t-44.5 -18.5h-86z" />
    <glyph glyph-name="g" unicode="g" horiz-adv-x="671" 
d="M302 165q63 0 110.5 46.5t47.5 109.5q0 45 -29 71.5t-77 26.5q-63 0 -108.5 -48t-45.5 -111q0 -46 28 -70.5t74 -24.5zM499 453l4 12q9 34 30 55.5t54 21.5q39 0 56.5 -27t4.5 -73l-90 -337q-21 -80 -41 -120t-53 -73q-74 -74 -214 -74q-127 0 -231 46q-43 20 -43 58
q0 27 18 46.5t45 19.5q20 0 44 -12q76 -38 157 -38q73 0 116 43q30 30 49 96l5 18q-43 -38 -81 -54.5t-87 -16.5q-82 0 -140.5 50t-58.5 137q0 131 89.5 223t203.5 92q110 0 163 -93z" />
    <glyph glyph-name="h" unicode="h" horiz-adv-x="622" 
d="M563 288l-58 -217q-10 -37 -32.5 -57t-52.5 -20q-39 0 -56.5 27t-4.5 73l54 200q7 26 7 48q0 66 -74 66q-44 0 -73.5 -28.5t-42.5 -78.5l-62 -230q-10 -37 -32.5 -57t-52.5 -20q-39 0 -56.5 27t-4.5 73l150 565q10 37 32.5 57t52.5 20q39 0 56.5 -27t4.5 -73l-41 -156
q74 66 146 66t115 -42t43 -114q0 -34 -18 -102z" />
    <glyph glyph-name="i" unicode="i" horiz-adv-x="302" 
d="M342 660q-7 -32 -34 -51t-64 -19q-36 0 -57.5 20t-15.5 50l1 5q7 32 34 51t64 19q36 0 57.5 -20t15.5 -50zM274 442l-100 -371q-10 -37 -32.5 -57t-52.5 -20q-39 0 -56.5 27t-4.5 73l100 371q10 37 32.5 57t52.5 20q39 0 56.5 -27t4.5 -73z" />
    <glyph glyph-name="j" unicode="j" horiz-adv-x="301" 
d="M274 442l-115 -429q-48 -176 -205 -176q-80 0 -80 61q0 27 17 45.5t41 16.5q2 0 11.5 -1t13.5 -1q20 0 32 15.5t21 51.5l118 440q10 37 32.5 57t52.5 20q39 0 56.5 -27t4.5 -73zM342 660q-7 -32 -34 -51t-64 -19q-36 0 -57.5 20t-15.5 50l1 5q7 32 34 51t64 19
q36 0 57.5 -20t15.5 -50z" />
    <glyph glyph-name="k" unicode="k" horiz-adv-x="591" 
d="M320 636l-80 -296l230 175q35 27 58 27q28 0 45.5 -17.5t17.5 -43.5q0 -32 -28 -52l-158 -115l83 -201q13 -31 13 -52q0 -31 -23.5 -49t-54.5 -18q-57 0 -79 55l-71 170l-82 -60l-23 -88q-10 -37 -32.5 -57t-52.5 -20q-39 0 -56.5 27t-4.5 73l152 565q10 37 32.5 57
t52.5 20q39 0 56.5 -27t4.5 -73z" />
    <glyph glyph-name="l" unicode="l" horiz-adv-x="302" 
d="M326 636l-152 -565q-10 -37 -32.5 -57t-52.5 -20q-39 0 -56.5 27t-4.5 73l152 565q10 37 32.5 57t52.5 20q39 0 56.5 -27t4.5 -73z" />
    <glyph glyph-name="m" unicode="m" horiz-adv-x="949" 
d="M354 94l54 200q7 26 7 48q0 66 -71 66q-86 0 -114 -107l-62 -230q-10 -37 -32.5 -57t-52.5 -20q-39 0 -56.5 27t-4.5 73l99 371q10 37 33 57t55 20t50 -17.5t18 -44.5q74 66 142 66q107 0 142 -97q80 97 192 97q72 0 113.5 -41.5t41.5 -114.5q0 -34 -18 -102l-58 -217
q-10 -37 -32.5 -57t-52.5 -20q-39 0 -56.5 27t-4.5 73l54 200q7 26 7 48q0 66 -71 66q-86 0 -114 -107l-62 -230q-10 -37 -32.5 -57t-52.5 -20q-39 0 -56.5 27t-4.5 73z" />
    <glyph glyph-name="n" unicode="n" horiz-adv-x="619" 
d="M209 542q32 0 50 -17.5t18 -44.5q74 66 146 66t115 -42t43 -114q0 -34 -18 -102l-58 -217q-10 -37 -32.5 -57t-52.5 -20q-39 0 -56.5 27t-4.5 73l54 200q7 26 7 48q0 66 -74 66q-44 0 -73.5 -28.5t-42.5 -78.5l-62 -230q-10 -37 -32.5 -57t-52.5 -20q-39 0 -56.5 27
t-4.5 73l99 371q10 37 33 57t55 20z" />
    <glyph glyph-name="o" unicode="o" horiz-adv-x="652" 
d="M300 -12q-117 0 -187.5 69.5t-70.5 178.5q0 122 91.5 216t218.5 94q117 0 187.5 -69.5t70.5 -178.5q0 -122 -91.5 -216t-218.5 -94zM307 118q66 0 110 57t44 119q0 58 -31.5 90t-84.5 32q-66 0 -110 -57t-44 -119q0 -58 31.5 -90t84.5 -32z" />
    <glyph glyph-name="p" unicode="p" horiz-adv-x="674" 
d="M209 542q32 0 49.5 -17.5t17.5 -46.5q73 68 151 68q90 0 148 -62t58 -168q0 -139 -89.5 -232.5t-206.5 -93.5q-110 0 -168 88l-44 -167q-10 -37 -32.5 -57t-52.5 -20q-39 0 -56.5 27t-4.5 73l142 531q10 37 33 57t55 20zM364 418q-64 0 -113 -55t-49 -131q0 -51 32 -82.5
t83 -31.5q63 0 111 54.5t48 133.5q0 52 -30.5 82t-81.5 30z" />
    <glyph glyph-name="q" unicode="q" horiz-adv-x="674" 
d="M336 546q110 0 168 -88l2 7q9 34 30 55.5t54 21.5q39 0 56.5 -27t4.5 -73l-141 -531q-10 -37 -32.5 -57t-52.5 -20q-39 0 -56.5 27t-4.5 73l33 124q-73 -68 -151 -68q-90 0 -148 62t-58 168q0 139 89.5 232.5t206.5 93.5zM356 418q-63 0 -111 -54.5t-48 -133.5
q0 -52 30.5 -82t81.5 -30q64 0 113 55t49 131q0 51 -32 82.5t-83 31.5z" />
    <glyph glyph-name="r" unicode="r" horiz-adv-x="419" 
d="M268 451l-3 -12q54 103 123 103q30 0 47.5 -18t17.5 -50q0 -59 -66 -78q-73 -21 -118 -69.5t-69 -136.5l-33 -119q-10 -37 -32.5 -57t-52.5 -20q-39 0 -56.5 27t-4.5 73l100 371q10 37 32.5 57t52.5 20q37 0 54.5 -25t7.5 -66z" />
    <glyph glyph-name="s" unicode="s" 
d="M228 104q64 0 64 47q0 23 -62 50q-38 16 -60.5 28t-47.5 31t-36.5 43t-11.5 55q0 82 58.5 135t156.5 53q90 0 171 -48q35 -20 35 -56q0 -27 -18.5 -46t-44.5 -19q-17 0 -40 15q-58 38 -114 38q-28 0 -43.5 -12t-15.5 -33q0 -15 17 -27t54 -29q33 -15 53.5 -26t45 -29.5
t36.5 -42.5t12 -54q0 -87 -61.5 -138t-158.5 -51q-113 0 -206 67q-27 19 -27 52q0 26 18 45t43 19q22 0 40 -14q68 -53 143 -53z" />
    <glyph glyph-name="t" unicode="t" horiz-adv-x="415" 
d="M165 536l18 66q10 37 32.5 57t52.5 20q39 0 56.5 -27t4.5 -73l-12 -43h51q26 0 44.5 -18.5t18.5 -46.5t-18.5 -46.5t-44.5 -18.5h-86l-60 -225q-4 -16 -4 -24q0 -32 38 -32h12q24 0 39 -15t15 -42q0 -45 -39 -62q-35 -15 -89 -15q-68 0 -103.5 29t-35.5 76q0 27 10 67
l65 243q-22 3 -39 20t-17 45t18.5 46.5t44.5 18.5h28z" />
    <glyph glyph-name="u" unicode="u" horiz-adv-x="622" 
d="M413 -6q-32 0 -50 17.5t-18 44.5q-74 -66 -146 -66t-115 42t-43 114q0 34 18 102l58 217q10 37 32.5 57t52.5 20q39 0 56.5 -27t4.5 -73l-54 -200q-7 -26 -7 -48q0 -66 74 -66q44 0 73.5 28.5t42.5 78.5l62 230q10 37 32.5 57t52.5 20q39 0 56.5 -27t4.5 -73l-99 -371
q-10 -37 -33 -57t-55 -20z" />
    <glyph glyph-name="v" unicode="v" horiz-adv-x="592" 
d="M595 444l-271 -392q-23 -33 -45.5 -47.5t-55.5 -14.5h-4q-66 0 -76 68l-59 378q-3 17 -3 36q0 30 23.5 50t53.5 20q33 0 54 -17t23 -47l30 -299l199 315q30 48 79 48q30 0 47 -15.5t17 -42.5q0 -23 -12 -40z" />
    <glyph glyph-name="w" unicode="w" horiz-adv-x="857" 
d="M105 58l-22 377q-2 22 -2 36q0 29 24 50t54 21q33 0 54 -17t22 -47l7 -267l156 271q35 61 89 61h8q30 0 48.5 -16t19.5 -45l12 -272l164 287q26 45 71 45q29 0 45 -15t16 -42q0 -21 -12 -41l-235 -392q-37 -62 -99 -62h-5q-66 0 -69 68l-13 267l-160 -273
q-36 -62 -99 -62h-5q-66 0 -69 68z" />
    <glyph glyph-name="x" unicode="x" horiz-adv-x="578" 
d="M251 487l61 -112l132 130q16 15 23.5 21t20.5 12t29 6q26 0 43.5 -16.5t17.5 -43.5q0 -37 -35 -68l-167 -150l90 -145q19 -31 19 -57q0 -33 -20.5 -53t-53.5 -20q-47 0 -76 57l-64 120l-141 -137q-2 -2 -8.5 -8t-9 -8t-8 -6t-8.5 -6t-8 -4.5t-9.5 -3.5t-10 -2t-11.5 -1
q-26 0 -43 17t-17 43q0 37 34 68l176 157l-87 137q-19 28 -19 58q0 31 19.5 51.5t51.5 20.5q28 0 45.5 -13.5t33.5 -43.5z" />
    <glyph glyph-name="y" unicode="y" horiz-adv-x="592" 
d="M62 -27q30 -8 45 -8q28 0 52 32l-64 438q-3 17 -3 36q0 30 22 50.5t54 20.5q31 0 52 -17.5t22 -47.5l31 -309l188 326q26 48 77 48q30 0 48 -16t18 -43q0 -20 -20 -52l-278 -444q-51 -82 -101 -116t-116 -34q-48 0 -72 11q-46 20 -46 66q0 27 18 46.5t42 19.5q5 0 31 -7z
" />
    <glyph glyph-name="z" unicode="z" horiz-adv-x="557" 
d="M165 536h334q32 0 50 -15t18 -41v-1q0 -36 -37 -68l-331 -288h200q25 0 43.5 -18.5t18.5 -43.5t-18 -43t-44 -18h-345q-32 0 -50 15t-18 41v1q0 36 37 68l330 288h-188q-26 0 -44 18t-18 43q0 26 18.5 44t43.5 18z" />
    <glyph glyph-name="braceleft" unicode="{" horiz-adv-x="490" 
d="M111 345h3q68 0 96 32t39 121q13 107 71.5 157t163.5 58q67 4 67 -52q0 -45 -47 -53q-66 -12 -91 -43.5t-33 -102.5q-11 -100 -48 -139.5t-115 -47.5q41 -6 63 -30t22 -59q0 -31 -18 -77q-17 -45 -17 -70q0 -19 7 -33t15 -20t22 -14q35 -18 35 -53q0 -28 -20.5 -44
t-49.5 -9q-80 19 -117 53.5t-37 92.5q0 33 20 86q16 42 16 71q0 26 -9 38.5t-35 19.5q-65 14 -65 60q0 25 17.5 41.5t44.5 16.5z" />
    <glyph glyph-name="bar" unicode="|" horiz-adv-x="350" 
d="M132 -74v818q0 25 17.5 42.5t42.5 17.5t42.5 -17.5t17.5 -42.5v-818q0 -25 -17.5 -42.5t-42.5 -17.5t-42.5 17.5t-17.5 42.5z" />
    <glyph glyph-name="braceright" unicode="}" horiz-adv-x="490" 
d="M389 229h-3q-68 0 -96 -32t-39 -121q-13 -107 -71.5 -157t-163.5 -58q-67 -4 -67 52q0 45 47 53q66 12 91 43.5t33 102.5q11 100 48 139.5t115 47.5q-41 6 -63 30t-22 59q0 31 18 77q17 45 17 70q0 19 -7 33t-15 20t-22 14q-35 18 -35 53q0 28 20.5 44t49.5 9
q80 -19 117 -53.5t37 -92.5q0 -33 -20 -86q-16 -42 -16 -71q0 -26 9 -38.5t35 -19.5q65 -14 65 -60q0 -25 -17.5 -41.5t-44.5 -16.5z" />
    <glyph glyph-name="asciitilde" unicode="~" horiz-adv-x="510" 
d="M106 224q-18 0 -30 11.5t-12 28.5q0 15 8 29q56 100 136 100q40 0 79 -29q36 -26 53 -26q28 0 54 32q20 23 45 23q18 0 30 -11.5t12 -28.5q0 -15 -8 -29q-56 -100 -136 -100q-38 0 -79 29q-36 26 -53 26q-28 0 -54 -32q-20 -23 -45 -23z" />
    <glyph glyph-name="uni00A0" unicode="&#xa0;" horiz-adv-x="300" 
 />
    <glyph glyph-name="exclamdown" unicode="&#xa1;" horiz-adv-x="325" 
d="M17 48l143 382q15 38 50 38q21 0 32 -13t7 -36l-60 -371q-4 -22 -18 -36.5t-34 -14.5h-91q-20 0 -28.5 15t-0.5 36zM344 623l-1 -6q-7 -37 -33.5 -60t-64.5 -23q-39 0 -60 23.5t-15 59.5l1 6q6 36 33 59.5t65 23.5q39 0 60 -23.5t15 -59.5z" />
    <glyph glyph-name="cent" unicode="&#xa2;" horiz-adv-x="586" 
d="M507 122q-74 -46 -165 -46q-24 0 -46 3l-16 -41q-19 -50 -57 -50q-26 0 -39 19t-1 48l19 49q-65 30 -100.5 87.5t-35.5 134.5q0 131 91.5 219.5t225.5 88.5q17 0 26 -1l11 29q21 50 58 50q26 0 38.5 -18.5t0.5 -48.5l-13 -33q47 -21 75 -49q29 -29 29 -59t-21 -50.5
t-51 -20.5t-49 21q-17 18 -37 31l-109 -279q45 1 90 24q28 14 49 14q26 0 42.5 -18t16.5 -45q0 -39 -32 -59zM215 328q0 -60 42 -95l106 270q-64 -7 -106 -59t-42 -116z" />
    <glyph glyph-name="sterling" unicode="&#xa3;" horiz-adv-x="644" 
d="M450 568q-40 0 -68 -28q-27 -27 -41 -78l-19 -68h156q26 0 45 -19t19 -45t-19 -44.5t-45 -18.5h-189l-36 -134h225q28 0 47.5 -19.5t19.5 -47.5t-19.5 -47t-47.5 -19h-419q-27 0 -44.5 16t-17.5 40q0 44 51 60l51 16l36 135h-1q-26 0 -45 18.5t-19 44.5t19 45t45 19h35
l25 94q26 97 80 151q71 71 187 71q105 0 165 -57q32 -30 32 -62q0 -33 -21.5 -55.5t-54.5 -22.5q-29 0 -51 22q-33 33 -81 33z" />
    <glyph glyph-name="yen" unicode="&#xa5;" horiz-adv-x="711" 
d="M392 441l206 222q40 44 74 44q30 0 46.5 -17t16.5 -46q0 -31 -28 -61l-212 -213h83q22 0 38 -16t16 -38t-16 -38t-38 -16h-151l-16 -62h122q23 0 38.5 -16t15.5 -38t-15.5 -38t-38.5 -16h-151l-6 -21q-10 -36 -32.5 -56.5t-50.5 -20.5q-38 0 -55 24.5t-5 69.5l1 4h-122
q-22 0 -38 16t-16 38t16 38t38 16h151l16 62h-122q-23 0 -38.5 16t-15.5 38t15.5 38t38.5 16h110l-92 205q-16 39 -16 57q0 32 22 53t55 21q54 0 73 -49z" />
    <glyph glyph-name="section" unicode="&#xa7;" horiz-adv-x="632" 
d="M399 288q26 0 45.5 14t19.5 35q0 19 -20 31t-66 26q-69 21 -100 21q-26 0 -45.5 -14t-19.5 -35q0 -19 20 -31t66 -26q69 -21 100 -21zM291 105q32 0 51 10.5t19 27.5q0 16 -21 27t-81 27q-45 12 -73.5 22.5t-57.5 27t-43 39.5t-14 54q0 50 34.5 84t101.5 48
q-36 34 -36 83q0 68 64 112.5t164 44.5q104 0 180 -50q31 -21 31 -54q0 -27 -18.5 -45t-45.5 -18q-20 0 -36 11q-66 42 -121 42q-34 0 -53.5 -10.5t-19.5 -27.5q0 -16 21 -27t81 -27q45 -12 73.5 -22.5t57.5 -27t43 -39.5t14 -54q0 -50 -34.5 -84t-101.5 -48q36 -34 36 -83
q0 -68 -63.5 -112.5t-159.5 -44.5q-127 0 -208 66q-24 20 -24 51q0 26 18 44.5t43 18.5q24 0 42 -14q66 -52 137 -52z" />
    <glyph glyph-name="dieresis" unicode="&#xa8;" 
d="M326 661q-7 -33 -32 -52.5t-59 -19.5q-35 0 -54 20.5t-12 51.5l1 4q7 32 32 51.5t59 19.5q33 0 52.5 -21t13.5 -50zM540 661q-7 -33 -32 -52.5t-59 -19.5q-35 0 -54 20.5t-12 51.5l1 4q7 32 32 51.5t59 19.5q33 0 52.5 -21t13.5 -50z" />
    <glyph glyph-name="copyright" unicode="&#xa9;" horiz-adv-x="830" 
d="M435 -12q-151 0 -256 105.5t-105 254.5v2q0 149 106 255.5t257 106.5t256 -105.5t105 -254.5v-2q0 -149 -106 -255.5t-257 -106.5zM435 28q136 0 228.5 94t92.5 228v2q0 134 -91.5 227t-227.5 93t-228.5 -94t-92.5 -228v-2q0 -134 91.5 -227t227.5 -93zM440 156
q-84 0 -140.5 57t-56.5 140v2q0 83 56.5 141t143.5 58q77 0 130 -40q19 -14 19 -36q0 -18 -12.5 -30.5t-29.5 -12.5q-14 0 -28 11q-37 28 -79 28q-47 0 -78.5 -34.5t-31.5 -83.5v-2q0 -49 31 -83.5t79 -34.5q46 0 85 33q12 10 26 10q16 0 28.5 -12.5t12.5 -28.5
q0 -18 -13 -29q-59 -53 -142 -53z" />
    <glyph glyph-name="ordfeminine" unicode="&#xaa;" horiz-adv-x="390" 
d="M261 633q-22 0 -50 -7q-15 -3 -18 -3q-30 0 -30 32q0 26 27 36q39 13 89 13q119 0 119 -91q0 -23 -6 -44l-34 -125q-11 -42 -47 -42q-19 0 -28 11t-7 27q-38 -40 -88 -40q-38 0 -62 22t-24 57q0 50 36 78.5t91 28.5q42 0 84 -14l2 7q3 11 3 17q0 37 -57 37zM81 277
q-13 0 -23 9.5t-10 23.5t10 23.5t23 9.5h224q13 0 23 -9.5t10 -23.5t-10 -23.5t-23 -9.5h-224zM224 457q25 0 46.5 17.5t27.5 42.5l2 8q-28 10 -55 10t-43.5 -12.5t-16.5 -33.5q0 -14 10.5 -23t28.5 -9z" />
    <glyph glyph-name="guillemotleft" unicode="&#xab;" horiz-adv-x="643" 
d="M73 288l169 167q32 30 58 30t41.5 -15t15.5 -40q0 -28 -21 -47l-146 -138l60 -114q10 -20 10 -39q0 -26 -18.5 -43.5t-45.5 -17.5q-40 0 -59 37l-68 135q-16 32 -16 44q0 23 20 41zM343 288l169 167q32 30 58 30t41.5 -15t15.5 -40q0 -28 -21 -47l-146 -138l60 -114
q10 -20 10 -39q0 -26 -18.5 -43.5t-45.5 -17.5q-40 0 -59 37l-68 135q-16 32 -16 44q0 23 20 41z" />
    <glyph glyph-name="registered" unicode="&#xae;" horiz-adv-x="368" 
d="M259 360q-73 0 -123.5 51t-50.5 123v1q0 72 51 123.5t123 51.5q73 0 123.5 -51t50.5 -123v-1q0 -72 -51 -123.5t-123 -51.5zM259 379q65 0 109.5 46t44.5 110v1q0 64 -44.5 109.5t-109.5 45.5t-109.5 -46t-44.5 -110v-1q0 -64 44.5 -109.5t109.5 -45.5zM183 468v136
q0 10 7.5 18t18.5 8h62q77 0 77 -63q0 -39 -34 -55l23 -27q7 -8 7 -18t-7.5 -17.5t-18.5 -7.5q-12 0 -20 10l-39 49h-24v-33q0 -10 -7.5 -18t-18.5 -8t-18.5 8t-7.5 18zM235 542h33q28 0 28 22t-28 22h-33v-44z" />
    <glyph glyph-name="macron" unicode="&#xaf;" 
d="M486 600h-266q-22 0 -37.5 15t-15.5 37t15.5 37.5t37.5 15.5h266q22 0 37.5 -15.5t15.5 -37.5t-15.5 -37t-37.5 -15z" />
    <glyph glyph-name="degree" unicode="&#xb0;" horiz-adv-x="445" 
d="M249 363q-73 0 -117 43t-44 111q0 76 56 134t135 58q73 0 117 -43t44 -111q0 -76 -56 -134t-135 -58zM252 441q42 0 70.5 34.5t28.5 76.5q0 35 -20.5 57t-54.5 22q-42 0 -70.5 -34.5t-28.5 -76.5q0 -35 20.5 -57t54.5 -22z" />
    <glyph glyph-name="plusminus" unicode="&#xb1;" horiz-adv-x="640" 
d="M417 380l-27 -105q-10 -34 -31 -53.5t-46 -19.5q-34 0 -49.5 23.5t-3.5 67.5l22 87h-98q-27 0 -46 19t-19 46t19 46t46 19h134l27 103q10 34 31 53.5t46 19.5q34 0 49.5 -23.5t3.5 -67.5l-22 -85h98q27 0 46 -19t19 -46t-19 -46t-46 -19h-134zM80 0h370q26 0 44.5 18.5
t18.5 44.5t-18.5 44.5t-44.5 18.5h-370q-26 0 -44.5 -18.5t-18.5 -44.5t18.5 -44.5t44.5 -18.5z" />
    <glyph glyph-name="acute" unicode="&#xb4;" 
d="M450 680l-78 -58q-44 -33 -89 -33q-42 0 -42 28q0 14 13 28l76 84q31 33 57 33q29 0 57 -15t28 -34q0 -17 -22 -33z" />
    <glyph glyph-name="paragraph" unicode="&#xb6;" horiz-adv-x="599" 
d="M610 623l-147 -552q-10 -36 -33 -56.5t-53 -20.5q-39 0 -56.5 27t-5.5 73l31 118q-124 2 -191.5 55t-67.5 157q0 122 90 199t263 77h108q35 0 52.5 -23t9.5 -54z" />
    <glyph glyph-name="periodcentered" unicode="&#xb7;" horiz-adv-x="319" 
d="M253 313l-1 -6q-6 -36 -33 -59.5t-65 -23.5q-39 0 -60 23.5t-15 59.5l1 6q7 37 33.5 60t64.5 23q39 0 60 -23.5t15 -59.5z" />
    <glyph glyph-name="cedilla" unicode="&#xb8;" 
d="M280 10l-97 -145q-21 -32 -52 -32q-22 0 -45 16t-23 35q0 16 15 32l90 94h112z" />
    <glyph glyph-name="ordmasculine" unicode="&#xba;" horiz-adv-x="402" 
d="M246 399q-64 0 -103 38t-39 98q0 68 49.5 119t120.5 51q64 0 103 -38t39 -98q0 -68 -49.5 -119t-120.5 -51zM249 470q37 0 61 30t24 66q0 30 -17.5 49t-45.5 19q-37 0 -61 -30t-24 -66q0 -30 17.5 -49t45.5 -19zM82 277q-14 0 -23.5 9.5t-9.5 23.5t9.5 23.5t23.5 9.5h234
q14 0 23.5 -9.5t9.5 -23.5t-9.5 -23.5t-23.5 -9.5h-234z" />
    <glyph glyph-name="guillemotright" unicode="&#xbb;" horiz-adv-x="643" 
d="M567 238l-169 -167q-32 -30 -58 -30t-41.5 15t-15.5 40q0 28 21 47l146 138l-60 114q-10 20 -10 39q0 26 18.5 43.5t45.5 17.5q40 0 59 -37l68 -135q16 -32 16 -44q0 -23 -20 -41zM297 238l-169 -167q-32 -30 -58 -30t-41.5 15t-15.5 40q0 28 21 47l146 138l-60 114
q-10 20 -10 39q0 26 18.5 43.5t45.5 17.5q40 0 59 -37l68 -135q16 -32 16 -44q0 -23 -20 -41z" />
    <glyph glyph-name="questiondown" unicode="&#xbf;" horiz-adv-x="544" 
d="M371 161q32 17 52 17q26 0 43.5 -18.5t17.5 -41.5q0 -39 -34 -64q-87 -63 -203 -63q-102 0 -162.5 53.5t-60.5 128.5q0 88 65 144t191 75l11 27q9 22 26 35.5t38 13.5h8q22 0 33.5 -14t8.5 -38l-9 -76q-3 -24 -18 -35t-47 -16q-66 -10 -106 -34t-40 -62q0 -62 83 -62
q48 0 103 30zM486 617q-7 -37 -33.5 -60t-64.5 -23q-39 0 -60 23.5t-15 59.5l1 6q6 36 33 59.5t65 23.5q39 0 60 -23.5t15 -59.5z" />
    <glyph glyph-name="Agrave" unicode="&#xc0;" horiz-adv-x="765" 
d="M303 293h194l-36 231zM590 638l94 -530q5 -35 5 -40q0 -31 -22.5 -52.5t-56.5 -21.5q-31 0 -51 17t-24 44l-16 102h-310l-80 -115q-34 -48 -78 -48q-30 0 -46.5 16.5t-16.5 43.5t18 51l389 546q42 60 108 60h3q71 0 84 -73zM442 792l-46 58q-14 19 -14 32q0 18 27.5 34
t56.5 16q40 0 53 -37l30 -82q4 -12 4 -21q0 -33 -48 -33q-22 0 -34.5 6.5t-28.5 26.5z" />
    <glyph glyph-name="Aacute" unicode="&#xc1;" horiz-adv-x="765" 
d="M303 293h194l-36 231zM590 638l94 -530q5 -35 5 -40q0 -31 -22.5 -52.5t-56.5 -21.5q-31 0 -51 17t-24 44l-16 102h-310l-80 -115q-34 -48 -78 -48q-30 0 -46.5 16.5t-16.5 43.5t18 51l389 546q42 60 108 60h3q71 0 84 -73zM702 850l-78 -58q-44 -33 -89 -33
q-42 0 -42 28q0 14 13 28l76 84q31 33 57 33q29 0 57 -15t28 -34q0 -17 -22 -33z" />
    <glyph glyph-name="Acircumflex" unicode="&#xc2;" horiz-adv-x="765" 
d="M303 293h194l-36 231zM590 638l94 -530q5 -35 5 -40q0 -31 -22.5 -52.5t-56.5 -21.5q-31 0 -51 17t-24 44l-16 102h-310l-80 -115q-34 -48 -78 -48q-30 0 -46.5 16.5t-16.5 43.5t18 51l389 546q42 60 108 60h3q71 0 84 -73zM648 889l38 -74q13 -23 13 -32q0 -24 -34 -24
q-31 0 -49.5 5.5t-38.5 27.5l-36 39l-57 -39q-48 -33 -95 -33q-32 0 -32 23q0 15 17 32l82 79q34 34 78 34h44q51 0 70 -38z" />
    <glyph glyph-name="Atilde" unicode="&#xc3;" horiz-adv-x="765" 
d="M303 293h194l-36 231zM590 638l94 -530q5 -35 5 -40q0 -31 -22.5 -52.5t-56.5 -21.5q-31 0 -51 17t-24 44l-16 102h-310l-80 -115q-34 -48 -78 -48q-30 0 -46.5 16.5t-16.5 43.5t18 51l389 546q42 60 108 60h3q71 0 84 -73zM374 762q-18 0 -30 11.5t-12 28.5q0 15 8 29
q56 100 136 100q40 0 79 -29q36 -26 53 -26q28 0 54 32q20 23 45 23q18 0 30 -11.5t12 -28.5q0 -15 -8 -29q-56 -100 -136 -100q-38 0 -79 29q-36 26 -53 26q-28 0 -54 -32q-20 -23 -45 -23z" />
    <glyph glyph-name="Adieresis" unicode="&#xc4;" horiz-adv-x="765" 
d="M303 293h194l-36 231zM590 638l94 -530q5 -35 5 -40q0 -31 -22.5 -52.5t-56.5 -21.5q-31 0 -51 17t-24 44l-16 102h-310l-80 -115q-34 -48 -78 -48q-30 0 -46.5 16.5t-16.5 43.5t18 51l389 546q42 60 108 60h3q71 0 84 -73zM512 831q-7 -33 -32 -52.5t-59 -19.5
q-35 0 -54 20.5t-12 51.5l1 4q7 32 32 51.5t59 19.5q33 0 52.5 -21t13.5 -50zM726 831q-7 -33 -32 -52.5t-59 -19.5q-35 0 -54 20.5t-12 51.5l1 4q7 32 32 51.5t59 19.5q33 0 52.5 -21t13.5 -50z" />
    <glyph glyph-name="Aring" unicode="&#xc5;" horiz-adv-x="765" 
d="M51 -6q-30 0 -46.5 16.5t-16.5 43.5t18 51l418 586q-27 27 -27 72q0 55 39 94.5t95 39.5q50 0 80 -29.5t30 -74.5q0 -72 -59 -111l102 -574q5 -35 5 -40q0 -31 -22.5 -52.5t-56.5 -21.5q-31 0 -51 17t-24 44l-16 102h-310l-80 -115q-34 -48 -78 -48zM303 293h194l-36 231
zM509 714q30 0 49 23.5t19 54.5q0 22 -13 36t-35 14q-30 0 -49 -23.5t-19 -54.5q0 -22 13 -36t35 -14z" />
    <glyph glyph-name="AE" unicode="&#xc6;" horiz-adv-x="1058" 
d="M340 293h164l73 274h-19zM561 700h473q28 0 48.5 -20t20.5 -49q0 -28 -20 -48t-49 -20h-305l-38 -143h223q29 0 49 -20t20 -48t-20 -47.5t-49 -19.5h-260l-40 -148h274q28 0 48.5 -20.5t20.5 -48.5t-20 -48t-49 -20h-375q-39 0 -57 27t-5 73l16 57h-236l-95 -119
q-36 -44 -74 -44q-28 0 -43.5 15t-15.5 40q0 30 23 59l433 536q45 56 102 56z" />
    <glyph glyph-name="Ccedilla" unicode="&#xc7;" horiz-adv-x="726" 
d="M625 63q-40 -34 -101 -54.5t-127 -20.5h-9l-82 -123q-21 -32 -52 -32q-22 0 -45 16t-23 35q0 16 15 32l83 87q-100 29 -158.5 105t-58.5 185q0 169 125.5 294t300.5 125q138 0 231 -86q32 -30 32 -65q0 -33 -23 -56.5t-56 -23.5q-35 0 -54 22q-31 34 -64 50.5t-85 16.5
q-97 0 -172 -80.5t-75 -190.5q0 -75 48 -122t123 -47q40 0 66 10t66 35q28 18 52 18q30 0 50 -21.5t20 -51.5q0 -34 -27 -57z" />
    <glyph glyph-name="Egrave" unicode="&#xc8;" horiz-adv-x="665" 
d="M495 0h-394q-39 0 -56.5 27t-5.5 73l140 523q10 36 33 56.5t53 20.5h376q29 0 49 -20t20 -49q0 -28 -20 -48t-49 -20h-325l-38 -143h243q29 0 49 -20t20 -48t-20 -47.5t-49 -19.5h-280l-40 -148h294q29 0 49 -20.5t20 -48.5t-20 -48t-49 -20zM395 782l-46 58
q-14 19 -14 32q0 18 27.5 34t56.5 16q40 0 53 -37l30 -82q4 -12 4 -21q0 -33 -48 -33q-22 0 -34.5 6.5t-28.5 26.5z" />
    <glyph glyph-name="Eacute" unicode="&#xc9;" horiz-adv-x="665" 
d="M495 0h-394q-39 0 -56.5 27t-5.5 73l140 523q10 36 33 56.5t53 20.5h376q29 0 49 -20t20 -49q0 -28 -20 -48t-49 -20h-325l-38 -143h243q29 0 49 -20t20 -48t-20 -47.5t-49 -19.5h-280l-40 -148h294q29 0 49 -20.5t20 -48.5t-20 -48t-49 -20zM655 840l-78 -58
q-44 -33 -89 -33q-42 0 -42 28q0 14 13 28l76 84q31 33 57 33q29 0 57 -15t28 -34q0 -17 -22 -33z" />
    <glyph glyph-name="Ecircumflex" unicode="&#xca;" horiz-adv-x="665" 
d="M495 0h-394q-39 0 -56.5 27t-5.5 73l140 523q10 36 33 56.5t53 20.5h376q29 0 49 -20t20 -49q0 -28 -20 -48t-49 -20h-325l-38 -143h243q29 0 49 -20t20 -48t-20 -47.5t-49 -19.5h-280l-40 -148h294q29 0 49 -20.5t20 -48.5t-20 -48t-49 -20zM600 879l38 -74
q13 -23 13 -32q0 -24 -34 -24q-31 0 -49.5 5.5t-38.5 27.5l-36 39l-57 -39q-48 -33 -95 -33q-32 0 -32 23q0 15 17 32l82 79q34 34 78 34h44q51 0 70 -38z" />
    <glyph glyph-name="Edieresis" unicode="&#xcb;" horiz-adv-x="665" 
d="M495 0h-394q-39 0 -56.5 27t-5.5 73l140 523q10 36 33 56.5t53 20.5h376q29 0 49 -20t20 -49q0 -28 -20 -48t-49 -20h-325l-38 -143h243q29 0 49 -20t20 -48t-20 -47.5t-49 -19.5h-280l-40 -148h294q29 0 49 -20.5t20 -48.5t-20 -48t-49 -20zM464 821q-7 -33 -32 -52.5
t-59 -19.5q-35 0 -54 20.5t-12 51.5l1 4q7 32 32 51.5t59 19.5q33 0 52.5 -21t13.5 -50zM678 821q-7 -33 -32 -52.5t-59 -19.5q-35 0 -54 20.5t-12 51.5l1 4q7 32 32 51.5t59 19.5q33 0 52.5 -21t13.5 -50z" />
    <glyph glyph-name="Igrave" unicode="&#xcc;" horiz-adv-x="336" 
d="M336 606l-144 -535q-10 -36 -33 -56.5t-53 -20.5q-39 0 -56.5 27t-5.5 73l144 535q10 36 33 56.5t53 20.5q39 0 56.5 -27t5.5 -73zM218 782l-46 58q-14 19 -14 32q0 18 27.5 34t56.5 16q40 0 53 -37l30 -82q4 -12 4 -21q0 -33 -48 -33q-22 0 -34.5 6.5t-28.5 26.5z" />
    <glyph glyph-name="Iacute" unicode="&#xcd;" horiz-adv-x="336" 
d="M336 606l-144 -535q-10 -36 -33 -56.5t-53 -20.5q-39 0 -56.5 27t-5.5 73l144 535q10 36 33 56.5t53 20.5q39 0 56.5 -27t5.5 -73zM478 840l-78 -58q-44 -33 -89 -33q-42 0 -42 28q0 14 13 28l76 84q31 33 57 33q29 0 57 -15t28 -34q0 -17 -22 -33z" />
    <glyph glyph-name="Icircumflex" unicode="&#xce;" horiz-adv-x="336" 
d="M336 606l-144 -535q-10 -36 -33 -56.5t-53 -20.5q-39 0 -56.5 27t-5.5 73l144 535q10 36 33 56.5t53 20.5q39 0 56.5 -27t5.5 -73zM423 879l38 -74q13 -23 13 -32q0 -24 -34 -24q-31 0 -49.5 5.5t-38.5 27.5l-36 39l-57 -39q-48 -33 -95 -33q-32 0 -32 23q0 15 17 32
l82 79q34 34 78 34h44q51 0 70 -38z" />
    <glyph glyph-name="Idieresis" unicode="&#xcf;" horiz-adv-x="336" 
d="M336 606l-144 -535q-10 -36 -33 -56.5t-53 -20.5q-39 0 -56.5 27t-5.5 73l144 535q10 36 33 56.5t53 20.5q39 0 56.5 -27t5.5 -73zM288 821q-7 -33 -32 -52.5t-59 -19.5q-35 0 -54 20.5t-12 51.5l1 4q7 32 32 51.5t59 19.5q33 0 52.5 -21t13.5 -50zM502 821
q-7 -33 -32 -52.5t-59 -19.5q-35 0 -54 20.5t-12 51.5l1 4q7 32 32 51.5t59 19.5q33 0 52.5 -21t13.5 -50z" />
    <glyph glyph-name="Eth" unicode="&#xd0;" horiz-adv-x="797" 
d="M285 700h139q184 0 274 -90q76 -76 76 -205q0 -161 -115 -276q-129 -129 -367 -129h-171q-39 0 -56.5 27t-5.5 73l49 184h-3q-29 0 -48.5 20t-19.5 48t19.5 48t48.5 20h40l54 203q10 36 33 56.5t53 20.5zM223 139h87q149 0 234 85q70 70 70 175q0 70 -41 111
q-51 51 -161 51h-75l-38 -141h61q28 0 48 -20t20 -48t-20 -48t-48 -20h-98z" />
    <glyph glyph-name="Ntilde" unicode="&#xd1;" horiz-adv-x="786" 
d="M546 255l101 374q10 37 32.5 57t52.5 20q39 0 56.5 -27t4.5 -73l-145 -538q-19 -72 -83 -72h-3q-35 0 -54.5 14t-33.5 44l-187 405l-104 -388q-10 -37 -32.5 -57t-52.5 -20q-39 0 -56.5 27t-4.5 73l143 533q20 77 91 77h7q63 0 90 -61zM375 752q-18 0 -30 11.5t-12 28.5
q0 15 8 29q56 100 136 100q40 0 79 -29q36 -26 53 -26q28 0 54 32q20 23 45 23q18 0 30 -11.5t12 -28.5q0 -15 -8 -29q-56 -100 -136 -100q-38 0 -79 29q-36 26 -53 26q-28 0 -54 -32q-20 -23 -45 -23z" />
    <glyph glyph-name="Ograve" unicode="&#xd2;" horiz-adv-x="832" 
d="M387 -12q-143 0 -231.5 88t-88.5 222q0 105 52 199.5t150 154.5t219 60q143 0 231.5 -88t88.5 -222q0 -105 -52 -199.5t-150 -154.5t-219 -60zM405 130q105 0 174 82.5t69 179.5q0 80 -47 129t-131 49q-105 0 -174 -82.5t-69 -179.5q0 -80 47 -129t131 -49zM461 792
l-46 58q-14 19 -14 32q0 18 27.5 34t56.5 16q40 0 53 -37l30 -82q4 -12 4 -21q0 -33 -48 -33q-22 0 -34.5 6.5t-28.5 26.5z" />
    <glyph glyph-name="Oacute" unicode="&#xd3;" horiz-adv-x="832" 
d="M387 -12q-143 0 -231.5 88t-88.5 222q0 105 52 199.5t150 154.5t219 60q143 0 231.5 -88t88.5 -222q0 -105 -52 -199.5t-150 -154.5t-219 -60zM405 130q105 0 174 82.5t69 179.5q0 80 -47 129t-131 49q-105 0 -174 -82.5t-69 -179.5q0 -80 47 -129t131 -49zM721 850
l-78 -58q-44 -33 -89 -33q-42 0 -42 28q0 14 13 28l76 84q31 33 57 33q29 0 57 -15t28 -34q0 -17 -22 -33z" />
    <glyph glyph-name="Ocircumflex" unicode="&#xd4;" horiz-adv-x="832" 
d="M387 -12q-143 0 -231.5 88t-88.5 222q0 105 52 199.5t150 154.5t219 60q143 0 231.5 -88t88.5 -222q0 -105 -52 -199.5t-150 -154.5t-219 -60zM405 130q105 0 174 82.5t69 179.5q0 80 -47 129t-131 49q-105 0 -174 -82.5t-69 -179.5q0 -80 47 -129t131 -49zM666 889
l38 -74q13 -23 13 -32q0 -24 -34 -24q-31 0 -49.5 5.5t-38.5 27.5l-36 39l-57 -39q-48 -33 -95 -33q-32 0 -32 23q0 15 17 32l82 79q34 34 78 34h44q51 0 70 -38z" />
    <glyph glyph-name="Otilde" unicode="&#xd5;" horiz-adv-x="832" 
d="M387 -12q-143 0 -231.5 88t-88.5 222q0 105 52 199.5t150 154.5t219 60q143 0 231.5 -88t88.5 -222q0 -105 -52 -199.5t-150 -154.5t-219 -60zM405 130q105 0 174 82.5t69 179.5q0 80 -47 129t-131 49q-105 0 -174 -82.5t-69 -179.5q0 -80 47 -129t131 -49zM393 762
q-18 0 -30 11.5t-12 28.5q0 15 8 29q56 100 136 100q40 0 79 -29q36 -26 53 -26q28 0 54 32q20 23 45 23q18 0 30 -11.5t12 -28.5q0 -15 -8 -29q-56 -100 -136 -100q-38 0 -79 29q-36 26 -53 26q-28 0 -54 -32q-20 -23 -45 -23z" />
    <glyph glyph-name="Odieresis" unicode="&#xd6;" horiz-adv-x="832" 
d="M387 -12q-143 0 -231.5 88t-88.5 222q0 105 52 199.5t150 154.5t219 60q143 0 231.5 -88t88.5 -222q0 -105 -52 -199.5t-150 -154.5t-219 -60zM405 130q105 0 174 82.5t69 179.5q0 80 -47 129t-131 49q-105 0 -174 -82.5t-69 -179.5q0 -80 47 -129t131 -49zM530 831
q-7 -33 -32 -52.5t-59 -19.5q-35 0 -54 20.5t-12 51.5l1 4q7 32 32 51.5t59 19.5q33 0 52.5 -21t13.5 -50zM744 831q-7 -33 -32 -52.5t-59 -19.5q-35 0 -54 20.5t-12 51.5l1 4q7 32 32 51.5t59 19.5q33 0 52.5 -21t13.5 -50z" />
    <glyph glyph-name="multiply" unicode="&#xd7;" horiz-adv-x="640" 
d="M438 343l77 -103q16 -21 16 -45q0 -29 -20.5 -49.5t-49.5 -20.5q-37 0 -58 31l-72 104l-148 -119q-18 -15 -42 -15q-27 0 -46 19t-19 46q0 31 27 53l151 117l-77 103q-16 21 -16 45q0 29 20.5 49.5t49.5 20.5q37 0 58 -31l72 -104l148 119q18 15 42 15q27 0 46 -19
t19 -46q0 -31 -27 -53z" />
    <glyph glyph-name="Oslash" unicode="&#xd8;" horiz-adv-x="832" 
d="M221 308q0 -44 13 -77l360 304q-48 42 -124 42q-105 0 -177 -86t-72 -183zM405 123q105 0 177 86t72 183q0 36 -10 65l-356 -300q45 -34 117 -34zM173 60l-59 -50q-25 -21 -47 -21q-21 0 -33 12t-12 31q0 23 31 50l58 50q-44 71 -44 166q0 105 52 199.5t150 154.5t219 60
q132 0 221 -79l68 57q25 21 47 21q21 0 33 -12t12 -31q0 -23 -31 -50l-69 -60q39 -70 39 -156q0 -105 -52 -199.5t-150 -154.5t-219 -60q-126 0 -214 72z" />
    <glyph glyph-name="Ugrave" unicode="&#xd9;" horiz-adv-x="764" 
d="M776 606l-87 -323q-36 -136 -108 -208q-86 -86 -238 -86q-122 0 -192 62.5t-70 173.5q0 46 17 112l78 292q10 36 33 56.5t53 20.5q39 0 56.5 -27t5.5 -73l-76 -283q-11 -44 -11 -76q0 -53 32 -84.5t90 -31.5q68 0 114 44q46 46 68 130l87 324q10 36 33 56.5t53 20.5
q39 0 56.5 -27t5.5 -73zM426 782l-46 58q-14 19 -14 32q0 18 27.5 34t56.5 16q40 0 53 -37l30 -82q4 -12 4 -21q0 -33 -48 -33q-22 0 -34.5 6.5t-28.5 26.5z" />
    <glyph glyph-name="Uacute" unicode="&#xda;" horiz-adv-x="764" 
d="M776 606l-87 -323q-36 -136 -108 -208q-86 -86 -238 -86q-122 0 -192 62.5t-70 173.5q0 46 17 112l78 292q10 36 33 56.5t53 20.5q39 0 56.5 -27t5.5 -73l-76 -283q-11 -44 -11 -76q0 -53 32 -84.5t90 -31.5q68 0 114 44q46 46 68 130l87 324q10 36 33 56.5t53 20.5
q39 0 56.5 -27t5.5 -73zM686 840l-78 -58q-44 -33 -89 -33q-42 0 -42 28q0 14 13 28l76 84q31 33 57 33q29 0 57 -15t28 -34q0 -17 -22 -33z" />
    <glyph glyph-name="Ucircumflex" unicode="&#xdb;" horiz-adv-x="764" 
d="M776 606l-87 -323q-36 -136 -108 -208q-86 -86 -238 -86q-122 0 -192 62.5t-70 173.5q0 46 17 112l78 292q10 36 33 56.5t53 20.5q39 0 56.5 -27t5.5 -73l-76 -283q-11 -44 -11 -76q0 -53 32 -84.5t90 -31.5q68 0 114 44q46 46 68 130l87 324q10 36 33 56.5t53 20.5
q39 0 56.5 -27t5.5 -73zM631 879l38 -74q13 -23 13 -32q0 -24 -34 -24q-31 0 -49.5 5.5t-38.5 27.5l-36 39l-57 -39q-48 -33 -95 -33q-32 0 -32 23q0 15 17 32l82 79q34 34 78 34h44q51 0 70 -38z" />
    <glyph glyph-name="Udieresis" unicode="&#xdc;" horiz-adv-x="764" 
d="M776 606l-87 -323q-36 -136 -108 -208q-86 -86 -238 -86q-122 0 -192 62.5t-70 173.5q0 46 17 112l78 292q10 36 33 56.5t53 20.5q39 0 56.5 -27t5.5 -73l-76 -283q-11 -44 -11 -76q0 -53 32 -84.5t90 -31.5q68 0 114 44q46 46 68 130l87 324q10 36 33 56.5t53 20.5
q39 0 56.5 -27t5.5 -73zM495 821q-7 -33 -32 -52.5t-59 -19.5q-35 0 -54 20.5t-12 51.5l1 4q7 32 32 51.5t59 19.5q33 0 52.5 -21t13.5 -50zM709 821q-7 -33 -32 -52.5t-59 -19.5q-35 0 -54 20.5t-12 51.5l1 4q7 32 32 51.5t59 19.5q33 0 52.5 -21t13.5 -50z" />
    <glyph glyph-name="Yacute" unicode="&#xdd;" horiz-adv-x="650" 
d="M392 256l-50 -185q-10 -36 -33 -56.5t-53 -20.5q-39 0 -56.5 27t-5.5 73l47 176l-126 305q-15 36 -15 58q0 31 23.5 52t59.5 21q53 0 75 -60l89 -240l234 257q41 44 83 44q30 0 47 -17t17 -46q0 -33 -26 -61zM621 840l-78 -58q-44 -33 -89 -33q-42 0 -42 28q0 14 13 28
l76 84q31 33 57 33q29 0 57 -15t28 -34q0 -17 -22 -33z" />
    <glyph glyph-name="Thorn" unicode="&#xde;" horiz-adv-x="689" 
d="M232 245h105q78 0 124.5 33.5t46.5 91.5q0 35 -23 58q-31 31 -96 31h-100zM395 598q149 0 220 -71q54 -54 54 -144q0 -127 -96 -200t-244 -73h-133l-11 -39q-10 -36 -33 -56.5t-53 -20.5q-39 0 -56.5 27t-5.5 73l144 535q10 36 33 56.5t53 20.5q39 0 56.5 -27t5.5 -73
l-2 -8h68z" />
    <glyph glyph-name="germandbls" unicode="&#xdf;" horiz-adv-x="632" 
d="M369 415q105 35 105 118q0 36 -22.5 56t-56.5 20q-85 0 -115 -114l-112 -424q-10 -37 -32.5 -57t-52.5 -20q-39 0 -56.5 27t-4.5 73l110 409q29 107 87 165q69 69 181 69q101 0 159 -53t58 -136q0 -71 -40.5 -119.5t-113.5 -71.5q104 -45 104 -139t-73 -157.5t-190 -63.5
q-67 0 -67 61q0 23 14.5 39t38.5 18q134 12 134 107q0 48 -57 72q-25 10 -37 22.5t-12 35.5q0 46 51 63z" />
    <glyph glyph-name="agrave" unicode="&#xe0;" horiz-adv-x="588" 
d="M388 -6q-70 0 -65 68q-67 -72 -160 -72q-69 0 -112.5 40.5t-43.5 103.5q0 90 65 141.5t166 51.5q74 0 151 -24l2 7q6 24 6 40q0 63 -101 63q-48 0 -93 -12q-18 -4 -25 -4q-26 0 -43 17.5t-17 43.5q0 45 46 59q78 25 164 25q107 0 162 -42.5t55 -122.5q0 -35 -12 -81
l-60 -225q-10 -37 -32.5 -57t-52.5 -20zM228 94q46 0 84 31.5t51 76.5l4 14q-49 19 -100 19q-48 0 -78.5 -23t-30.5 -61q0 -25 19 -41t51 -16zM294 622l-46 58q-14 19 -14 32q0 18 27.5 34t56.5 16q40 0 53 -37l30 -82q4 -12 4 -21q0 -33 -48 -33q-22 0 -34.5 6.5
t-28.5 26.5z" />
    <glyph glyph-name="aacute" unicode="&#xe1;" horiz-adv-x="588" 
d="M388 -6q-70 0 -65 68q-67 -72 -160 -72q-69 0 -112.5 40.5t-43.5 103.5q0 90 65 141.5t166 51.5q74 0 151 -24l2 7q6 24 6 40q0 63 -101 63q-48 0 -93 -12q-18 -4 -25 -4q-26 0 -43 17.5t-17 43.5q0 45 46 59q78 25 164 25q107 0 162 -42.5t55 -122.5q0 -35 -12 -81
l-60 -225q-10 -37 -32.5 -57t-52.5 -20zM554 680l-78 -58q-44 -33 -89 -33q-42 0 -42 28q0 14 13 28l76 84q31 33 57 33q29 0 57 -15t28 -34q0 -17 -22 -33zM228 94q46 0 84 31.5t51 76.5l4 14q-49 19 -100 19q-48 0 -78.5 -23t-30.5 -61q0 -25 19 -41t51 -16z" />
    <glyph glyph-name="acircumflex" unicode="&#xe2;" horiz-adv-x="588" 
d="M388 -6q-70 0 -65 68q-67 -72 -160 -72q-69 0 -112.5 40.5t-43.5 103.5q0 90 65 141.5t166 51.5q74 0 151 -24l2 7q6 24 6 40q0 63 -101 63q-48 0 -93 -12q-18 -4 -25 -4q-26 0 -43 17.5t-17 43.5q0 45 46 59q78 25 164 25q107 0 162 -42.5t55 -122.5q0 -35 -12 -81
l-60 -225q-10 -37 -32.5 -57t-52.5 -20zM499 719l38 -74q13 -23 13 -32q0 -24 -34 -24q-31 0 -49.5 5.5t-38.5 27.5l-36 39l-57 -39q-48 -33 -95 -33q-32 0 -32 23q0 15 17 32l82 79q34 34 78 34h44q51 0 70 -38zM228 94q46 0 84 31.5t51 76.5l4 14q-49 19 -100 19
q-48 0 -78.5 -23t-30.5 -61q0 -25 19 -41t51 -16z" />
    <glyph glyph-name="atilde" unicode="&#xe3;" horiz-adv-x="588" 
d="M388 -6q-70 0 -65 68q-67 -72 -160 -72q-69 0 -112.5 40.5t-43.5 103.5q0 90 65 141.5t166 51.5q74 0 151 -24l2 7q6 24 6 40q0 63 -101 63q-48 0 -93 -12q-18 -4 -25 -4q-26 0 -43 17.5t-17 43.5q0 45 46 59q78 25 164 25q107 0 162 -42.5t55 -122.5q0 -35 -12 -81
l-60 -225q-10 -37 -32.5 -57t-52.5 -20zM226 592q-18 0 -30 11.5t-12 28.5q0 15 8 29q56 100 136 100q40 0 79 -29q36 -26 53 -26q28 0 54 32q20 23 45 23q18 0 30 -11.5t12 -28.5q0 -15 -8 -29q-56 -100 -136 -100q-38 0 -79 29q-36 26 -53 26q-28 0 -54 -32
q-20 -23 -45 -23zM228 94q46 0 84 31.5t51 76.5l4 14q-49 19 -100 19q-48 0 -78.5 -23t-30.5 -61q0 -25 19 -41t51 -16z" />
    <glyph glyph-name="adieresis" unicode="&#xe4;" horiz-adv-x="588" 
d="M388 -6q-70 0 -65 68q-67 -72 -160 -72q-69 0 -112.5 40.5t-43.5 103.5q0 90 65 141.5t166 51.5q74 0 151 -24l2 7q6 24 6 40q0 63 -101 63q-48 0 -93 -12q-18 -4 -25 -4q-26 0 -43 17.5t-17 43.5q0 45 46 59q78 25 164 25q107 0 162 -42.5t55 -122.5q0 -35 -12 -81
l-60 -225q-10 -37 -32.5 -57t-52.5 -20zM228 94q46 0 84 31.5t51 76.5l4 14q-49 19 -100 19q-48 0 -78.5 -23t-30.5 -61q0 -25 19 -41t51 -16zM363 661q-7 -33 -32 -52.5t-59 -19.5q-35 0 -54 20.5t-12 51.5l1 4q7 32 32 51.5t59 19.5q33 0 52.5 -21t13.5 -50zM577 661
q-7 -33 -32 -52.5t-59 -19.5q-35 0 -54 20.5t-12 51.5l1 4q7 32 32 51.5t59 19.5q33 0 52.5 -21t13.5 -50z" />
    <glyph glyph-name="aring" unicode="&#xe5;" horiz-adv-x="588" 
d="M388 -6q-70 0 -65 68q-67 -72 -160 -72q-69 0 -112.5 40.5t-43.5 103.5q0 90 65 141.5t166 51.5q74 0 151 -24l2 7q6 24 6 40q0 63 -101 63q-48 0 -93 -12q-18 -4 -25 -4q-26 0 -43 17.5t-17 43.5q0 45 46 59q78 25 164 25q107 0 162 -42.5t55 -122.5q0 -35 -12 -81
l-60 -225q-10 -37 -32.5 -57t-52.5 -20zM394 593q-50 0 -80 29.5t-30 74.5q0 55 39 94.5t95 39.5q50 0 80 -29.5t30 -74.5q0 -55 -39 -94.5t-95 -39.5zM228 94q46 0 84 31.5t51 76.5l4 14q-49 19 -100 19q-48 0 -78.5 -23t-30.5 -61q0 -25 19 -41t51 -16zM396 648
q30 0 49 23.5t19 54.5q0 22 -13 36t-35 14q-30 0 -49 -23.5t-19 -54.5q0 -22 13 -36t35 -14z" />
    <glyph glyph-name="ae" unicode="&#xe6;" horiz-adv-x="940" 
d="M911 337q0 -28 -6 -55q-15 -67 -73 -67h-315q8 -105 122 -105q45 0 83 21q26 14 46 14q24 0 40.5 -16.5t16.5 -41.5q0 -32 -29 -51q-73 -48 -174 -48q-144 0 -204 103q-98 -101 -240 -101q-81 0 -126 39t-45 105q0 90 65 141.5t166 51.5q74 0 151 -24l2 7q6 24 6 40
q0 63 -101 63q-48 0 -93 -12q-18 -4 -25 -4q-26 0 -43 17.5t-17 43.5q0 45 46 59q78 25 164 25q131 0 176 -79q83 83 193 83q98 0 156 -59t58 -150zM267 235q-48 0 -78.5 -23t-30.5 -61q0 -26 20.5 -41.5t59.5 -15.5q37 0 79.5 18t74.5 50q-4 21 -6 46q-61 27 -119 27z
M530 310h233q5 17 5 35q0 35 -22 57t-66 22q-51 0 -91 -31t-59 -83z" />
    <glyph glyph-name="ccedilla" unicode="&#xe7;" horiz-adv-x="560" 
d="M472 51q-76 -62 -176 -63l-82 -123q-21 -32 -52 -32q-22 0 -45 16t-23 35q0 16 15 32l85 88q-71 26 -111.5 85t-40.5 141q0 131 93.5 223.5t222.5 92.5q112 0 181 -67q28 -26 28 -59q0 -29 -21 -50t-52 -21t-50 22q-37 45 -98 45q-60 0 -107 -56t-47 -130q0 -51 30 -82
t75 -31q48 0 92 30q25 17 45 17q26 0 43.5 -18.5t17.5 -44.5q0 -30 -23 -50z" />
    <glyph glyph-name="egrave" unicode="&#xe8;" horiz-adv-x="607" 
d="M306 110q45 0 83 21q26 14 46 14q24 0 40.5 -16.5t16.5 -41.5q0 -32 -29 -51q-73 -48 -174 -48q-116 0 -182 63.5t-66 174.5q0 79 38.5 151.5t113 120.5t166.5 48q102 0 160.5 -58.5t58.5 -150.5q0 -28 -6 -55q-15 -67 -73 -67h-315q8 -105 122 -105zM197 310h233
q5 17 5 35q0 35 -22 57t-66 22q-51 0 -91 -31t-59 -83zM307 622l-46 58q-14 19 -14 32q0 18 27.5 34t56.5 16q40 0 53 -37l30 -82q4 -12 4 -21q0 -33 -48 -33q-22 0 -34.5 6.5t-28.5 26.5z" />
    <glyph glyph-name="eacute" unicode="&#xe9;" horiz-adv-x="607" 
d="M306 110q45 0 83 21q26 14 46 14q24 0 40.5 -16.5t16.5 -41.5q0 -32 -29 -51q-73 -48 -174 -48q-116 0 -182 63.5t-66 174.5q0 79 38.5 151.5t113 120.5t166.5 48q102 0 160.5 -58.5t58.5 -150.5q0 -28 -6 -55q-15 -67 -73 -67h-315q8 -105 122 -105zM567 680l-78 -58
q-44 -33 -89 -33q-42 0 -42 28q0 14 13 28l76 84q31 33 57 33q29 0 57 -15t28 -34q0 -17 -22 -33zM197 310h233q5 17 5 35q0 35 -22 57t-66 22q-51 0 -91 -31t-59 -83z" />
    <glyph glyph-name="ecircumflex" unicode="&#xea;" horiz-adv-x="607" 
d="M306 110q45 0 83 21q26 14 46 14q24 0 40.5 -16.5t16.5 -41.5q0 -32 -29 -51q-73 -48 -174 -48q-116 0 -182 63.5t-66 174.5q0 79 38.5 151.5t113 120.5t166.5 48q102 0 160.5 -58.5t58.5 -150.5q0 -28 -6 -55q-15 -67 -73 -67h-315q8 -105 122 -105zM513 719l38 -74
q13 -23 13 -32q0 -24 -34 -24q-31 0 -49.5 5.5t-38.5 27.5l-36 39l-57 -39q-48 -33 -95 -33q-32 0 -32 23q0 15 17 32l82 79q34 34 78 34h44q51 0 70 -38zM197 310h233q5 17 5 35q0 35 -22 57t-66 22q-51 0 -91 -31t-59 -83z" />
    <glyph glyph-name="edieresis" unicode="&#xeb;" horiz-adv-x="607" 
d="M306 110q45 0 83 21q26 14 46 14q24 0 40.5 -16.5t16.5 -41.5q0 -32 -29 -51q-73 -48 -174 -48q-116 0 -182 63.5t-66 174.5q0 79 38.5 151.5t113 120.5t166.5 48q102 0 160.5 -58.5t58.5 -150.5q0 -28 -6 -55q-15 -67 -73 -67h-315q8 -105 122 -105zM197 310h233
q5 17 5 35q0 35 -22 57t-66 22q-51 0 -91 -31t-59 -83zM377 661q-7 -33 -32 -52.5t-59 -19.5q-35 0 -54 20.5t-12 51.5l1 4q7 32 32 51.5t59 19.5q33 0 52.5 -21t13.5 -50zM591 661q-7 -33 -32 -52.5t-59 -19.5q-35 0 -54 20.5t-12 51.5l1 4q7 32 32 51.5t59 19.5
q33 0 52.5 -21t13.5 -50z" />
    <glyph glyph-name="igrave" unicode="&#xec;" horiz-adv-x="302" 
d="M274 442l-100 -371q-10 -37 -32.5 -57t-52.5 -20q-39 0 -56.5 27t-4.5 73l100 371q10 37 32.5 57t52.5 20q39 0 56.5 -27t4.5 -73zM158 622l-46 58q-14 19 -14 32q0 18 27.5 34t56.5 16q40 0 53 -37l30 -82q4 -12 4 -21q0 -33 -48 -33q-22 0 -34.5 6.5t-28.5 26.5z" />
    <glyph glyph-name="iacute" unicode="&#xed;" horiz-adv-x="302" 
d="M274 442l-100 -371q-10 -37 -32.5 -57t-52.5 -20q-39 0 -56.5 27t-4.5 73l100 371q10 37 32.5 57t52.5 20q39 0 56.5 -27t4.5 -73zM418 680l-78 -58q-44 -33 -89 -33q-42 0 -42 28q0 14 13 28l76 84q31 33 57 33q29 0 57 -15t28 -34q0 -17 -22 -33z" />
    <glyph glyph-name="icircumflex" unicode="&#xee;" horiz-adv-x="302" 
d="M274 442l-100 -371q-10 -37 -32.5 -57t-52.5 -20q-39 0 -56.5 27t-4.5 73l100 371q10 37 32.5 57t52.5 20q39 0 56.5 -27t4.5 -73zM364 719l38 -74q13 -23 13 -32q0 -24 -34 -24q-31 0 -49.5 5.5t-38.5 27.5l-36 39l-57 -39q-48 -33 -95 -33q-32 0 -32 23q0 15 17 32
l82 79q34 34 78 34h44q51 0 70 -38z" />
    <glyph glyph-name="idieresis" unicode="&#xef;" horiz-adv-x="302" 
d="M274 442l-100 -371q-10 -37 -32.5 -57t-52.5 -20q-39 0 -56.5 27t-4.5 73l100 371q10 37 32.5 57t52.5 20q39 0 56.5 -27t4.5 -73zM229 661q-7 -33 -32 -52.5t-59 -19.5q-35 0 -54 20.5t-12 51.5l1 4q7 32 32 51.5t59 19.5q33 0 52.5 -21t13.5 -50zM443 661
q-7 -33 -32 -52.5t-59 -19.5q-35 0 -54 20.5t-12 51.5l1 4q7 32 32 51.5t59 19.5q33 0 52.5 -21t13.5 -50z" />
    <glyph glyph-name="eth" unicode="&#xf0;" horiz-adv-x="638" 
d="M254 613l95 35q-3 10 -3 26q0 28 18.5 46.5t47.5 18.5q46 0 62 -35l4 -9l99 36q10 4 23 4q17 0 28 -10.5t11 -28.5q0 -30 -35 -43l-93 -34l38 -86q44 -100 44 -205q0 -146 -83 -243t-224 -97q-111 0 -179.5 65t-68.5 170q0 109 77 186t185 77q87 0 151 -59l-67 145
l-103 -37q-10 -4 -23 -4q-17 0 -28 10.5t-11 28.5q0 30 35 43zM295 116q62 0 103 45t41 103q0 51 -31 82.5t-82 31.5q-61 0 -102 -43t-41 -103q0 -54 31.5 -85t80.5 -31z" />
    <glyph glyph-name="ntilde" unicode="&#xf1;" horiz-adv-x="619" 
d="M209 542q32 0 50 -17.5t18 -44.5q74 66 146 66t115 -42t43 -114q0 -34 -18 -102l-58 -217q-10 -37 -32.5 -57t-52.5 -20q-39 0 -56.5 27t-4.5 73l54 200q7 26 7 48q0 66 -74 66q-44 0 -73.5 -28.5t-42.5 -78.5l-62 -230q-10 -37 -32.5 -57t-52.5 -20q-39 0 -56.5 27
t-4.5 73l99 371q10 37 33 57t55 20zM241 592q-18 0 -30 11.5t-12 28.5q0 15 8 29q56 100 136 100q40 0 79 -29q36 -26 53 -26q28 0 54 32q20 23 45 23q18 0 30 -11.5t12 -28.5q0 -15 -8 -29q-56 -100 -136 -100q-38 0 -79 29q-36 26 -53 26q-28 0 -54 -32q-20 -23 -45 -23z
" />
    <glyph glyph-name="ograve" unicode="&#xf2;" horiz-adv-x="652" 
d="M300 -12q-117 0 -187.5 69.5t-70.5 178.5q0 122 91.5 216t218.5 94q117 0 187.5 -69.5t70.5 -178.5q0 -122 -91.5 -216t-218.5 -94zM307 118q66 0 110 57t44 119q0 58 -31.5 90t-84.5 32q-66 0 -110 -57t-44 -119q0 -58 31.5 -90t84.5 -32zM329 622l-46 58q-14 19 -14 32
q0 18 27.5 34t56.5 16q40 0 53 -37l30 -82q4 -12 4 -21q0 -33 -48 -33q-22 0 -34.5 6.5t-28.5 26.5z" />
    <glyph glyph-name="oacute" unicode="&#xf3;" horiz-adv-x="652" 
d="M300 -12q-117 0 -187.5 69.5t-70.5 178.5q0 122 91.5 216t218.5 94q117 0 187.5 -69.5t70.5 -178.5q0 -122 -91.5 -216t-218.5 -94zM307 118q66 0 110 57t44 119q0 58 -31.5 90t-84.5 32q-66 0 -110 -57t-44 -119q0 -58 31.5 -90t84.5 -32zM589 680l-78 -58
q-44 -33 -89 -33q-42 0 -42 28q0 14 13 28l76 84q31 33 57 33q29 0 57 -15t28 -34q0 -17 -22 -33z" />
    <glyph glyph-name="ocircumflex" unicode="&#xf4;" horiz-adv-x="652" 
d="M300 -12q-117 0 -187.5 69.5t-70.5 178.5q0 122 91.5 216t218.5 94q117 0 187.5 -69.5t70.5 -178.5q0 -122 -91.5 -216t-218.5 -94zM307 118q66 0 110 57t44 119q0 58 -31.5 90t-84.5 32q-66 0 -110 -57t-44 -119q0 -58 31.5 -90t84.5 -32zM535 719l38 -74q13 -23 13 -32
q0 -24 -34 -24q-31 0 -49.5 5.5t-38.5 27.5l-36 39l-57 -39q-48 -33 -95 -33q-32 0 -32 23q0 15 17 32l82 79q34 34 78 34h44q51 0 70 -38z" />
    <glyph glyph-name="otilde" unicode="&#xf5;" horiz-adv-x="652" 
d="M300 -12q-117 0 -187.5 69.5t-70.5 178.5q0 122 91.5 216t218.5 94q117 0 187.5 -69.5t70.5 -178.5q0 -122 -91.5 -216t-218.5 -94zM307 118q66 0 110 57t44 119q0 58 -31.5 90t-84.5 32q-66 0 -110 -57t-44 -119q0 -58 31.5 -90t84.5 -32zM262 592q-18 0 -30 11.5
t-12 28.5q0 15 8 29q56 100 136 100q40 0 79 -29q36 -26 53 -26q28 0 54 32q20 23 45 23q18 0 30 -11.5t12 -28.5q0 -15 -8 -29q-56 -100 -136 -100q-38 0 -79 29q-36 26 -53 26q-28 0 -54 -32q-20 -23 -45 -23z" />
    <glyph glyph-name="odieresis" unicode="&#xf6;" horiz-adv-x="652" 
d="M300 -12q-117 0 -187.5 69.5t-70.5 178.5q0 122 91.5 216t218.5 94q117 0 187.5 -69.5t70.5 -178.5q0 -122 -91.5 -216t-218.5 -94zM307 118q66 0 110 57t44 119q0 58 -31.5 90t-84.5 32q-66 0 -110 -57t-44 -119q0 -58 31.5 -90t84.5 -32zM399 661q-7 -33 -32 -52.5
t-59 -19.5q-35 0 -54 20.5t-12 51.5l1 4q7 32 32 51.5t59 19.5q33 0 52.5 -21t13.5 -50zM613 661q-7 -33 -32 -52.5t-59 -19.5q-35 0 -54 20.5t-12 51.5l1 4q7 32 32 51.5t59 19.5q33 0 52.5 -21t13.5 -50z" />
    <glyph glyph-name="divide" unicode="&#xf7;" horiz-adv-x="640" 
d="M147 288h388q26 0 45 19t19 45t-19 45t-45 19h-388q-26 0 -45 -19t-19 -45t19 -45t45 -19zM368 148q0 -36 -28 -62.5t-66 -26.5q-31 0 -51.5 19t-20.5 48q0 36 28 62.5t66 26.5q31 0 51.5 -19t20.5 -48zM482 578q0 -36 -28 -62.5t-66 -26.5q-31 0 -51.5 19t-20.5 48
q0 36 28 62.5t66 26.5q31 0 51.5 -19t20.5 -48z" />
    <glyph glyph-name="oslash" unicode="&#xf8;" horiz-adv-x="652" 
d="M307 113q66 0 112.5 57.5t46.5 123.5q0 21 -5 44l-220 -211q28 -14 66 -14zM186 240q0 -20 3 -38l216 207q-24 12 -60 12q-66 0 -112.5 -58t-46.5 -123zM142 32l-23 -22q-23 -21 -47 -21q-20 0 -32.5 11.5t-12.5 29.5q0 23 24 45l27 25q-36 57 -36 136q0 122 91.5 216
t218.5 94q88 0 151 -41l22 21q23 21 47 21q20 0 32.5 -11.5t12.5 -29.5q0 -23 -24 -45l-23 -21q40 -62 40 -142q0 -122 -91.5 -216t-218.5 -94q-92 0 -158 44z" />
    <glyph glyph-name="ugrave" unicode="&#xf9;" horiz-adv-x="622" 
d="M413 -6q-32 0 -50 17.5t-18 44.5q-74 -66 -146 -66t-115 42t-43 114q0 34 18 102l58 217q10 37 32.5 57t52.5 20q39 0 56.5 -27t4.5 -73l-54 -200q-7 -26 -7 -48q0 -66 74 -66q44 0 73.5 28.5t42.5 78.5l62 230q10 37 32.5 57t52.5 20q39 0 56.5 -27t4.5 -73l-99 -371
q-10 -37 -33 -57t-55 -20zM315 622l-46 58q-14 19 -14 32q0 18 27.5 34t56.5 16q40 0 53 -37l30 -82q4 -12 4 -21q0 -33 -48 -33q-22 0 -34.5 6.5t-28.5 26.5z" />
    <glyph glyph-name="uacute" unicode="&#xfa;" horiz-adv-x="622" 
d="M413 -6q-32 0 -50 17.5t-18 44.5q-74 -66 -146 -66t-115 42t-43 114q0 34 18 102l58 217q10 37 32.5 57t52.5 20q39 0 56.5 -27t4.5 -73l-54 -200q-7 -26 -7 -48q0 -66 74 -66q44 0 73.5 28.5t42.5 78.5l62 230q10 37 32.5 57t52.5 20q39 0 56.5 -27t4.5 -73l-99 -371
q-10 -37 -33 -57t-55 -20zM575 680l-78 -58q-44 -33 -89 -33q-42 0 -42 28q0 14 13 28l76 84q31 33 57 33q29 0 57 -15t28 -34q0 -17 -22 -33z" />
    <glyph glyph-name="ucircumflex" unicode="&#xfb;" horiz-adv-x="622" 
d="M413 -6q-32 0 -50 17.5t-18 44.5q-74 -66 -146 -66t-115 42t-43 114q0 34 18 102l58 217q10 37 32.5 57t52.5 20q39 0 56.5 -27t4.5 -73l-54 -200q-7 -26 -7 -48q0 -66 74 -66q44 0 73.5 28.5t42.5 78.5l62 230q10 37 32.5 57t52.5 20q39 0 56.5 -27t4.5 -73l-99 -371
q-10 -37 -33 -57t-55 -20zM520 719l38 -74q13 -23 13 -32q0 -24 -34 -24q-31 0 -49.5 5.5t-38.5 27.5l-36 39l-57 -39q-48 -33 -95 -33q-32 0 -32 23q0 15 17 32l82 79q34 34 78 34h44q51 0 70 -38z" />
    <glyph glyph-name="udieresis" unicode="&#xfc;" horiz-adv-x="622" 
d="M413 -6q-32 0 -50 17.5t-18 44.5q-74 -66 -146 -66t-115 42t-43 114q0 34 18 102l58 217q10 37 32.5 57t52.5 20q39 0 56.5 -27t4.5 -73l-54 -200q-7 -26 -7 -48q0 -66 74 -66q44 0 73.5 28.5t42.5 78.5l62 230q10 37 32.5 57t52.5 20q39 0 56.5 -27t4.5 -73l-99 -371
q-10 -37 -33 -57t-55 -20zM598 661q-7 -33 -32 -52.5t-59 -19.5q-35 0 -54 20.5t-12 51.5l1 4q7 32 32 51.5t59 19.5q33 0 52.5 -21t13.5 -50zM384 661q-7 -33 -32 -52.5t-59 -19.5q-35 0 -54 20.5t-12 51.5l1 4q7 32 32 51.5t59 19.5q33 0 52.5 -21t13.5 -50z" />
    <glyph glyph-name="yacute" unicode="&#xfd;" horiz-adv-x="592" 
d="M62 -27q30 -8 45 -8q28 0 52 32l-64 438q-3 17 -3 36q0 30 22 50.5t54 20.5q31 0 52 -17.5t22 -47.5l31 -309l188 326q26 48 77 48q30 0 48 -16t18 -43q0 -20 -20 -52l-278 -444q-51 -82 -101 -116t-116 -34q-48 0 -72 11q-46 20 -46 66q0 27 18 46.5t42 19.5q5 0 31 -7z
M551 680l-78 -58q-44 -33 -89 -33q-42 0 -42 28q0 14 13 28l76 84q31 33 57 33q29 0 57 -15t28 -34q0 -17 -22 -33z" />
    <glyph glyph-name="thorn" unicode="&#xfe;" horiz-adv-x="674" 
d="M317 118q63 0 111 54.5t48 133.5q0 52 -30.5 82t-81.5 30q-64 0 -113 -55t-49 -131q0 -51 32 -82.5t83 -31.5zM-21 -66l194 725q10 37 32.5 57t52.5 20q39 0 56.5 -27t4.5 -73l-43 -158q73 68 151 68q90 0 148 -62t58 -168q0 -139 -89.5 -232.5t-206.5 -93.5
q-110 0 -168 88l-44 -167q-10 -37 -32.5 -57t-52.5 -20q-39 0 -56.5 27t-4.5 73z" />
    <glyph glyph-name="ydieresis" unicode="&#xff;" horiz-adv-x="592" 
d="M62 -27q30 -8 45 -8q28 0 52 32l-64 438q-3 17 -3 36q0 30 22 50.5t54 20.5q31 0 52 -17.5t22 -47.5l31 -309l188 326q26 48 77 48q30 0 48 -16t18 -43q0 -20 -20 -52l-278 -444q-51 -82 -101 -116t-116 -34q-48 0 -72 11q-46 20 -46 66q0 27 18 46.5t42 19.5q5 0 31 -7z
M361 661q-7 -33 -32 -52.5t-59 -19.5q-35 0 -54 20.5t-12 51.5l1 4q7 32 32 51.5t59 19.5q33 0 52.5 -21t13.5 -50zM575 661q-7 -33 -32 -52.5t-59 -19.5q-35 0 -54 20.5t-12 51.5l1 4q7 32 32 51.5t59 19.5q33 0 52.5 -21t13.5 -50z" />
    <glyph glyph-name="Amacron" unicode="&#x100;" horiz-adv-x="765" 
d="M303 293h194l-36 231zM590 638l94 -530q5 -35 5 -40q0 -31 -22.5 -52.5t-56.5 -21.5q-31 0 -51 17t-24 44l-16 102h-310l-80 -115q-34 -48 -78 -48q-30 0 -46.5 16.5t-16.5 43.5t18 51l389 546q42 60 108 60h3q71 0 84 -73zM671 770h-266q-22 0 -37.5 15t-15.5 37
t15.5 37.5t37.5 15.5h266q22 0 37.5 -15.5t15.5 -37.5t-15.5 -37t-37.5 -15z" />
    <glyph glyph-name="amacron" unicode="&#x101;" horiz-adv-x="588" 
d="M388 -6q-70 0 -65 68q-67 -72 -160 -72q-69 0 -112.5 40.5t-43.5 103.5q0 90 65 141.5t166 51.5q74 0 151 -24l2 7q6 24 6 40q0 63 -101 63q-48 0 -93 -12q-18 -4 -25 -4q-26 0 -43 17.5t-17 43.5q0 45 46 59q78 25 164 25q107 0 162 -42.5t55 -122.5q0 -35 -12 -81
l-60 -225q-10 -37 -32.5 -57t-52.5 -20zM522 600h-266q-22 0 -37.5 15t-15.5 37t15.5 37.5t37.5 15.5h266q22 0 37.5 -15.5t15.5 -37.5t-15.5 -37t-37.5 -15zM228 94q46 0 84 31.5t51 76.5l4 14q-49 19 -100 19q-48 0 -78.5 -23t-30.5 -61q0 -25 19 -41t51 -16z" />
    <glyph glyph-name="Abreve" unicode="&#x102;" horiz-adv-x="765" 
d="M303 293h194l-36 231zM590 638l94 -530q5 -35 5 -40q0 -31 -22.5 -52.5t-56.5 -21.5q-31 0 -51 17t-24 44l-16 102h-310l-80 -115q-34 -48 -78 -48q-30 0 -46.5 16.5t-16.5 43.5t18 51l389 546q42 60 108 60h3q71 0 84 -73zM540 763q-71 0 -116.5 37.5t-45.5 81.5
q0 20 15 33t37 13q34 0 48 -26q22 -40 73 -40q41 0 77 40q24 26 52 26q21 0 33 -11.5t12 -31.5q0 -19 -14 -36q-70 -86 -171 -86z" />
    <glyph glyph-name="abreve" unicode="&#x103;" horiz-adv-x="588" 
d="M388 -6q-70 0 -65 68q-67 -72 -160 -72q-69 0 -112.5 40.5t-43.5 103.5q0 90 65 141.5t166 51.5q74 0 151 -24l2 7q6 24 6 40q0 63 -101 63q-48 0 -93 -12q-18 -4 -25 -4q-26 0 -43 17.5t-17 43.5q0 45 46 59q78 25 164 25q107 0 162 -42.5t55 -122.5q0 -35 -12 -81
l-60 -225q-10 -37 -32.5 -57t-52.5 -20zM392 593q-71 0 -116.5 37.5t-45.5 81.5q0 20 15 33t37 13q34 0 48 -26q22 -40 73 -40q41 0 77 40q24 26 52 26q21 0 33 -11.5t12 -31.5q0 -19 -14 -36q-70 -86 -171 -86zM228 94q46 0 84 31.5t51 76.5l4 14q-49 19 -100 19
q-48 0 -78.5 -23t-30.5 -61q0 -25 19 -41t51 -16z" />
    <glyph glyph-name="Aogonek" unicode="&#x104;" horiz-adv-x="765" 
d="M595 -168q-49 0 -77.5 17.5t-28.5 49.5q0 48 73 109q-24 18 -27 47l-16 102h-310l-80 -115q-34 -48 -78 -48q-30 0 -46.5 16.5t-16.5 43.5t18 51l389 546q42 60 108 60h3q71 0 84 -73l94 -530q5 -35 5 -40q0 -30 -28 -58q-30 -31 -42 -47.5t-12 -31.5q0 -11 7 -16t23 -10
q18 -6 25.5 -13.5t6.5 -21.5q-2 -38 -74 -38zM303 293h194l-36 231z" />
    <glyph glyph-name="aogonek" unicode="&#x105;" horiz-adv-x="588" 
d="M437 10q-54 -54 -54 -79q0 -11 7 -16t23 -10q18 -6 25.5 -13.5t6.5 -21.5q-2 -38 -74 -38q-49 0 -77.5 17.5t-28.5 49.5q0 50 74 110q-18 17 -16 53q-67 -72 -160 -72q-69 0 -112.5 40.5t-43.5 103.5q0 90 65 141.5t166 51.5q74 0 151 -24l2 7q6 24 6 40q0 63 -101 63
q-48 0 -93 -12q-18 -4 -25 -4q-26 0 -43 17.5t-17 43.5q0 45 46 59q78 25 164 25q107 0 162 -42.5t55 -122.5q0 -35 -12 -81l-60 -225q-9 -34 -36 -61zM228 94q46 0 84 31.5t51 76.5l4 14q-49 19 -100 19q-48 0 -78.5 -23t-30.5 -61q0 -25 19 -41t51 -16z" />
    <glyph glyph-name="Cacute" unicode="&#x106;" horiz-adv-x="726" 
d="M625 63q-40 -34 -101 -54.5t-127 -20.5q-145 0 -237.5 83.5t-92.5 221.5q0 169 125.5 294t300.5 125q138 0 231 -86q32 -30 32 -65q0 -33 -23 -56.5t-56 -23.5q-35 0 -54 22q-31 34 -64 50.5t-85 16.5q-97 0 -172 -80.5t-75 -190.5q0 -75 48 -122t123 -47q40 0 66 10
t66 35q28 18 52 18q30 0 50 -21.5t20 -51.5q0 -34 -27 -57zM706 850l-78 -58q-44 -33 -89 -33q-42 0 -42 28q0 14 13 28l76 84q31 33 57 33q29 0 57 -15t28 -34q0 -17 -22 -33z" />
    <glyph glyph-name="cacute" unicode="&#x107;" horiz-adv-x="560" 
d="M472 51q-78 -63 -180 -63q-110 0 -180 66.5t-70 175.5q0 131 93.5 223.5t222.5 92.5q112 0 181 -67q28 -26 28 -59q0 -29 -21 -50t-52 -21t-50 22q-37 45 -98 45q-60 0 -107 -56t-47 -130q0 -51 30 -82t75 -31q48 0 92 30q25 17 45 17q26 0 43.5 -18.5t17.5 -44.5
q0 -30 -23 -50zM561 680l-78 -58q-44 -33 -89 -33q-42 0 -42 28q0 14 13 28l76 84q31 33 57 33q29 0 57 -15t28 -34q0 -17 -22 -33z" />
    <glyph glyph-name="Cdotaccent" unicode="&#x10a;" horiz-adv-x="726" 
d="M625 63q-40 -34 -101 -54.5t-127 -20.5q-145 0 -237.5 83.5t-92.5 221.5q0 169 125.5 294t300.5 125q138 0 231 -86q32 -30 32 -65q0 -33 -23 -56.5t-56 -23.5q-35 0 -54 22q-31 34 -64 50.5t-85 16.5q-97 0 -172 -80.5t-75 -190.5q0 -75 48 -122t123 -47q40 0 66 10
t66 35q28 18 52 18q30 0 50 -21.5t20 -51.5q0 -34 -27 -57zM624 831q-7 -33 -32.5 -52.5t-60.5 -19.5t-55 20.5t-13 51.5l1 4q7 32 33 51.5t60 19.5q33 0 53.5 -21t14.5 -50z" />
    <glyph glyph-name="cdotaccent" unicode="&#x10b;" horiz-adv-x="560" 
d="M472 51q-78 -63 -180 -63q-110 0 -180 66.5t-70 175.5q0 131 93.5 223.5t222.5 92.5q112 0 181 -67q28 -26 28 -59q0 -29 -21 -50t-52 -21t-50 22q-37 45 -98 45q-60 0 -107 -56t-47 -130q0 -51 30 -82t75 -31q48 0 92 30q25 17 45 17q26 0 43.5 -18.5t17.5 -44.5
q0 -30 -23 -50zM480 661q-7 -33 -32.5 -52.5t-60.5 -19.5t-55 20.5t-13 51.5l1 4q7 32 33 51.5t60 19.5q33 0 53.5 -21t14.5 -50z" />
    <glyph glyph-name="Ccaron" unicode="&#x10c;" horiz-adv-x="726" 
d="M625 63q-40 -34 -101 -54.5t-127 -20.5q-145 0 -237.5 83.5t-92.5 221.5q0 169 125.5 294t300.5 125q138 0 231 -86q32 -30 32 -65q0 -33 -23 -56.5t-56 -23.5q-35 0 -54 22q-31 34 -64 50.5t-85 16.5q-97 0 -172 -80.5t-75 -190.5q0 -75 48 -122t123 -47q40 0 66 10
t66 35q28 18 52 18q30 0 50 -21.5t20 -51.5q0 -34 -27 -57zM442 798l-38 74q-13 23 -13 32q0 24 34 24q31 0 49.5 -5.5t38.5 -27.5l36 -39l57 39q48 33 95 33q32 0 32 -23q0 -15 -17 -32l-82 -79q-34 -34 -78 -34h-44q-51 0 -70 38z" />
    <glyph glyph-name="ccaron" unicode="&#x10d;" horiz-adv-x="560" 
d="M472 51q-78 -63 -180 -63q-110 0 -180 66.5t-70 175.5q0 131 93.5 223.5t222.5 92.5q112 0 181 -67q28 -26 28 -59q0 -29 -21 -50t-52 -21t-50 22q-37 45 -98 45q-60 0 -107 -56t-47 -130q0 -51 30 -82t75 -31q48 0 92 30q25 17 45 17q26 0 43.5 -18.5t17.5 -44.5
q0 -30 -23 -50zM298 628l-38 74q-13 23 -13 32q0 24 34 24q31 0 49.5 -5.5t38.5 -27.5l36 -39l57 39q48 33 95 33q32 0 32 -23q0 -15 -17 -32l-82 -79q-34 -34 -78 -34h-44q-51 0 -70 38z" />
    <glyph glyph-name="Dcaron" unicode="&#x10e;" horiz-adv-x="777" 
d="M203 139h87q149 0 234 85q70 70 70 175q0 70 -41 111q-51 51 -161 51h-75zM265 700h139q184 0 274 -90q76 -76 76 -205q0 -161 -115 -276q-129 -129 -367 -129h-171q-39 0 -56.5 27t-5.5 73l140 523q10 36 33 56.5t53 20.5zM399 788l-38 74q-13 23 -13 32q0 24 34 24
q31 0 49.5 -5.5t38.5 -27.5l36 -39l57 39q48 33 95 33q32 0 32 -23q0 -15 -17 -32l-82 -79q-34 -34 -78 -34h-44q-51 0 -70 38z" />
    <glyph glyph-name="dcaron" unicode="&#x10f;" horiz-adv-x="674" 
d="M464 -6q-32 0 -49.5 17.5t-17.5 46.5q-73 -68 -151 -68q-90 0 -148 62t-58 168q0 139 89.5 232.5t206.5 93.5q110 0 168 -88l53 201q10 37 32.5 57t52.5 20q39 0 56.5 -27t4.5 -73l-151 -565q-10 -37 -33 -57t-55 -20zM309 118q64 0 113 55t49 131q0 51 -32 82.5
t-83 31.5q-63 0 -111 -54.5t-48 -133.5q0 -52 30.5 -82t81.5 -30zM736 553l35 131q12 47 61 47h23q29 0 29 -23q0 -13 -12 -35l-72 -130q-15 -27 -40 -27q-26 0 -26 23q0 6 2 14z" />
    <glyph glyph-name="Dcroat" unicode="&#x110;" horiz-adv-x="797" 
d="M285 700h139q184 0 274 -90q76 -76 76 -205q0 -161 -115 -276q-129 -129 -367 -129h-171q-39 0 -56.5 27t-5.5 73l49 184h-3q-29 0 -48.5 20t-19.5 48t19.5 48t48.5 20h40l54 203q10 36 33 56.5t53 20.5zM223 139h87q149 0 234 85q70 70 70 175q0 70 -41 111
q-51 51 -161 51h-75l-38 -141h61q28 0 48 -20t20 -48t-20 -48t-48 -20h-98z" />
    <glyph glyph-name="dcroat" unicode="&#x111;" horiz-adv-x="674" 
d="M464 -6q-32 0 -49.5 17.5t-17.5 46.5q-73 -68 -151 -68q-90 0 -148 62t-58 168q0 139 89.5 232.5t206.5 93.5q110 0 168 -88l36 136h-108q-17 0 -29.5 12.5t-12.5 29.5t12.5 29.5t29.5 12.5h131q24 58 79 58q61 0 66 -58h27q17 0 29.5 -12.5t12.5 -29.5t-12.5 -29.5
t-29.5 -12.5h-43l-140 -523q-10 -37 -33 -57t-55 -20zM309 118q64 0 113 55t49 131q0 51 -32 82.5t-83 31.5q-63 0 -111 -54.5t-48 -133.5q0 -52 30.5 -82t81.5 -30z" />
    <glyph glyph-name="Emacron" unicode="&#x112;" horiz-adv-x="665" 
d="M495 0h-394q-39 0 -56.5 27t-5.5 73l140 523q10 36 33 56.5t53 20.5h376q29 0 49 -20t20 -49q0 -28 -20 -48t-49 -20h-325l-38 -143h243q29 0 49 -20t20 -48t-20 -47.5t-49 -19.5h-280l-40 -148h294q29 0 49 -20.5t20 -48.5t-20 -48t-49 -20zM624 760h-266
q-22 0 -37.5 15t-15.5 37t15.5 37.5t37.5 15.5h266q22 0 37.5 -15.5t15.5 -37.5t-15.5 -37t-37.5 -15z" />
    <glyph glyph-name="emacron" unicode="&#x113;" horiz-adv-x="607" 
d="M306 110q45 0 83 21q26 14 46 14q24 0 40.5 -16.5t16.5 -41.5q0 -32 -29 -51q-73 -48 -174 -48q-116 0 -182 63.5t-66 174.5q0 79 38.5 151.5t113 120.5t166.5 48q102 0 160.5 -58.5t58.5 -150.5q0 -28 -6 -55q-15 -67 -73 -67h-315q8 -105 122 -105zM536 600h-266
q-22 0 -37.5 15t-15.5 37t15.5 37.5t37.5 15.5h266q22 0 37.5 -15.5t15.5 -37.5t-15.5 -37t-37.5 -15zM197 310h233q5 17 5 35q0 35 -22 57t-66 22q-51 0 -91 -31t-59 -83z" />
    <glyph glyph-name="Ebreve" unicode="&#x114;" horiz-adv-x="665" 
d="M495 0h-394q-39 0 -56.5 27t-5.5 73l140 523q10 36 33 56.5t53 20.5h376q29 0 49 -20t20 -49q0 -28 -20 -48t-49 -20h-325l-38 -143h243q29 0 49 -20t20 -48t-20 -47.5t-49 -19.5h-280l-40 -148h294q29 0 49 -20.5t20 -48.5t-20 -48t-49 -20zM493 753q-71 0 -116.5 37.5
t-45.5 81.5q0 20 15 33t37 13q34 0 48 -26q22 -40 73 -40q41 0 77 40q24 26 52 26q21 0 33 -11.5t12 -31.5q0 -19 -14 -36q-70 -86 -171 -86z" />
    <glyph glyph-name="ebreve" unicode="&#x115;" horiz-adv-x="607" 
d="M306 110q45 0 83 21q26 14 46 14q24 0 40.5 -16.5t16.5 -41.5q0 -32 -29 -51q-73 -48 -174 -48q-116 0 -182 63.5t-66 174.5q0 79 38.5 151.5t113 120.5t166.5 48q102 0 160.5 -58.5t58.5 -150.5q0 -28 -6 -55q-15 -67 -73 -67h-315q8 -105 122 -105zM406 593
q-71 0 -116.5 37.5t-45.5 81.5q0 20 15 33t37 13q34 0 48 -26q22 -40 73 -40q41 0 77 40q24 26 52 26q21 0 33 -11.5t12 -31.5q0 -19 -14 -36q-70 -86 -171 -86zM197 310h233q5 17 5 35q0 35 -22 57t-66 22q-51 0 -91 -31t-59 -83z" />
    <glyph glyph-name="Edotaccent" unicode="&#x116;" horiz-adv-x="665" 
d="M495 0h-394q-39 0 -56.5 27t-5.5 73l140 523q10 36 33 56.5t53 20.5h376q29 0 49 -20t20 -49q0 -28 -20 -48t-49 -20h-325l-38 -143h243q29 0 49 -20t20 -48t-20 -47.5t-49 -19.5h-280l-40 -148h294q29 0 49 -20.5t20 -48.5t-20 -48t-49 -20zM573 821q-7 -33 -33 -52.5
t-60 -19.5q-35 0 -55 20.5t-13 51.5l1 4q7 32 33 51.5t60 19.5q33 0 53.5 -21t14.5 -50z" />
    <glyph glyph-name="edotaccent" unicode="&#x117;" horiz-adv-x="607" 
d="M306 110q45 0 83 21q26 14 46 14q24 0 40.5 -16.5t16.5 -41.5q0 -32 -29 -51q-73 -48 -174 -48q-116 0 -182 63.5t-66 174.5q0 79 38.5 151.5t113 120.5t166.5 48q102 0 160.5 -58.5t58.5 -150.5q0 -28 -6 -55q-15 -67 -73 -67h-315q8 -105 122 -105zM197 310h233
q5 17 5 35q0 35 -22 57t-66 22q-51 0 -91 -31t-59 -83zM486 661q-7 -33 -32.5 -52.5t-60.5 -19.5t-55 20.5t-13 51.5l1 4q7 32 33 51.5t60 19.5q33 0 53.5 -21t14.5 -50z" />
    <glyph glyph-name="Eogonek" unicode="&#x118;" horiz-adv-x="665" 
d="M526 3q-32 -29 -42.5 -43.5t-10.5 -28.5q0 -11 7 -16t23 -10q18 -6 25.5 -13.5t6.5 -21.5q-2 -38 -74 -38q-49 0 -77.5 17.5t-28.5 49.5q0 44 67 101h-321q-39 0 -56.5 27t-5.5 73l140 523q10 36 33 56.5t53 20.5h376q29 0 49 -20t20 -49q0 -28 -20 -48t-49 -20h-325
l-38 -143h243q29 0 49 -20t20 -48t-20 -47.5t-49 -19.5h-280l-40 -148h294q29 0 49 -20.5t20 -48.5q0 -31 -38 -65z" />
    <glyph glyph-name="eogonek" unicode="&#x119;" horiz-adv-x="607" 
d="M417 -2q-41 -39 -41 -67q0 -11 7 -16t23 -10q18 -6 25.5 -13.5t6.5 -21.5q-2 -38 -74 -38q-49 0 -77.5 17.5t-28.5 49.5q0 42 50 90q-6 -1 -19 -1q-116 0 -182 63.5t-66 174.5q0 79 38.5 151.5t113 120.5t166.5 48q102 0 160.5 -58.5t58.5 -150.5q0 -28 -6 -55
q-15 -67 -73 -67h-315q8 -105 122 -105q45 0 83 21q26 14 46 14q24 0 40.5 -16.5t16.5 -41.5q0 -29 -29 -51q-27 -20 -46 -38zM197 310h233q5 17 5 35q0 35 -22 57t-66 22q-51 0 -91 -31t-59 -83z" />
    <glyph glyph-name="Ecaron" unicode="&#x11a;" horiz-adv-x="665" 
d="M495 0h-394q-39 0 -56.5 27t-5.5 73l140 523q10 36 33 56.5t53 20.5h376q29 0 49 -20t20 -49q0 -28 -20 -48t-49 -20h-325l-38 -143h243q29 0 49 -20t20 -48t-20 -47.5t-49 -19.5h-280l-40 -148h294q29 0 49 -20.5t20 -48.5t-20 -48t-49 -20zM391 788l-38 74
q-13 23 -13 32q0 24 34 24q31 0 49.5 -5.5t38.5 -27.5l36 -39l57 39q48 33 95 33q32 0 32 -23q0 -15 -17 -32l-82 -79q-34 -34 -78 -34h-44q-51 0 -70 38z" />
    <glyph glyph-name="ecaron" unicode="&#x11b;" horiz-adv-x="607" 
d="M306 110q45 0 83 21q26 14 46 14q24 0 40.5 -16.5t16.5 -41.5q0 -32 -29 -51q-73 -48 -174 -48q-116 0 -182 63.5t-66 174.5q0 79 38.5 151.5t113 120.5t166.5 48q102 0 160.5 -58.5t58.5 -150.5q0 -28 -6 -55q-15 -67 -73 -67h-315q8 -105 122 -105zM304 628l-38 74
q-13 23 -13 32q0 24 34 24q31 0 49.5 -5.5t38.5 -27.5l36 -39l57 39q48 33 95 33q32 0 32 -23q0 -15 -17 -32l-82 -79q-34 -34 -78 -34h-44q-51 0 -70 38zM197 310h233q5 17 5 35q0 35 -22 57t-66 22q-51 0 -91 -31t-59 -83z" />
    <glyph glyph-name="Gbreve" unicode="&#x11e;" horiz-adv-x="780" 
d="M720 304l-55 -193q-15 -55 -62 -80q-82 -43 -208 -43q-62 0 -119.5 18.5t-105 54.5t-76 96t-28.5 135q0 109 56 205t157.5 155.5t223.5 59.5q82 0 145.5 -22.5t98.5 -55.5q31 -27 31 -62q0 -32 -22 -54t-54 -22q-26 0 -48 16q-39 30 -75 44.5t-88 14.5q-111 0 -188 -81.5
t-77 -192.5q0 -79 51 -123.5t128 -44.5q65 0 125 27l33 114h-86q-28 0 -47.5 19t-19.5 47t19.5 47.5t47.5 19.5h181q39 0 57 -27t5 -72zM553 763q-71 0 -116.5 37.5t-45.5 81.5q0 20 15 33t37 13q34 0 48 -26q22 -40 73 -40q41 0 77 40q24 26 52 26q21 0 33 -11.5t12 -31.5
q0 -19 -14 -36q-70 -86 -171 -86z" />
    <glyph glyph-name="gbreve" unicode="&#x11f;" horiz-adv-x="671" 
d="M302 165q63 0 110.5 46.5t47.5 109.5q0 45 -29 71.5t-77 26.5q-63 0 -108.5 -48t-45.5 -111q0 -46 28 -70.5t74 -24.5zM499 453l4 12q9 34 30 55.5t54 21.5q39 0 56.5 -27t4.5 -73l-90 -337q-21 -80 -41 -120t-53 -73q-74 -74 -214 -74q-127 0 -231 46q-43 20 -43 58
q0 27 18 46.5t45 19.5q20 0 44 -12q76 -38 157 -38q73 0 116 43q30 30 49 96l5 18q-43 -38 -81 -54.5t-87 -16.5q-82 0 -140.5 50t-58.5 137q0 131 89.5 223t203.5 92q110 0 163 -93zM440 593q-71 0 -116.5 37.5t-45.5 81.5q0 20 15 33t37 13q34 0 48 -26q22 -40 73 -40
q41 0 77 40q24 26 52 26q21 0 33 -11.5t12 -31.5q0 -19 -14 -36q-70 -86 -171 -86z" />
    <glyph glyph-name="Gdotaccent" unicode="&#x120;" horiz-adv-x="780" 
d="M720 304l-55 -193q-15 -55 -62 -80q-82 -43 -208 -43q-62 0 -119.5 18.5t-105 54.5t-76 96t-28.5 135q0 109 56 205t157.5 155.5t223.5 59.5q82 0 145.5 -22.5t98.5 -55.5q31 -27 31 -62q0 -32 -22 -54t-54 -22q-26 0 -48 16q-39 30 -75 44.5t-88 14.5q-111 0 -188 -81.5
t-77 -192.5q0 -79 51 -123.5t128 -44.5q65 0 125 27l33 114h-86q-28 0 -47.5 19t-19.5 47t19.5 47.5t47.5 19.5h181q39 0 57 -27t5 -72zM633 831q-7 -33 -33 -52.5t-60 -19.5q-35 0 -55 20.5t-13 51.5l1 4q7 32 33 51.5t60 19.5q33 0 53.5 -21t14.5 -50z" />
    <glyph glyph-name="gdotaccent" unicode="&#x121;" horiz-adv-x="671" 
d="M302 165q63 0 110.5 46.5t47.5 109.5q0 45 -29 71.5t-77 26.5q-63 0 -108.5 -48t-45.5 -111q0 -46 28 -70.5t74 -24.5zM499 453l4 12q9 34 30 55.5t54 21.5q39 0 56.5 -27t4.5 -73l-90 -337q-21 -80 -41 -120t-53 -73q-74 -74 -214 -74q-127 0 -231 46q-43 20 -43 58
q0 27 18 46.5t45 19.5q20 0 44 -12q76 -38 157 -38q73 0 116 43q30 30 49 96l5 18q-43 -38 -81 -54.5t-87 -16.5q-82 0 -140.5 50t-58.5 137q0 131 89.5 223t203.5 92q110 0 163 -93zM520 661q-7 -33 -32.5 -52.5t-60.5 -19.5t-55 20.5t-13 51.5l1 4q7 32 33 51.5t60 19.5
q33 0 53.5 -21t14.5 -50z" />
    <glyph glyph-name="Gcommaaccent" unicode="&#x122;" horiz-adv-x="780" 
d="M720 304l-55 -193q-15 -55 -62 -80q-82 -43 -208 -43q-62 0 -119.5 18.5t-105 54.5t-76 96t-28.5 135q0 109 56 205t157.5 155.5t223.5 59.5q82 0 145.5 -22.5t98.5 -55.5q31 -27 31 -62q0 -32 -22 -54t-54 -22q-26 0 -48 16q-39 30 -75 44.5t-88 14.5q-111 0 -188 -81.5
t-77 -192.5q0 -79 51 -123.5t128 -44.5q65 0 125 27l33 114h-86q-28 0 -47.5 19t-19.5 47t19.5 47.5t47.5 19.5h181q39 0 57 -27t5 -72zM309 -179q-56 12 -56 52q0 29 22.5 49t55.5 20q32 0 50.5 -18.5t18.5 -51.5q0 -61 -49 -110q-59 -59 -130 -59q-28 0 -28 22q0 21 31 27
q76 14 85 69z" />
    <glyph glyph-name="gcommaaccent" unicode="&#x123;" horiz-adv-x="671" 
d="M302 165q63 0 110.5 46.5t47.5 109.5q0 45 -29 71.5t-77 26.5q-63 0 -108.5 -48t-45.5 -111q0 -46 28 -70.5t74 -24.5zM499 453l4 12q9 34 30 55.5t54 21.5q39 0 56.5 -27t4.5 -73l-90 -337q-21 -80 -41 -120t-53 -73q-74 -74 -214 -74q-127 0 -231 46q-43 20 -43 58
q0 27 18 46.5t45 19.5q20 0 44 -12q76 -38 157 -38q73 0 116 43q30 30 49 96l5 18q-43 -38 -81 -54.5t-87 -16.5q-82 0 -140.5 50t-58.5 137q0 131 89.5 223t203.5 92q110 0 163 -93zM452 710q56 -12 56 -52q0 -29 -22.5 -49t-55.5 -20q-32 0 -50.5 18.5t-18.5 51.5
q0 61 49 110q59 59 130 59q28 0 28 -22q0 -21 -31 -27q-76 -14 -85 -69z" />
    <glyph glyph-name="Hbar" unicode="&#x126;" horiz-adv-x="756" 
d="M776 512h-39l-118 -441q-10 -36 -33 -56.5t-53 -20.5q-39 0 -56.5 27t-5.5 73l51 187h-280l-57 -210q-10 -36 -33 -56.5t-53 -20.5q-39 0 -56.5 27t-5.5 73l112 418h-9q-22 0 -37.5 15t-15.5 37t15.5 37.5t37.5 15.5h38l3 12q10 36 33 56.5t53 20.5q37 0 54.5 -24
t9.5 -65h281l3 12q10 36 33 56.5t53 20.5q37 0 54.5 -24t9.5 -65h11q22 0 37.5 -15.5t15.5 -37.5t-15.5 -37t-37.5 -15zM280 423h280l24 89h-280z" />
    <glyph glyph-name="hbar" unicode="&#x127;" horiz-adv-x="622" 
d="M563 288l-58 -217q-10 -37 -32.5 -57t-52.5 -20q-39 0 -56.5 27t-4.5 73l54 200q7 26 7 48q0 66 -74 66q-44 0 -73.5 -28.5t-42.5 -78.5l-62 -230q-10 -37 -32.5 -57t-52.5 -20q-39 0 -56.5 27t-4.5 73l132 500h-20q-17 0 -29.5 12.5t-12.5 29.5t12.5 29.5t29.5 12.5h44
q24 58 79 58q61 0 66 -58h114q17 0 29.5 -12.5t12.5 -29.5t-12.5 -29.5t-29.5 -12.5h-130l-30 -114q74 66 146 66t115 -42t43 -114q0 -34 -18 -102z" />
    <glyph glyph-name="Imacron" unicode="&#x12a;" horiz-adv-x="336" 
d="M336 606l-144 -535q-10 -36 -33 -56.5t-53 -20.5q-39 0 -56.5 27t-5.5 73l144 535q10 36 33 56.5t53 20.5q39 0 56.5 -27t5.5 -73zM447 760h-266q-22 0 -37.5 15t-15.5 37t15.5 37.5t37.5 15.5h266q22 0 37.5 -15.5t15.5 -37.5t-15.5 -37t-37.5 -15z" />
    <glyph glyph-name="imacron" unicode="&#x12b;" horiz-adv-x="302" 
d="M274 442l-100 -371q-10 -37 -32.5 -57t-52.5 -20q-39 0 -56.5 27t-4.5 73l100 371q10 37 32.5 57t52.5 20q39 0 56.5 -27t4.5 -73zM387 600h-266q-22 0 -37.5 15t-15.5 37t15.5 37.5t37.5 15.5h266q22 0 37.5 -15.5t15.5 -37.5t-15.5 -37t-37.5 -15z" />
    <glyph glyph-name="Ibreve" unicode="&#x12c;" horiz-adv-x="336" 
d="M336 606l-144 -535q-10 -36 -33 -56.5t-53 -20.5q-39 0 -56.5 27t-5.5 73l144 535q10 36 33 56.5t53 20.5q39 0 56.5 -27t5.5 -73zM316 753q-71 0 -116.5 37.5t-45.5 81.5q0 20 15 33t37 13q34 0 48 -26q22 -40 73 -40q41 0 77 40q24 26 52 26q21 0 33 -11.5t12 -31.5
q0 -19 -14 -36q-70 -86 -171 -86z" />
    <glyph glyph-name="ibreve" unicode="&#x12d;" horiz-adv-x="302" 
d="M274 442l-100 -371q-10 -37 -32.5 -57t-52.5 -20q-39 0 -56.5 27t-4.5 73l100 371q10 37 32.5 57t52.5 20q39 0 56.5 -27t4.5 -73zM256 593q-71 0 -116.5 37.5t-45.5 81.5q0 20 15 33t37 13q34 0 48 -26q22 -40 73 -40q41 0 77 40q24 26 52 26q21 0 33 -11.5t12 -31.5
q0 -19 -14 -36q-70 -86 -171 -86z" />
    <glyph glyph-name="Iogonek" unicode="&#x12e;" horiz-adv-x="336" 
d="M89 -168q-49 0 -77.5 17.5t-28.5 49.5q0 48 75 111q-30 27 -14 84l144 535q10 36 33 56.5t53 20.5q39 0 56.5 -27t5.5 -73l-144 -535q-10 -35 -36 -61q-55 -54 -55 -79q0 -11 7 -16t23 -10q18 -6 25.5 -13.5t6.5 -21.5q-2 -38 -74 -38z" />
    <glyph glyph-name="iogonek" unicode="&#x12f;" horiz-adv-x="302" 
d="M342 660q-7 -32 -34 -51t-64 -19q-36 0 -57.5 20t-15.5 50l1 5q7 32 34 51t64 19q36 0 57.5 -20t15.5 -50zM274 442l-100 -371q-9 -34 -36 -61q-54 -54 -54 -79q0 -11 7 -16t23 -10q18 -6 25.5 -13.5t6.5 -21.5q-2 -38 -74 -38q-49 0 -77.5 17.5t-28.5 49.5q0 48 75 111
q-18 19 -18 49q0 15 5 35l100 371q10 37 32.5 57t52.5 20q39 0 56.5 -27t4.5 -73z" />
    <glyph glyph-name="Idotaccent" unicode="&#x130;" horiz-adv-x="336" 
d="M336 606l-144 -535q-10 -36 -33 -56.5t-53 -20.5q-39 0 -56.5 27t-5.5 73l144 535q10 36 33 56.5t53 20.5q39 0 56.5 -27t5.5 -73zM397 821q-7 -33 -33 -52.5t-60 -19.5q-35 0 -55 20.5t-13 51.5l1 4q7 32 33 51.5t60 19.5q33 0 53.5 -21t14.5 -50z" />
    <glyph glyph-name="dotlessi" unicode="&#x131;" horiz-adv-x="302" 
d="M274 442l-100 -371q-10 -37 -32.5 -57t-52.5 -20q-39 0 -56.5 27t-4.5 73l100 371q10 37 32.5 57t52.5 20q39 0 56.5 -27t4.5 -73z" />
    <glyph glyph-name="Kcommaaccent" unicode="&#x136;" horiz-adv-x="727" 
d="M217 191l-32 -120q-10 -36 -33 -56.5t-53 -20.5q-39 0 -56.5 27t-5.5 73l144 535q10 36 33 56.5t53 20.5q39 0 56.5 -27t5.5 -73l-58 -216l341 286q36 30 64 30q31 0 50.5 -20t19.5 -49q0 -35 -27 -57l-225 -184l124 -283q12 -29 12 -50q0 -31 -23.5 -50t-53.5 -19
q-56 0 -78 54l-107 262zM269 -169q-56 12 -56 52q0 29 22.5 49t55.5 20q32 0 50.5 -18.5t18.5 -51.5q0 -61 -49 -110q-59 -59 -130 -59q-28 0 -28 22q0 21 31 27q76 14 85 69z" />
    <glyph glyph-name="kcommaaccent" unicode="&#x137;" horiz-adv-x="591" 
d="M320 636l-80 -296l230 175q35 27 58 27q28 0 45.5 -17.5t17.5 -43.5q0 -32 -28 -52l-158 -115l83 -201q13 -31 13 -52q0 -31 -23.5 -49t-54.5 -18q-57 0 -79 55l-71 170l-82 -60l-23 -88q-10 -37 -32.5 -57t-52.5 -20q-39 0 -56.5 27t-4.5 73l152 565q10 37 32.5 57
t52.5 20q39 0 56.5 -27t4.5 -73zM182 -174q-56 12 -56 52q0 29 22.5 49t55.5 20q32 0 50.5 -18.5t18.5 -51.5q0 -61 -49 -110q-59 -59 -130 -59q-28 0 -28 22q0 21 31 27q76 14 85 69z" />
    <glyph glyph-name="Lacute" unicode="&#x139;" horiz-adv-x="626" 
d="M471 0h-370q-39 0 -56.5 27t-5.5 73l142 529q10 36 33 56.5t53 20.5q39 0 56.5 -27t5.5 -73l-125 -466h267q29 0 49 -20.5t20 -49.5q0 -30 -20 -50t-49 -20zM490 840l-78 -58q-44 -33 -89 -33q-42 0 -42 28q0 14 13 28l76 84q31 33 57 33q29 0 57 -15t28 -34
q0 -17 -22 -33z" />
    <glyph glyph-name="lacute" unicode="&#x13a;" horiz-adv-x="302" 
d="M326 636l-152 -565q-10 -37 -32.5 -57t-52.5 -20q-39 0 -56.5 27t-4.5 73l152 565q10 37 32.5 57t52.5 20q39 0 56.5 -27t4.5 -73zM468 855l-78 -58q-44 -33 -89 -33q-42 0 -42 28q0 14 13 28l76 84q31 33 57 33q29 0 57 -15t28 -34q0 -16 -22 -33z" />
    <glyph glyph-name="Lcommaaccent" unicode="&#x13b;" horiz-adv-x="626" 
d="M471 0h-370q-39 0 -56.5 27t-5.5 73l142 529q10 36 33 56.5t53 20.5q39 0 56.5 -27t5.5 -73l-125 -466h267q29 0 49 -20.5t20 -49.5q0 -30 -20 -50t-49 -20zM208 -174q-56 12 -56 52q0 29 22.5 49t55.5 20q32 0 50.5 -18.5t18.5 -51.5q0 -61 -49 -110q-59 -59 -130 -59
q-28 0 -28 22q0 21 31 27q76 14 85 69z" />
    <glyph glyph-name="lcommaaccent" unicode="&#x13c;" horiz-adv-x="302" 
d="M326 636l-152 -565q-10 -37 -32.5 -57t-52.5 -20q-39 0 -56.5 27t-4.5 73l152 565q10 37 32.5 57t52.5 20q39 0 56.5 -27t4.5 -73zM32 -174q-56 12 -56 52q0 29 22.5 49t55.5 20q32 0 50.5 -18.5t18.5 -51.5q0 -61 -49 -110q-59 -59 -130 -59q-28 0 -28 22q0 21 31 27
q76 14 85 69z" />
    <glyph glyph-name="Lcaron" unicode="&#x13d;" horiz-adv-x="626" 
d="M471 0h-370q-39 0 -56.5 27t-5.5 73l142 529q10 36 33 56.5t53 20.5q39 0 56.5 -27t5.5 -73l-125 -466h267q29 0 49 -20.5t20 -49.5q0 -30 -20 -50t-49 -20zM362 523l35 131q12 47 61 47h23q29 0 29 -23q0 -13 -12 -35l-72 -130q-15 -27 -40 -27q-26 0 -26 23q0 6 2 14z
" />
    <glyph glyph-name="lcaron" unicode="&#x13e;" horiz-adv-x="302" 
d="M326 636l-152 -565q-10 -37 -32.5 -57t-52.5 -20q-39 0 -56.5 27t-4.5 73l152 565q10 37 32.5 57t52.5 20q39 0 56.5 -27t4.5 -73zM359 553l35 131q12 47 61 47h23q29 0 29 -23q0 -13 -12 -35l-72 -130q-15 -27 -40 -27q-26 0 -26 23q0 6 2 14z" />
    <glyph glyph-name="Ldot" unicode="&#x13f;" horiz-adv-x="626" 
d="M594 381q-7 -33 -32.5 -52.5t-60.5 -19.5t-55 20.5t-13 51.5l1 4q7 32 33 51.5t60 19.5q33 0 53.5 -21t14.5 -50zM471 0h-370q-39 0 -56.5 27t-5.5 73l142 529q10 36 33 56.5t53 20.5q39 0 56.5 -27t5.5 -73l-125 -466h267q29 0 49 -20.5t20 -49.5q0 -30 -20 -50t-49 -20
z" />
    <glyph glyph-name="ldot" unicode="&#x140;" horiz-adv-x="392" 
d="M440 375q-6 -31 -24.5 -47.5t-46.5 -16.5q-30 0 -45.5 20t-10.5 47l1 5q6 31 24.5 47.5t46.5 16.5q29 0 45 -19.5t11 -47.5zM326 636l-152 -565q-10 -37 -32.5 -57t-52.5 -20q-39 0 -56.5 27t-4.5 73l152 565q10 37 32.5 57t52.5 20q39 0 56.5 -27t4.5 -73z" />
    <glyph glyph-name="Lslash" unicode="&#x141;" horiz-adv-x="657" 
d="M91 388l61 17l60 224q10 36 32 56.5t52 20.5q38 0 54.5 -27t4.5 -73l-42 -156l101 28q16 4 25 4q29 0 47 -17t18 -45q0 -49 -49 -63l-181 -51l-44 -166h272q29 0 49 -20.5t20 -49.5q0 -30 -20 -50t-49 -20h-370q-39 0 -56.5 27t-5.5 73l44 163h-7q-29 0 -47 17t-18 45
q0 49 49 63z" />
    <glyph glyph-name="lslash" unicode="&#x142;" horiz-adv-x="359" 
d="M94 408l52 14l64 237q10 37 32.5 57t52.5 20q39 0 56.5 -27t4.5 -73l-46 -169q5 1 16 1q25 0 40.5 -17t15.5 -44q0 -54 -57 -68l-53 -15l-68 -253q-10 -37 -32.5 -57t-52.5 -20q-39 0 -56.5 27t-4.5 73l50 186q-5 -1 -15 -1q-25 0 -40.5 17t-15.5 44q0 54 57 68z" />
    <glyph glyph-name="Nacute" unicode="&#x143;" horiz-adv-x="786" 
d="M546 255l101 374q10 37 32.5 57t52.5 20q39 0 56.5 -27t4.5 -73l-145 -538q-19 -72 -83 -72h-3q-35 0 -54.5 14t-33.5 44l-187 405l-104 -388q-10 -37 -32.5 -57t-52.5 -20q-39 0 -56.5 27t-4.5 73l143 533q20 77 91 77h7q63 0 90 -61zM703 840l-78 -58q-44 -33 -89 -33
q-42 0 -42 28q0 14 13 28l76 84q31 33 57 33q29 0 57 -15t28 -34q0 -17 -22 -33z" />
    <glyph glyph-name="nacute" unicode="&#x144;" horiz-adv-x="619" 
d="M209 542q32 0 50 -17.5t18 -44.5q74 66 146 66t115 -42t43 -114q0 -34 -18 -102l-58 -217q-10 -37 -32.5 -57t-52.5 -20q-39 0 -56.5 27t-4.5 73l54 200q7 26 7 48q0 66 -74 66q-44 0 -73.5 -28.5t-42.5 -78.5l-62 -230q-10 -37 -32.5 -57t-52.5 -20q-39 0 -56.5 27
t-4.5 73l99 371q10 37 33 57t55 20zM569 680l-78 -58q-44 -33 -89 -33q-42 0 -42 28q0 14 13 28l76 84q31 33 57 33q29 0 57 -15t28 -34q0 -17 -22 -33z" />
    <glyph glyph-name="Ncommaaccent" unicode="&#x145;" horiz-adv-x="786" 
d="M546 255l101 374q10 37 32.5 57t52.5 20q39 0 56.5 -27t4.5 -73l-145 -538q-19 -72 -83 -72h-3q-35 0 -54.5 14t-33.5 44l-187 405l-104 -388q-10 -37 -32.5 -57t-52.5 -20q-39 0 -56.5 27t-4.5 73l143 533q20 77 91 77h7q63 0 90 -61zM275 -169q-56 12 -56 52
q0 29 22.5 49t55.5 20q32 0 50.5 -18.5t18.5 -51.5q0 -61 -49 -110q-59 -59 -130 -59q-28 0 -28 22q0 21 31 27q76 14 85 69z" />
    <glyph glyph-name="ncommaaccent" unicode="&#x146;" horiz-adv-x="619" 
d="M209 542q32 0 50 -17.5t18 -44.5q74 66 146 66t115 -42t43 -114q0 -34 -18 -102l-58 -217q-10 -37 -32.5 -57t-52.5 -20q-39 0 -56.5 27t-4.5 73l54 200q7 26 7 48q0 66 -74 66q-44 0 -73.5 -28.5t-42.5 -78.5l-62 -230q-10 -37 -32.5 -57t-52.5 -20q-39 0 -56.5 27
t-4.5 73l99 371q10 37 33 57t55 20zM183 -174q-56 12 -56 52q0 29 22.5 49t55.5 20q32 0 50.5 -18.5t18.5 -51.5q0 -61 -49 -110q-59 -59 -130 -59q-28 0 -28 22q0 21 31 27q76 14 85 69z" />
    <glyph glyph-name="Ncaron" unicode="&#x147;" horiz-adv-x="786" 
d="M546 255l101 374q10 37 32.5 57t52.5 20q39 0 56.5 -27t4.5 -73l-145 -538q-19 -72 -83 -72h-3q-35 0 -54.5 14t-33.5 44l-187 405l-104 -388q-10 -37 -32.5 -57t-52.5 -20q-39 0 -56.5 27t-4.5 73l143 533q20 77 91 77h7q63 0 90 -61zM439 788l-38 74q-13 23 -13 32
q0 24 34 24q31 0 49.5 -5.5t38.5 -27.5l36 -39l57 39q48 33 95 33q32 0 32 -23q0 -15 -17 -32l-82 -79q-34 -34 -78 -34h-44q-51 0 -70 38z" />
    <glyph glyph-name="ncaron" unicode="&#x148;" horiz-adv-x="619" 
d="M209 542q32 0 50 -17.5t18 -44.5q74 66 146 66t115 -42t43 -114q0 -34 -18 -102l-58 -217q-10 -37 -32.5 -57t-52.5 -20q-39 0 -56.5 27t-4.5 73l54 200q7 26 7 48q0 66 -74 66q-44 0 -73.5 -28.5t-42.5 -78.5l-62 -230q-10 -37 -32.5 -57t-52.5 -20q-39 0 -56.5 27
t-4.5 73l99 371q10 37 33 57t55 20zM305 628l-38 74q-13 23 -13 32q0 24 34 24q31 0 49.5 -5.5t38.5 -27.5l36 -39l57 39q48 33 95 33q32 0 32 -23q0 -15 -17 -32l-82 -79q-34 -34 -78 -34h-44q-51 0 -70 38z" />
    <glyph glyph-name="Omacron" unicode="&#x14c;" horiz-adv-x="832" 
d="M387 -12q-143 0 -231.5 88t-88.5 222q0 105 52 199.5t150 154.5t219 60q143 0 231.5 -88t88.5 -222q0 -105 -52 -199.5t-150 -154.5t-219 -60zM405 130q105 0 174 82.5t69 179.5q0 80 -47 129t-131 49q-105 0 -174 -82.5t-69 -179.5q0 -80 47 -129t131 -49zM689 770h-266
q-22 0 -37.5 15t-15.5 37t15.5 37.5t37.5 15.5h266q22 0 37.5 -15.5t15.5 -37.5t-15.5 -37t-37.5 -15z" />
    <glyph glyph-name="omacron" unicode="&#x14d;" horiz-adv-x="652" 
d="M300 -12q-117 0 -187.5 69.5t-70.5 178.5q0 122 91.5 216t218.5 94q117 0 187.5 -69.5t70.5 -178.5q0 -122 -91.5 -216t-218.5 -94zM307 118q66 0 110 57t44 119q0 58 -31.5 90t-84.5 32q-66 0 -110 -57t-44 -119q0 -58 31.5 -90t84.5 -32zM558 600h-266q-22 0 -37.5 15
t-15.5 37t15.5 37.5t37.5 15.5h266q22 0 37.5 -15.5t15.5 -37.5t-15.5 -37t-37.5 -15z" />
    <glyph glyph-name="Obreve" unicode="&#x14e;" horiz-adv-x="832" 
d="M387 -12q-143 0 -231.5 88t-88.5 222q0 105 52 199.5t150 154.5t219 60q143 0 231.5 -88t88.5 -222q0 -105 -52 -199.5t-150 -154.5t-219 -60zM405 130q105 0 174 82.5t69 179.5q0 80 -47 129t-131 49q-105 0 -174 -82.5t-69 -179.5q0 -80 47 -129t131 -49zM559 763
q-71 0 -116.5 37.5t-45.5 81.5q0 20 15 33t37 13q34 0 48 -26q22 -40 73 -40q41 0 77 40q24 26 52 26q21 0 33 -11.5t12 -31.5q0 -19 -14 -36q-70 -86 -171 -86z" />
    <glyph glyph-name="obreve" unicode="&#x14f;" horiz-adv-x="652" 
d="M300 -12q-117 0 -187.5 69.5t-70.5 178.5q0 122 91.5 216t218.5 94q117 0 187.5 -69.5t70.5 -178.5q0 -122 -91.5 -216t-218.5 -94zM307 118q66 0 110 57t44 119q0 58 -31.5 90t-84.5 32q-66 0 -110 -57t-44 -119q0 -58 31.5 -90t84.5 -32zM428 593q-71 0 -116.5 37.5
t-45.5 81.5q0 20 15 33t37 13q34 0 48 -26q22 -40 73 -40q41 0 77 40q24 26 52 26q21 0 33 -11.5t12 -31.5q0 -19 -14 -36q-70 -86 -171 -86z" />
    <glyph glyph-name="Ohungarumlaut" unicode="&#x150;" horiz-adv-x="832" 
d="M387 -12q-143 0 -231.5 88t-88.5 222q0 105 52 199.5t150 154.5t219 60q143 0 231.5 -88t88.5 -222q0 -105 -52 -199.5t-150 -154.5t-219 -60zM405 130q105 0 174 82.5t69 179.5q0 80 -47 129t-131 49q-105 0 -174 -82.5t-69 -179.5q0 -80 47 -129t131 -49zM543 932
q28 0 49.5 -15t21.5 -34q0 -17 -22 -33l-78 -58q-44 -33 -81 -33q-36 0 -36 28q0 14 13 28l76 84q31 33 57 33zM739 932q28 0 49.5 -15t21.5 -34q0 -17 -22 -33l-78 -58q-44 -33 -81 -33q-36 0 -36 28q0 14 13 28l76 84q31 33 57 33z" />
    <glyph glyph-name="ohungarumlaut" unicode="&#x151;" horiz-adv-x="652" 
d="M300 -12q-117 0 -187.5 69.5t-70.5 178.5q0 122 91.5 216t218.5 94q117 0 187.5 -69.5t70.5 -178.5q0 -122 -91.5 -216t-218.5 -94zM307 118q66 0 110 57t44 119q0 58 -31.5 90t-84.5 32q-66 0 -110 -57t-44 -119q0 -58 31.5 -90t84.5 -32zM411 762q28 0 49.5 -15
t21.5 -34q0 -17 -22 -33l-78 -58q-44 -33 -81 -33q-36 0 -36 28q0 14 13 28l76 84q31 33 57 33zM607 762q28 0 49.5 -15t21.5 -34q0 -17 -22 -33l-78 -58q-44 -33 -81 -33q-36 0 -36 28q0 14 13 28l76 84q31 33 57 33z" />
    <glyph glyph-name="OE" unicode="&#x152;" horiz-adv-x="1071" 
d="M429 139h45l114 422h-57q-149 0 -234 -85q-70 -70 -70 -175q0 -70 41 -111q51 -51 161 -51zM901 0h-484q-184 0 -279 95q-71 71 -71 200q0 161 115 276q129 129 367 129h498q29 0 49 -20t20 -49q0 -28 -20 -48t-49 -20h-305l-38 -143h223q29 0 49 -20t20 -48t-20 -47.5
t-49 -19.5h-260l-40 -148h274q29 0 49 -20.5t20 -48.5t-20 -48t-49 -20z" />
    <glyph glyph-name="oe" unicode="&#x153;" horiz-adv-x="1028" 
d="M727 110q45 0 83 21q26 14 46 14q24 0 40.5 -16.5t16.5 -41.5q0 -32 -29 -51q-73 -48 -174 -48q-143 0 -199 98q-83 -98 -210 -98q-118 0 -188.5 69.5t-70.5 178.5q0 124 90.5 217t218.5 93q148 0 207 -106q86 106 222 106q102 0 160.5 -58.5t58.5 -150.5q0 -28 -6 -55
q-15 -67 -73 -67h-315q8 -105 122 -105zM306 118q68 0 111.5 54t43.5 121q0 55 -31.5 89t-83.5 34q-68 0 -111.5 -54t-43.5 -121q0 -55 31.5 -89t83.5 -34zM618 310h233q5 17 5 35q0 35 -22 57t-66 22q-51 0 -91 -31t-59 -83z" />
    <glyph glyph-name="Racute" unicode="&#x154;" horiz-adv-x="727" 
d="M226 224l-41 -153q-10 -36 -33 -56.5t-53 -20.5q-39 0 -56.5 27t-5.5 73l142 529q10 36 33 56.5t53 20.5h190q152 0 222 -70q54 -54 54 -141q0 -102 -64 -166q-55 -55 -153 -82l86 -128q17 -25 17 -49q0 -33 -23 -51.5t-52 -18.5q-59 0 -90 51l-111 179h-115zM263 360
h137q96 0 141 45q29 29 29 71q0 34 -22 56q-29 29 -102 29h-129zM644 840l-78 -58q-44 -33 -89 -33q-42 0 -42 28q0 14 13 28l76 84q31 33 57 33q29 0 57 -15t28 -34q0 -17 -22 -33z" />
    <glyph glyph-name="racute" unicode="&#x155;" horiz-adv-x="419" 
d="M268 451l-3 -12q54 103 123 103q30 0 47.5 -18t17.5 -50q0 -59 -66 -78q-73 -21 -118 -69.5t-69 -136.5l-33 -119q-10 -37 -32.5 -57t-52.5 -20q-39 0 -56.5 27t-4.5 73l100 371q10 37 32.5 57t52.5 20q37 0 54.5 -25t7.5 -66zM479 680l-78 -58q-44 -33 -89 -33
q-42 0 -42 28q0 14 13 28l76 84q31 33 57 33q29 0 57 -15t28 -34q0 -17 -22 -33z" />
    <glyph glyph-name="Rcommaaccent" unicode="&#x156;" horiz-adv-x="727" 
d="M226 224l-41 -153q-10 -36 -33 -56.5t-53 -20.5q-39 0 -56.5 27t-5.5 73l142 529q10 36 33 56.5t53 20.5h190q152 0 222 -70q54 -54 54 -141q0 -102 -64 -166q-55 -55 -153 -82l86 -128q17 -25 17 -49q0 -33 -23 -51.5t-52 -18.5q-59 0 -90 51l-111 179h-115zM263 360
h137q96 0 141 45q29 29 29 71q0 34 -22 56q-29 29 -102 29h-129zM246 -169q-56 12 -56 52q0 29 22.5 49t55.5 20q32 0 50.5 -18.5t18.5 -51.5q0 -61 -49 -110q-59 -59 -130 -59q-28 0 -28 22q0 21 31 27q76 14 85 69z" />
    <glyph glyph-name="rcommaaccent" unicode="&#x157;" horiz-adv-x="419" 
d="M268 451l-3 -12q54 103 123 103q30 0 47.5 -18t17.5 -50q0 -59 -66 -78q-73 -21 -118 -69.5t-69 -136.5l-33 -119q-10 -37 -32.5 -57t-52.5 -20q-39 0 -56.5 27t-4.5 73l100 371q10 37 32.5 57t52.5 20q37 0 54.5 -25t7.5 -66zM32 -174q-56 12 -56 52q0 29 22.5 49
t55.5 20q32 0 50.5 -18.5t18.5 -51.5q0 -61 -49 -110q-59 -59 -130 -59q-28 0 -28 22q0 21 31 27q76 14 85 69z" />
    <glyph glyph-name="Rcaron" unicode="&#x158;" horiz-adv-x="727" 
d="M226 224l-41 -153q-10 -36 -33 -56.5t-53 -20.5q-39 0 -56.5 27t-5.5 73l142 529q10 36 33 56.5t53 20.5h190q152 0 222 -70q54 -54 54 -141q0 -102 -64 -166q-55 -55 -153 -82l86 -128q17 -25 17 -49q0 -33 -23 -51.5t-52 -18.5q-59 0 -90 51l-111 179h-115zM263 360
h137q96 0 141 45q29 29 29 71q0 34 -22 56q-29 29 -102 29h-129zM380 788l-38 74q-13 23 -13 32q0 24 34 24q31 0 49.5 -5.5t38.5 -27.5l36 -39l57 39q48 33 95 33q32 0 32 -23q0 -15 -17 -32l-82 -79q-34 -34 -78 -34h-44q-51 0 -70 38z" />
    <glyph glyph-name="rcaron" unicode="&#x159;" horiz-adv-x="419" 
d="M268 451l-3 -12q54 103 123 103q30 0 47.5 -18t17.5 -50q0 -59 -66 -78q-73 -21 -118 -69.5t-69 -136.5l-33 -119q-10 -37 -32.5 -57t-52.5 -20q-39 0 -56.5 27t-4.5 73l100 371q10 37 32.5 57t52.5 20q37 0 54.5 -25t7.5 -66zM215 628l-38 74q-13 23 -13 32q0 24 34 24
q31 0 49.5 -5.5t38.5 -27.5l36 -39l57 39q48 33 95 33q32 0 32 -23q0 -15 -17 -32l-82 -79q-34 -34 -78 -34h-44q-51 0 -70 38z" />
    <glyph glyph-name="Sacute" unicode="&#x15a;" horiz-adv-x="636" 
d="M302 125q47 0 77 20t30 53q0 26 -24.5 45t-94.5 47q-81 33 -126.5 76t-45.5 113q0 104 81 167.5t197 63.5q123 0 213 -62q36 -26 36 -64q0 -32 -22 -53.5t-54 -21.5q-26 0 -42 13q-68 53 -143 53q-46 0 -74 -21.5t-28 -49.5q0 -27 24 -44t99 -48q82 -33 125 -75.5
t43 -113.5q0 -106 -81.5 -169.5t-196.5 -63.5q-166 0 -259 80q-30 25 -30 64q0 33 21.5 55.5t53.5 22.5q25 0 49 -19q45 -37 83 -52.5t89 -15.5zM613 850l-78 -58q-44 -33 -89 -33q-42 0 -42 28q0 14 13 28l76 84q31 33 57 33q29 0 57 -15t28 -34q0 -17 -22 -33z" />
    <glyph glyph-name="sacute" unicode="&#x15b;" 
d="M228 104q64 0 64 47q0 23 -62 50q-38 16 -60.5 28t-47.5 31t-36.5 43t-11.5 55q0 82 58.5 135t156.5 53q90 0 171 -48q35 -20 35 -56q0 -27 -18.5 -46t-44.5 -19q-17 0 -40 15q-58 38 -114 38q-28 0 -43.5 -12t-15.5 -33q0 -15 17 -27t54 -29q33 -15 53.5 -26t45 -29.5
t36.5 -42.5t12 -54q0 -87 -61.5 -138t-158.5 -51q-113 0 -206 67q-27 19 -27 52q0 26 18 45t43 19q22 0 40 -14q68 -53 143 -53zM504 680l-78 -58q-44 -33 -89 -33q-42 0 -42 28q0 14 13 28l76 84q31 33 57 33q29 0 57 -15t28 -34q0 -17 -22 -33z" />
    <glyph glyph-name="Scedilla" unicode="&#x15e;" horiz-adv-x="636" 
d="M302 125q47 0 77 20t30 53q0 26 -24.5 45t-94.5 47q-81 33 -126.5 76t-45.5 113q0 104 81 167.5t197 63.5q123 0 213 -62q36 -26 36 -64q0 -32 -22 -53.5t-54 -21.5q-26 0 -42 13q-68 53 -143 53q-46 0 -74 -21.5t-28 -49.5q0 -27 24 -44t99 -48q82 -33 125 -75.5
t43 -113.5q0 -105 -80 -168t-195 -65l-83 -125q-21 -32 -52 -32q-22 0 -45 16t-23 35q0 16 15 32l80 84q-97 19 -154 70q-30 25 -30 64q0 33 21.5 55.5t53.5 22.5q25 0 49 -19q45 -37 83 -52.5t89 -15.5z" />
    <glyph glyph-name="scedilla" unicode="&#x15f;" 
d="M228 104q64 0 64 47q0 23 -62 50q-38 16 -60.5 28t-47.5 31t-36.5 43t-11.5 55q0 82 58.5 135t156.5 53q90 0 171 -48q35 -20 35 -56q0 -27 -18.5 -46t-44.5 -19q-17 0 -40 15q-58 38 -114 38q-28 0 -43.5 -12t-15.5 -33q0 -15 17 -27t54 -29q33 -15 53.5 -26t45 -29.5
t36.5 -42.5t12 -54q0 -83 -57 -133.5t-149 -54.5l-82 -124q-21 -32 -52 -32q-22 0 -45 16t-23 35q0 16 15 32l81 85q-64 18 -114 54q-27 19 -27 52q0 26 18 45t43 19q22 0 40 -14q68 -53 143 -53z" />
    <glyph glyph-name="Scaron" unicode="&#x160;" horiz-adv-x="636" 
d="M302 125q47 0 77 20t30 53q0 26 -24.5 45t-94.5 47q-81 33 -126.5 76t-45.5 113q0 104 81 167.5t197 63.5q123 0 213 -62q36 -26 36 -64q0 -32 -22 -53.5t-54 -21.5q-26 0 -42 13q-68 53 -143 53q-46 0 -74 -21.5t-28 -49.5q0 -27 24 -44t99 -48q82 -33 125 -75.5
t43 -113.5q0 -106 -81.5 -169.5t-196.5 -63.5q-166 0 -259 80q-30 25 -30 64q0 33 21.5 55.5t53.5 22.5q25 0 49 -19q45 -37 83 -52.5t89 -15.5zM349 798l-38 74q-13 23 -13 32q0 24 34 24q31 0 49.5 -5.5t38.5 -27.5l36 -39l57 39q48 33 95 33q32 0 32 -23q0 -15 -17 -32
l-82 -79q-34 -34 -78 -34h-44q-51 0 -70 38z" />
    <glyph glyph-name="scaron" unicode="&#x161;" 
d="M228 104q64 0 64 47q0 23 -62 50q-38 16 -60.5 28t-47.5 31t-36.5 43t-11.5 55q0 82 58.5 135t156.5 53q90 0 171 -48q35 -20 35 -56q0 -27 -18.5 -46t-44.5 -19q-17 0 -40 15q-58 38 -114 38q-28 0 -43.5 -12t-15.5 -33q0 -15 17 -27t54 -29q33 -15 53.5 -26t45 -29.5
t36.5 -42.5t12 -54q0 -87 -61.5 -138t-158.5 -51q-113 0 -206 67q-27 19 -27 52q0 26 18 45t43 19q22 0 40 -14q68 -53 143 -53zM241 628l-38 74q-13 23 -13 32q0 24 34 24q31 0 49.5 -5.5t38.5 -27.5l36 -39l57 39q48 33 95 33q32 0 32 -23q0 -15 -17 -32l-82 -79
q-34 -34 -78 -34h-44q-51 0 -70 38z" />
    <glyph glyph-name="Tcommaaccent" unicode="&#x162;" horiz-adv-x="620" 
d="M463 558l-131 -487q-10 -36 -33 -56.5t-53 -20.5q-39 0 -56.5 27t-5.5 73l125 464h-128q-29 0 -50 21t-21 50t21 50t50 21h449q29 0 50 -21t21 -50t-21 -50t-50 -21h-167zM189 -174q-56 12 -56 52q0 29 22.5 49t55.5 20q32 0 50.5 -18.5t18.5 -51.5q0 -61 -49 -110
q-59 -59 -130 -59q-28 0 -28 22q0 21 31 27q76 14 85 69z" />
    <glyph glyph-name="tcommaaccent" unicode="&#x163;" horiz-adv-x="415" 
d="M165 536l18 66q10 37 32.5 57t52.5 20q39 0 56.5 -27t4.5 -73l-12 -43h51q26 0 44.5 -18.5t18.5 -46.5t-18.5 -46.5t-44.5 -18.5h-86l-60 -225q-4 -16 -4 -24q0 -32 38 -32h12q24 0 39 -15t15 -42q0 -45 -39 -62q-35 -15 -89 -15q-68 0 -103.5 29t-35.5 76q0 27 10 67
l65 243q-22 3 -39 20t-17 45t18.5 46.5t44.5 18.5h28zM113 -174q-56 12 -56 52q0 29 22.5 49t55.5 20q32 0 50.5 -18.5t18.5 -51.5q0 -61 -49 -110q-59 -59 -130 -59q-28 0 -28 22q0 21 31 27q76 14 85 69z" />
    <glyph glyph-name="Tcaron" unicode="&#x164;" horiz-adv-x="620" 
d="M463 558l-131 -487q-10 -36 -33 -56.5t-53 -20.5q-39 0 -56.5 27t-5.5 73l125 464h-128q-29 0 -50 21t-21 50t21 50t50 21h449q29 0 50 -21t21 -50t-21 -50t-50 -21h-167zM354 788l-38 74q-13 23 -13 32q0 24 34 24q31 0 49.5 -5.5t38.5 -27.5l36 -39l57 39q48 33 95 33
q32 0 32 -23q0 -15 -17 -32l-82 -79q-34 -34 -78 -34h-44q-51 0 -70 38z" />
    <glyph glyph-name="tcaron" unicode="&#x165;" horiz-adv-x="415" 
d="M165 536l18 66q10 37 32.5 57t52.5 20q39 0 56.5 -27t4.5 -73l-12 -43h51q26 0 44.5 -18.5t18.5 -46.5t-18.5 -46.5t-44.5 -18.5h-86l-60 -225q-4 -16 -4 -24q0 -32 38 -32h12q24 0 39 -15t15 -42q0 -45 -39 -62q-35 -15 -89 -15q-68 0 -103.5 29t-35.5 76q0 27 10 67
l65 243q-22 3 -39 20t-17 45t18.5 46.5t44.5 18.5h28zM395 623l35 131q12 47 61 47h23q29 0 29 -23q0 -13 -12 -35l-72 -130q-15 -27 -40 -27q-26 0 -26 23q0 6 2 14z" />
    <glyph glyph-name="Umacron" unicode="&#x16a;" horiz-adv-x="764" 
d="M776 606l-87 -323q-36 -136 -108 -208q-86 -86 -238 -86q-122 0 -192 62.5t-70 173.5q0 46 17 112l78 292q10 36 33 56.5t53 20.5q39 0 56.5 -27t5.5 -73l-76 -283q-11 -44 -11 -76q0 -53 32 -84.5t90 -31.5q68 0 114 44q46 46 68 130l87 324q10 36 33 56.5t53 20.5
q39 0 56.5 -27t5.5 -73zM654 760h-266q-22 0 -37.5 15t-15.5 37t15.5 37.5t37.5 15.5h266q22 0 37.5 -15.5t15.5 -37.5t-15.5 -37t-37.5 -15z" />
    <glyph glyph-name="umacron" unicode="&#x16b;" horiz-adv-x="622" 
d="M413 -6q-32 0 -50 17.5t-18 44.5q-74 -66 -146 -66t-115 42t-43 114q0 34 18 102l58 217q10 37 32.5 57t52.5 20q39 0 56.5 -27t4.5 -73l-54 -200q-7 -26 -7 -48q0 -66 74 -66q44 0 73.5 28.5t42.5 78.5l62 230q10 37 32.5 57t52.5 20q39 0 56.5 -27t4.5 -73l-99 -371
q-10 -37 -33 -57t-55 -20zM543 600h-266q-22 0 -37.5 15t-15.5 37t15.5 37.5t37.5 15.5h266q22 0 37.5 -15.5t15.5 -37.5t-15.5 -37t-37.5 -15z" />
    <glyph glyph-name="Ubreve" unicode="&#x16c;" horiz-adv-x="764" 
d="M776 606l-87 -323q-36 -136 -108 -208q-86 -86 -238 -86q-122 0 -192 62.5t-70 173.5q0 46 17 112l78 292q10 36 33 56.5t53 20.5q39 0 56.5 -27t5.5 -73l-76 -283q-11 -44 -11 -76q0 -53 32 -84.5t90 -31.5q68 0 114 44q46 46 68 130l87 324q10 36 33 56.5t53 20.5
q39 0 56.5 -27t5.5 -73zM524 753q-71 0 -116.5 37.5t-45.5 81.5q0 20 15 33t37 13q34 0 48 -26q22 -40 73 -40q41 0 77 40q24 26 52 26q21 0 33 -11.5t12 -31.5q0 -19 -14 -36q-70 -86 -171 -86z" />
    <glyph glyph-name="ubreve" unicode="&#x16d;" horiz-adv-x="622" 
d="M413 -6q-32 0 -50 17.5t-18 44.5q-74 -66 -146 -66t-115 42t-43 114q0 34 18 102l58 217q10 37 32.5 57t52.5 20q39 0 56.5 -27t4.5 -73l-54 -200q-7 -26 -7 -48q0 -66 74 -66q44 0 73.5 28.5t42.5 78.5l62 230q10 37 32.5 57t52.5 20q39 0 56.5 -27t4.5 -73l-99 -371
q-10 -37 -33 -57t-55 -20zM413 593q-71 0 -116.5 37.5t-45.5 81.5q0 20 15 33t37 13q34 0 48 -26q22 -40 73 -40q41 0 77 40q24 26 52 26q21 0 33 -11.5t12 -31.5q0 -19 -14 -36q-70 -86 -171 -86z" />
    <glyph glyph-name="Uring" unicode="&#x16e;" horiz-adv-x="764" 
d="M776 606l-87 -323q-36 -136 -108 -208q-86 -86 -238 -86q-122 0 -192 62.5t-70 173.5q0 46 17 112l78 292q10 36 33 56.5t53 20.5q39 0 56.5 -27t5.5 -73l-76 -283q-11 -44 -11 -76q0 -53 32 -84.5t90 -31.5q68 0 114 44q46 46 68 130l87 324q10 36 33 56.5t53 20.5
q39 0 56.5 -27t5.5 -73zM523 748q-50 0 -80 29.5t-30 74.5q0 55 39 94.5t95 39.5q50 0 80 -29.5t30 -74.5q0 -55 -39 -94.5t-95 -39.5zM525 803q30 0 49 23.5t19 54.5q0 22 -13 36t-35 14q-30 0 -49 -23.5t-19 -54.5q0 -22 13 -36t35 -14z" />
    <glyph glyph-name="uring" unicode="&#x16f;" horiz-adv-x="622" 
d="M413 -6q-32 0 -50 17.5t-18 44.5q-74 -66 -146 -66t-115 42t-43 114q0 34 18 102l58 217q10 37 32.5 57t52.5 20q39 0 56.5 -27t4.5 -73l-54 -200q-7 -26 -7 -48q0 -66 74 -66q44 0 73.5 28.5t42.5 78.5l62 230q10 37 32.5 57t52.5 20q39 0 56.5 -27t4.5 -73l-99 -371
q-10 -37 -33 -57t-55 -20zM414 593q-50 0 -80 29.5t-30 74.5q0 55 39 94.5t95 39.5q50 0 80 -29.5t30 -74.5q0 -55 -39 -94.5t-95 -39.5zM416 648q30 0 49 23.5t19 54.5q0 22 -13 36t-35 14q-30 0 -49 -23.5t-19 -54.5q0 -22 13 -36t35 -14z" />
    <glyph glyph-name="Uhungarumlaut" unicode="&#x170;" horiz-adv-x="764" 
d="M776 606l-87 -323q-36 -136 -108 -208q-86 -86 -238 -86q-122 0 -192 62.5t-70 173.5q0 46 17 112l78 292q10 36 33 56.5t53 20.5q39 0 56.5 -27t5.5 -73l-76 -283q-11 -44 -11 -76q0 -53 32 -84.5t90 -31.5q68 0 114 44q46 46 68 130l87 324q10 36 33 56.5t53 20.5
q39 0 56.5 -27t5.5 -73zM508 922q28 0 49.5 -15t21.5 -34q0 -17 -22 -33l-78 -58q-44 -33 -81 -33q-36 0 -36 28q0 14 13 28l76 84q31 33 57 33zM704 922q28 0 49.5 -15t21.5 -34q0 -17 -22 -33l-78 -58q-44 -33 -81 -33q-36 0 -36 28q0 14 13 28l76 84q31 33 57 33z" />
    <glyph glyph-name="uhungarumlaut" unicode="&#x171;" horiz-adv-x="622" 
d="M413 -6q-32 0 -50 17.5t-18 44.5q-74 -66 -146 -66t-115 42t-43 114q0 34 18 102l58 217q10 37 32.5 57t52.5 20q39 0 56.5 -27t4.5 -73l-54 -200q-7 -26 -7 -48q0 -66 74 -66q44 0 73.5 28.5t42.5 78.5l62 230q10 37 32.5 57t52.5 20q39 0 56.5 -27t4.5 -73l-99 -371
q-10 -37 -33 -57t-55 -20zM593 762q28 0 49.5 -15t21.5 -34q0 -17 -22 -33l-78 -58q-44 -33 -81 -33q-36 0 -36 28q0 14 13 28l76 84q31 33 57 33zM397 762q28 0 49.5 -15t21.5 -34q0 -17 -22 -33l-78 -58q-44 -33 -81 -33q-36 0 -36 28q0 14 13 28l76 84q31 33 57 33z" />
    <glyph glyph-name="Uogonek" unicode="&#x172;" horiz-adv-x="764" 
d="M314 -168q-49 0 -77.5 17.5t-28.5 49.5q0 44 59 98q-88 17 -137 76.5t-49 151.5q0 46 17 112l78 292q10 36 33 56.5t53 20.5q39 0 56.5 -27t5.5 -73l-76 -283q-11 -44 -11 -76q0 -53 32 -84.5t90 -31.5q68 0 114 44q46 46 68 130l87 324q10 36 33 56.5t53 20.5
q39 0 56.5 -27t5.5 -73l-87 -323q-36 -136 -108 -208q-82 -82 -222 -86q-33 -36 -33 -58q0 -11 7 -16t23 -10q18 -6 25.5 -13.5t6.5 -21.5q-2 -38 -74 -38z" />
    <glyph glyph-name="uogonek" unicode="&#x173;" horiz-adv-x="622" 
d="M600 442l-99 -371q-9 -34 -36 -61q-54 -54 -54 -79q0 -11 7 -16t23 -10q18 -6 25.5 -13.5t6.5 -21.5q-2 -38 -74 -38q-49 0 -77.5 17.5t-28.5 49.5q0 50 74 110q-22 17 -22 47q-74 -66 -146 -66t-115 42t-43 114q0 34 18 102l58 217q10 37 32.5 57t52.5 20q39 0 56.5 -27
t4.5 -73l-54 -200q-7 -26 -7 -48q0 -66 74 -66q44 0 73.5 28.5t42.5 78.5l62 230q10 37 32.5 57t52.5 20q39 0 56.5 -27t4.5 -73z" />
    <glyph glyph-name="Wcircumflex" unicode="&#x174;" horiz-adv-x="1108" 
d="M1151 602l-345 -551q-38 -62 -103 -62h-7q-68 0 -71 68l-30 387l-240 -393q-38 -62 -100 -62h-7q-66 0 -72 68l-48 542q-2 22 -2 36q0 30 22.5 50.5t57.5 20.5q34 0 54.5 -17t21.5 -47l26 -416l250 421q36 61 89 61h9q65 0 70 -61l28 -421l256 429q31 51 82 51
q32 0 52 -17t20 -46q0 -19 -13 -41zM797 879l38 -74q13 -23 13 -32q0 -24 -34 -24q-31 0 -49.5 5.5t-38.5 27.5l-36 39l-57 -39q-48 -33 -95 -33q-32 0 -32 23q0 15 17 32l82 79q34 34 78 34h44q51 0 70 -38z" />
    <glyph glyph-name="wcircumflex" unicode="&#x175;" horiz-adv-x="857" 
d="M105 58l-22 377q-2 22 -2 36q0 29 24 50t54 21q33 0 54 -17t22 -47l7 -267l156 271q35 61 89 61h8q30 0 48.5 -16t19.5 -45l12 -272l164 287q26 45 71 45q29 0 45 -15t16 -42q0 -21 -12 -41l-235 -392q-37 -62 -99 -62h-5q-66 0 -69 68l-13 267l-160 -273
q-36 -62 -99 -62h-5q-66 0 -69 68zM635 719l38 -74q13 -23 13 -32q0 -24 -34 -24q-31 0 -49.5 5.5t-38.5 27.5l-36 39l-57 -39q-48 -33 -95 -33q-32 0 -32 23q0 15 17 32l82 79q34 34 78 34h44q51 0 70 -38z" />
    <glyph glyph-name="Ycircumflex" unicode="&#x176;" horiz-adv-x="650" 
d="M392 256l-50 -185q-10 -36 -33 -56.5t-53 -20.5q-39 0 -56.5 27t-5.5 73l47 176l-126 305q-15 36 -15 58q0 31 23.5 52t59.5 21q53 0 75 -60l89 -240l234 257q41 44 83 44q30 0 47 -17t17 -46q0 -33 -26 -61zM566 879l38 -74q13 -23 13 -32q0 -24 -34 -24
q-31 0 -49.5 5.5t-38.5 27.5l-36 39l-57 -39q-48 -33 -95 -33q-32 0 -32 23q0 15 17 32l82 79q34 34 78 34h44q51 0 70 -38z" />
    <glyph glyph-name="ycircumflex" unicode="&#x177;" horiz-adv-x="592" 
d="M62 -27q30 -8 45 -8q28 0 52 32l-64 438q-3 17 -3 36q0 30 22 50.5t54 20.5q31 0 52 -17.5t22 -47.5l31 -309l188 326q26 48 77 48q30 0 48 -16t18 -43q0 -20 -20 -52l-278 -444q-51 -82 -101 -116t-116 -34q-48 0 -72 11q-46 20 -46 66q0 27 18 46.5t42 19.5q5 0 31 -7z
M496 719l38 -74q13 -23 13 -32q0 -24 -34 -24q-31 0 -49.5 5.5t-38.5 27.5l-36 39l-57 -39q-48 -33 -95 -33q-32 0 -32 23q0 15 17 32l82 79q34 34 78 34h44q51 0 70 -38z" />
    <glyph glyph-name="Ydieresis" unicode="&#x178;" horiz-adv-x="650" 
d="M392 256l-50 -185q-10 -36 -33 -56.5t-53 -20.5q-39 0 -56.5 27t-5.5 73l47 176l-126 305q-15 36 -15 58q0 31 23.5 52t59.5 21q53 0 75 -60l89 -240l234 257q41 44 83 44q30 0 47 -17t17 -46q0 -33 -26 -61zM430 821q-7 -33 -32 -52.5t-59 -19.5q-35 0 -54 20.5
t-12 51.5l1 4q7 32 32 51.5t59 19.5q33 0 52.5 -21t13.5 -50zM644 821q-7 -33 -32 -52.5t-59 -19.5q-35 0 -54 20.5t-12 51.5l1 4q7 32 32 51.5t59 19.5q33 0 52.5 -21t13.5 -50z" />
    <glyph glyph-name="Zacute" unicode="&#x179;" horiz-adv-x="689" 
d="M35 138l469 427h-280q-28 0 -48 19.5t-20 47.5t20 48t48 20h445q31 0 49 -16t18 -44v-2q0 -36 -42 -76l-469 -427h296q28 0 48 -20t20 -48t-20 -47.5t-48 -19.5h-461q-31 0 -49 16t-18 44v2q0 36 42 76zM643 840l-78 -58q-44 -33 -89 -33q-42 0 -42 28q0 14 13 28l76 84
q31 33 57 33q29 0 57 -15t28 -34q0 -17 -22 -33z" />
    <glyph glyph-name="zacute" unicode="&#x17a;" horiz-adv-x="557" 
d="M165 536h334q32 0 50 -15t18 -41v-1q0 -36 -37 -68l-331 -288h200q25 0 43.5 -18.5t18.5 -43.5t-18 -43t-44 -18h-345q-32 0 -50 15t-18 41v1q0 36 37 68l330 288h-188q-26 0 -44 18t-18 43q0 26 18.5 44t43.5 18zM530 680l-78 -58q-44 -33 -89 -33q-42 0 -42 28
q0 14 13 28l76 84q31 33 57 33q29 0 57 -15t28 -34q0 -17 -22 -33z" />
    <glyph glyph-name="Zdotaccent" unicode="&#x17b;" horiz-adv-x="689" 
d="M35 138l469 427h-280q-28 0 -48 19.5t-20 47.5t20 48t48 20h445q31 0 49 -16t18 -44v-2q0 -36 -42 -76l-469 -427h296q28 0 48 -20t20 -48t-20 -47.5t-48 -19.5h-461q-31 0 -49 16t-18 44v2q0 36 42 76zM561 821q-7 -33 -33 -52.5t-60 -19.5q-35 0 -55 20.5t-13 51.5l1 4
q7 32 33 51.5t60 19.5q33 0 53.5 -21t14.5 -50z" />
    <glyph glyph-name="zdotaccent" unicode="&#x17c;" horiz-adv-x="557" 
d="M165 536h334q32 0 50 -15t18 -41v-1q0 -36 -37 -68l-331 -288h200q25 0 43.5 -18.5t18.5 -43.5t-18 -43t-44 -18h-345q-32 0 -50 15t-18 41v1q0 36 37 68l330 288h-188q-26 0 -44 18t-18 43q0 26 18.5 44t43.5 18zM449 661q-7 -33 -33 -52.5t-60 -19.5q-35 0 -55 20.5
t-13 51.5l1 4q7 32 33 51.5t60 19.5q33 0 53.5 -21t14.5 -50z" />
    <glyph glyph-name="Zcaron" unicode="&#x17d;" horiz-adv-x="689" 
d="M35 138l469 427h-280q-28 0 -48 19.5t-20 47.5t20 48t48 20h445q31 0 49 -16t18 -44v-2q0 -36 -42 -76l-469 -427h296q28 0 48 -20t20 -48t-20 -47.5t-48 -19.5h-461q-31 0 -49 16t-18 44v2q0 36 42 76zM379 788l-38 74q-13 23 -13 32q0 24 34 24q31 0 49.5 -5.5
t38.5 -27.5l36 -39l57 39q48 33 95 33q32 0 32 -23q0 -15 -17 -32l-82 -79q-34 -34 -78 -34h-44q-51 0 -70 38z" />
    <glyph glyph-name="zcaron" unicode="&#x17e;" horiz-adv-x="557" 
d="M165 536h334q32 0 50 -15t18 -41v-1q0 -36 -37 -68l-331 -288h200q25 0 43.5 -18.5t18.5 -43.5t-18 -43t-44 -18h-345q-32 0 -50 15t-18 41v1q0 36 37 68l330 288h-188q-26 0 -44 18t-18 43q0 26 18.5 44t43.5 18zM267 628l-38 74q-13 23 -13 32q0 24 34 24
q31 0 49.5 -5.5t38.5 -27.5l36 -39l57 39q48 33 95 33q32 0 32 -23q0 -15 -17 -32l-82 -79q-34 -34 -78 -34h-44q-51 0 -70 38z" />
    <glyph glyph-name="florin" unicode="&#x192;" horiz-adv-x="543" 
d="M61 -12q-34 0 -57.5 16.5t-23.5 48.5q0 30 20.5 45t47.5 16q49 1 77 64l74 166h-2q-23 0 -40.5 18t-17.5 44t18.5 44.5t44.5 18.5h53l38 86q33 75 90.5 115.5t127.5 40.5q31 0 51 -5q51 -12 51 -60q0 -31 -21 -48.5t-46 -15.5q-8 1 -30 1q-62 0 -94 -72l-19 -42h44
q26 0 44.5 -18.5t18.5 -44.5t-18.5 -44t-44.5 -18h-100l-94 -212q-64 -144 -192 -144z" />
    <glyph glyph-name="Aringacute" unicode="&#x1fa;" horiz-adv-x="765" 
d="M51 -6q-30 0 -46.5 16.5t-16.5 43.5t18 51l418 586q-27 27 -27 72q0 55 39 94.5t95 39.5q50 0 80 -29.5t30 -74.5q0 -72 -59 -111l102 -574q5 -35 5 -40q0 -31 -22.5 -52.5t-56.5 -21.5q-31 0 -51 17t-24 44l-16 102h-310l-80 -115q-34 -48 -78 -48zM303 293h194l-36 231
zM509 714q30 0 49 23.5t19 54.5q0 22 -13 36t-35 14q-30 0 -49 -23.5t-19 -54.5q0 -22 13 -36t35 -14zM734 1005l-78 -58q-44 -33 -89 -33q-42 0 -42 28q0 14 13 28l76 84q31 33 57 33q29 0 57 -15t28 -34q0 -16 -22 -33z" />
    <glyph glyph-name="aringacute" unicode="&#x1fb;" horiz-adv-x="588" 
d="M388 -6q-70 0 -65 68q-67 -72 -160 -72q-69 0 -112.5 40.5t-43.5 103.5q0 90 65 141.5t166 51.5q74 0 151 -24l2 7q6 24 6 40q0 63 -101 63q-48 0 -93 -12q-18 -4 -25 -4q-26 0 -43 17.5t-17 43.5q0 45 46 59q78 25 164 25q107 0 162 -42.5t55 -122.5q0 -35 -12 -81
l-60 -225q-10 -37 -32.5 -57t-52.5 -20zM394 593q-50 0 -80 29.5t-30 74.5q0 55 39 94.5t95 39.5q50 0 80 -29.5t30 -74.5q0 -55 -39 -94.5t-95 -39.5zM608 946l-78 -58q-44 -33 -89 -33q-42 0 -42 28q0 14 13 28l76 84q31 33 57 33q29 0 57 -15t28 -34q0 -17 -22 -33z
M228 94q46 0 84 31.5t51 76.5l4 14q-49 19 -100 19q-48 0 -78.5 -23t-30.5 -61q0 -25 19 -41t51 -16zM396 648q30 0 49 23.5t19 54.5q0 22 -13 36t-35 14q-30 0 -49 -23.5t-19 -54.5q0 -22 13 -36t35 -14z" />
    <glyph glyph-name="AEacute" unicode="&#x1fc;" horiz-adv-x="1058" 
d="M340 293h164l73 274h-19zM561 700h473q28 0 48.5 -20t20.5 -49q0 -28 -20 -48t-49 -20h-305l-38 -143h223q29 0 49 -20t20 -48t-20 -47.5t-49 -19.5h-260l-40 -148h274q28 0 48.5 -20.5t20.5 -48.5t-20 -48t-49 -20h-375q-39 0 -57 27t-5 73l16 57h-236l-95 -119
q-36 -44 -74 -44q-28 0 -43.5 15t-15.5 40q0 30 23 59l433 536q45 56 102 56zM905 840l-78 -58q-44 -33 -89 -33q-42 0 -42 28q0 14 13 28l76 84q31 33 57 33q29 0 57 -15t28 -34q0 -17 -22 -33z" />
    <glyph glyph-name="aeacute" unicode="&#x1fd;" horiz-adv-x="940" 
d="M911 337q0 -28 -6 -55q-15 -67 -73 -67h-315q8 -105 122 -105q45 0 83 21q26 14 46 14q24 0 40.5 -16.5t16.5 -41.5q0 -32 -29 -51q-73 -48 -174 -48q-144 0 -204 103q-98 -101 -240 -101q-81 0 -126 39t-45 105q0 90 65 141.5t166 51.5q74 0 151 -24l2 7q6 24 6 40
q0 63 -101 63q-48 0 -93 -12q-18 -4 -25 -4q-26 0 -43 17.5t-17 43.5q0 45 46 59q78 25 164 25q131 0 176 -79q83 83 193 83q98 0 156 -59t58 -150zM267 235q-48 0 -78.5 -23t-30.5 -61q0 -26 20.5 -41.5t59.5 -15.5q37 0 79.5 18t74.5 50q-4 21 -6 46q-61 27 -119 27z
M716 680l-78 -58q-44 -33 -89 -33q-42 0 -42 28q0 14 13 28l76 84q31 33 57 33q29 0 57 -15t28 -34q0 -17 -22 -33zM530 310h233q5 17 5 35q0 35 -22 57t-66 22q-51 0 -91 -31t-59 -83z" />
    <glyph glyph-name="Oslashacute" unicode="&#x1fe;" horiz-adv-x="832" 
d="M221 308q0 -44 13 -77l360 304q-48 42 -124 42q-105 0 -177 -86t-72 -183zM405 123q105 0 177 86t72 183q0 36 -10 65l-356 -300q45 -34 117 -34zM173 60l-59 -50q-25 -21 -47 -21q-21 0 -33 12t-12 31q0 23 31 50l58 50q-44 71 -44 166q0 105 52 199.5t150 154.5t219 60
q132 0 221 -79l68 57q25 21 47 21q21 0 33 -12t12 -31q0 -23 -31 -50l-69 -60q39 -70 39 -156q0 -105 -52 -199.5t-150 -154.5t-219 -60q-126 0 -214 72zM736 850l-78 -58q-44 -33 -89 -33q-42 0 -42 28q0 14 13 28l76 84q31 33 57 33q29 0 57 -15t28 -34q0 -17 -22 -33z
" />
    <glyph glyph-name="oslashacute" unicode="&#x1ff;" horiz-adv-x="652" 
d="M307 113q66 0 112.5 57.5t46.5 123.5q0 21 -5 44l-220 -211q28 -14 66 -14zM186 240q0 -20 3 -38l216 207q-24 12 -60 12q-66 0 -112.5 -58t-46.5 -123zM142 32l-23 -22q-23 -21 -47 -21q-20 0 -32.5 11.5t-12.5 29.5q0 23 24 45l27 25q-36 57 -36 136q0 122 91.5 216
t218.5 94q88 0 151 -41l22 21q23 21 47 21q20 0 32.5 -11.5t12.5 -29.5q0 -23 -24 -45l-23 -21q40 -62 40 -142q0 -122 -91.5 -216t-218.5 -94q-92 0 -158 44zM589 680l-78 -58q-44 -33 -89 -33q-42 0 -42 28q0 14 13 28l76 84q31 33 57 33q29 0 57 -15t28 -34
q0 -17 -22 -33z" />
    <glyph glyph-name="Scommaaccent" unicode="&#x218;" horiz-adv-x="636" 
d="M302 125q47 0 77 20t30 53q0 26 -24.5 45t-94.5 47q-81 33 -126.5 76t-45.5 113q0 104 81 167.5t197 63.5q123 0 213 -62q36 -26 36 -64q0 -32 -22 -53.5t-54 -21.5q-26 0 -42 13q-68 53 -143 53q-46 0 -74 -21.5t-28 -49.5q0 -27 24 -44t99 -48q82 -33 125 -75.5
t43 -113.5q0 -106 -81.5 -169.5t-196.5 -63.5q-166 0 -259 80q-30 25 -30 64q0 33 21.5 55.5t53.5 22.5q25 0 49 -19q45 -37 83 -52.5t89 -15.5zM199 -179q-56 12 -56 52q0 29 22.5 49t55.5 20q32 0 50.5 -18.5t18.5 -51.5q0 -61 -49 -110q-59 -59 -130 -59q-28 0 -28 22
q0 21 31 27q76 14 85 69z" />
    <glyph glyph-name="scommaaccent" unicode="&#x219;" 
d="M228 104q64 0 64 47q0 23 -62 50q-38 16 -60.5 28t-47.5 31t-36.5 43t-11.5 55q0 82 58.5 135t156.5 53q90 0 171 -48q35 -20 35 -56q0 -27 -18.5 -46t-44.5 -19q-17 0 -40 15q-58 38 -114 38q-28 0 -43.5 -12t-15.5 -33q0 -15 17 -27t54 -29q33 -15 53.5 -26t45 -29.5
t36.5 -42.5t12 -54q0 -87 -61.5 -138t-158.5 -51q-113 0 -206 67q-27 19 -27 52q0 26 18 45t43 19q22 0 40 -14q68 -53 143 -53zM128 -174q-56 12 -56 52q0 29 22.5 49t55.5 20q32 0 50.5 -18.5t18.5 -51.5q0 -61 -49 -110q-59 -59 -130 -59q-28 0 -28 22q0 21 31 27
q76 14 85 69z" />
    <glyph glyph-name="schwa" unicode="&#x259;" horiz-adv-x="607" 
d="M301 426q-45 0 -83 -21q-26 -14 -46 -14q-24 0 -40.5 16.5t-16.5 41.5q0 32 29 51q73 48 174 48q116 0 182 -63.5t66 -174.5q0 -79 -38.5 -151.5t-113 -120.5t-166.5 -48q-102 0 -160.5 58.5t-58.5 150.5q0 28 6 55q15 67 73 67h315q-8 105 -122 105zM410 226h-233
q-5 -17 -5 -35q0 -35 22 -57t66 -22q51 0 91 31t59 83z" />
    <glyph glyph-name="circumflex" unicode="&#x2c6;" 
d="M469 719l38 -74q13 -23 13 -32q0 -24 -34 -24q-31 0 -49.5 5.5t-38.5 27.5l-36 39l-57 -39q-48 -33 -95 -33q-32 0 -32 23q0 15 17 32l82 79q34 34 78 34h44q51 0 70 -38z" />
    <glyph glyph-name="caron" unicode="&#x2c7;" 
d="M245 628l-38 74q-13 23 -13 32q0 24 34 24q31 0 49.5 -5.5t38.5 -27.5l36 -39l57 39q48 33 95 33q32 0 32 -23q0 -15 -17 -32l-82 -79q-34 -34 -78 -34h-44q-51 0 -70 38z" />
    <glyph glyph-name="breve" unicode="&#x2d8;" 
d="M359 593q-71 0 -116.5 37.5t-45.5 81.5q0 20 15 33t37 13q34 0 48 -26q22 -40 73 -40q41 0 77 40q24 26 52 26q21 0 33 -11.5t12 -31.5q0 -19 -14 -36q-70 -86 -171 -86z" />
    <glyph glyph-name="dotaccent" unicode="&#x2d9;" 
d="M437 661q-7 -33 -33 -52.5t-60 -19.5q-35 0 -55 20.5t-13 51.5l1 4q7 32 33 51.5t60 19.5q33 0 53.5 -21t14.5 -50z" />
    <glyph glyph-name="ring" unicode="&#x2da;" 
d="M357 593q-50 0 -80 29.5t-30 74.5q0 55 39 94.5t95 39.5q50 0 80 -29.5t30 -74.5q0 -55 -39 -94.5t-95 -39.5zM359 648q30 0 49 23.5t19 54.5q0 22 -13 36t-35 14q-30 0 -49 -23.5t-19 -54.5q0 -22 13 -36t35 -14z" />
    <glyph glyph-name="ogonek" unicode="&#x2db;" 
d="M190 -168q-49 0 -77.5 17.5t-28.5 49.5q0 48 75 111h97q-54 -54 -54 -79q0 -11 7 -16t23 -10q18 -6 25.5 -13.5t6.5 -21.5q-2 -38 -74 -38z" />
    <glyph glyph-name="tilde" unicode="&#x2dc;" 
d="M191 592q-18 0 -30 11.5t-12 28.5q0 15 8 29q56 100 136 100q40 0 79 -29q36 -26 53 -26q28 0 54 32q20 23 45 23q18 0 30 -11.5t12 -28.5q0 -15 -8 -29q-56 -100 -136 -100q-38 0 -79 29q-36 26 -53 26q-28 0 -54 -32q-20 -23 -45 -23z" />
    <glyph glyph-name="hungarumlaut" unicode="&#x2dd;" 
d="M300 762q28 0 49.5 -15t21.5 -34q0 -17 -22 -33l-78 -58q-44 -33 -81 -33q-36 0 -36 28q0 14 13 28l76 84q31 33 57 33zM496 762q28 0 49.5 -15t21.5 -34q0 -17 -22 -33l-78 -58q-44 -33 -81 -33q-36 0 -36 28q0 14 13 28l76 84q31 33 57 33z" />
    <glyph glyph-name="commaaccent" unicode="&#x326;" 
d="M130 -174q-56 12 -56 52q0 29 22.5 49t55.5 20q32 0 50.5 -18.5t18.5 -51.5q0 -61 -49 -110q-59 -59 -130 -59q-28 0 -28 22q0 21 31 27q76 14 85 69z" />
    <glyph glyph-name="Wgrave" unicode="&#x1e80;" horiz-adv-x="1108" 
d="M1151 602l-345 -551q-38 -62 -103 -62h-7q-68 0 -71 68l-30 387l-240 -393q-38 -62 -100 -62h-7q-66 0 -72 68l-48 542q-2 22 -2 36q0 30 22.5 50.5t57.5 20.5q34 0 54.5 -17t21.5 -47l26 -416l250 421q36 61 89 61h9q65 0 70 -61l28 -421l256 429q31 51 82 51
q32 0 52 -17t20 -46q0 -19 -13 -41zM592 782l-46 58q-14 19 -14 32q0 18 27.5 34t56.5 16q40 0 53 -37l30 -82q4 -12 4 -21q0 -33 -48 -33q-22 0 -34.5 6.5t-28.5 26.5z" />
    <glyph glyph-name="wgrave" unicode="&#x1e81;" horiz-adv-x="857" 
d="M105 58l-22 377q-2 22 -2 36q0 29 24 50t54 21q33 0 54 -17t22 -47l7 -267l156 271q35 61 89 61h8q30 0 48.5 -16t19.5 -45l12 -272l164 287q26 45 71 45q29 0 45 -15t16 -42q0 -21 -12 -41l-235 -392q-37 -62 -99 -62h-5q-66 0 -69 68l-13 267l-160 -273
q-36 -62 -99 -62h-5q-66 0 -69 68zM429 622l-46 58q-14 19 -14 32q0 18 27.5 34t56.5 16q40 0 53 -37l30 -82q4 -12 4 -21q0 -33 -48 -33q-22 0 -34.5 6.5t-28.5 26.5z" />
    <glyph glyph-name="Wacute" unicode="&#x1e82;" horiz-adv-x="1108" 
d="M1151 602l-345 -551q-38 -62 -103 -62h-7q-68 0 -71 68l-30 387l-240 -393q-38 -62 -100 -62h-7q-66 0 -72 68l-48 542q-2 22 -2 36q0 30 22.5 50.5t57.5 20.5q34 0 54.5 -17t21.5 -47l26 -416l250 421q36 61 89 61h9q65 0 70 -61l28 -421l256 429q31 51 82 51
q32 0 52 -17t20 -46q0 -19 -13 -41zM852 840l-78 -58q-44 -33 -89 -33q-42 0 -42 28q0 14 13 28l76 84q31 33 57 33q29 0 57 -15t28 -34q0 -17 -22 -33z" />
    <glyph glyph-name="wacute" unicode="&#x1e83;" horiz-adv-x="857" 
d="M105 58l-22 377q-2 22 -2 36q0 29 24 50t54 21q33 0 54 -17t22 -47l7 -267l156 271q35 61 89 61h8q30 0 48.5 -16t19.5 -45l12 -272l164 287q26 45 71 45q29 0 45 -15t16 -42q0 -21 -12 -41l-235 -392q-37 -62 -99 -62h-5q-66 0 -69 68l-13 267l-160 -273
q-36 -62 -99 -62h-5q-66 0 -69 68zM689 680l-78 -58q-44 -33 -89 -33q-42 0 -42 28q0 14 13 28l76 84q31 33 57 33q29 0 57 -15t28 -34q0 -17 -22 -33z" />
    <glyph glyph-name="Wdieresis" unicode="&#x1e84;" horiz-adv-x="1108" 
d="M1151 602l-345 -551q-38 -62 -103 -62h-7q-68 0 -71 68l-30 387l-240 -393q-38 -62 -100 -62h-7q-66 0 -72 68l-48 542q-2 22 -2 36q0 30 22.5 50.5t57.5 20.5q34 0 54.5 -17t21.5 -47l26 -416l250 421q36 61 89 61h9q65 0 70 -61l28 -421l256 429q31 51 82 51
q32 0 52 -17t20 -46q0 -19 -13 -41zM661 821q-7 -33 -32 -52.5t-59 -19.5q-35 0 -54 20.5t-12 51.5l1 4q7 32 32 51.5t59 19.5q33 0 52.5 -21t13.5 -50zM875 821q-7 -33 -32 -52.5t-59 -19.5q-35 0 -54 20.5t-12 51.5l1 4q7 32 32 51.5t59 19.5q33 0 52.5 -21t13.5 -50z" />
    <glyph glyph-name="wdieresis" unicode="&#x1e85;" horiz-adv-x="857" 
d="M105 58l-22 377q-2 22 -2 36q0 29 24 50t54 21q33 0 54 -17t22 -47l7 -267l156 271q35 61 89 61h8q30 0 48.5 -16t19.5 -45l12 -272l164 287q26 45 71 45q29 0 45 -15t16 -42q0 -21 -12 -41l-235 -392q-37 -62 -99 -62h-5q-66 0 -69 68l-13 267l-160 -273
q-36 -62 -99 -62h-5q-66 0 -69 68zM499 661q-7 -33 -32 -52.5t-59 -19.5q-35 0 -54 20.5t-12 51.5l1 4q7 32 32 51.5t59 19.5q33 0 52.5 -21t13.5 -50zM713 661q-7 -33 -32 -52.5t-59 -19.5q-35 0 -54 20.5t-12 51.5l1 4q7 32 32 51.5t59 19.5q33 0 52.5 -21t13.5 -50z" />
    <glyph glyph-name="Ygrave" unicode="&#x1ef2;" horiz-adv-x="650" 
d="M392 256l-50 -185q-10 -36 -33 -56.5t-53 -20.5q-39 0 -56.5 27t-5.5 73l47 176l-126 305q-15 36 -15 58q0 31 23.5 52t59.5 21q53 0 75 -60l89 -240l234 257q41 44 83 44q30 0 47 -17t17 -46q0 -33 -26 -61zM361 782l-46 58q-14 19 -14 32q0 18 27.5 34t56.5 16
q40 0 53 -37l30 -82q4 -12 4 -21q0 -33 -48 -33q-22 0 -34.5 6.5t-28.5 26.5z" />
    <glyph glyph-name="ygrave" unicode="&#x1ef3;" horiz-adv-x="592" 
d="M62 -27q30 -8 45 -8q28 0 52 32l-64 438q-3 17 -3 36q0 30 22 50.5t54 20.5q31 0 52 -17.5t22 -47.5l31 -309l188 326q26 48 77 48q30 0 48 -16t18 -43q0 -20 -20 -52l-278 -444q-51 -82 -101 -116t-116 -34q-48 0 -72 11q-46 20 -46 66q0 27 18 46.5t42 19.5q5 0 31 -7z
M291 622l-46 58q-14 19 -14 32q0 18 27.5 34t56.5 16q40 0 53 -37l30 -82q4 -12 4 -21q0 -33 -48 -33q-22 0 -34.5 6.5t-28.5 26.5z" />
    <glyph glyph-name="enspace" unicode="&#x2002;" 
 />
    <glyph glyph-name="emspace" unicode="&#x2003;" horiz-adv-x="1000" 
 />
    <glyph glyph-name="threeperemspace" unicode="&#x2004;" horiz-adv-x="333" 
 />
    <glyph glyph-name="fourperemspace" unicode="&#x2005;" horiz-adv-x="250" 
 />
    <glyph glyph-name="thinspace" unicode="&#x2009;" horiz-adv-x="133" 
 />
    <glyph glyph-name="hairspace" unicode="&#x200a;" horiz-adv-x="75" 
 />
    <glyph glyph-name="endash" unicode="&#x2013;" horiz-adv-x="531" 
d="M131 239q-30 0 -51.5 20.5t-21.5 50.5t21.5 50.5t51.5 20.5h293q30 0 51.5 -20.5t21.5 -50.5t-21.5 -50.5t-51.5 -20.5h-293z" />
    <glyph glyph-name="emdash" unicode="&#x2014;" horiz-adv-x="901" 
d="M131 239q-30 0 -51.5 20.5t-21.5 50.5t21.5 50.5t51.5 20.5h663q30 0 51.5 -20.5t21.5 -50.5t-21.5 -50.5t-51.5 -20.5h-663z" />
    <glyph glyph-name="quoteleft" unicode="&#x2018;" horiz-adv-x="319" 
d="M337 638q-96 -20 -104 -94q60 -16 48 -80l-1 -5q-8 -36 -33 -58.5t-60 -22.5q-44 0 -63 29.5t-8 82.5l1 5q20 99 95 161q27 22 61.5 36t62.5 14q36 0 36 -33q0 -27 -35 -35z" />
    <glyph glyph-name="quoteright" unicode="&#x2019;" horiz-adv-x="319" 
d="M106 446q96 20 104 94q-60 16 -48 80l1 5q8 36 33 58.5t60 22.5q44 0 63 -29.5t8 -82.5l-1 -5q-20 -99 -95 -161q-27 -22 -61.5 -36t-62.5 -14q-36 0 -36 33q0 27 35 35z" />
    <glyph glyph-name="quotesinglbase" unicode="&#x201a;" horiz-adv-x="319" 
d="M-32 -94q96 20 104 94q-60 16 -48 80l1 5q8 36 33 58.5t60 22.5q44 0 63 -29.5t8 -82.5l-1 -5q-20 -99 -95 -161q-27 -22 -61.5 -36t-62.5 -14q-36 0 -36 33q0 27 35 35z" />
    <glyph glyph-name="quotedblleft" unicode="&#x201c;" horiz-adv-x="573" 
d="M443 377q-44 0 -63 29.5t-8 82.5l1 5q20 99 95 161q27 22 61.5 36t62.5 14q36 0 36 -33q0 -27 -35 -35q-96 -20 -104 -94q60 -16 48 -80l-1 -5q-8 -36 -33 -58.5t-60 -22.5zM189 377q-44 0 -63 29.5t-8 82.5l1 5q20 99 95 161q27 22 61.5 36t62.5 14q36 0 36 -33
q0 -27 -35 -35q-96 -20 -104 -94q60 -16 48 -80l-1 -5q-8 -36 -33 -58.5t-60 -22.5z" />
    <glyph glyph-name="quotedblright" unicode="&#x201d;" horiz-adv-x="573" 
d="M106 446q96 20 104 94q-60 16 -48 80l1 5q8 36 33 58.5t60 22.5q44 0 63 -29.5t8 -82.5l-1 -5q-20 -99 -95 -161q-27 -22 -61.5 -36t-62.5 -14q-36 0 -36 33q0 27 35 35zM360 446q96 20 104 94q-60 16 -48 80l1 5q8 36 33 58.5t60 22.5q44 0 63 -29.5t8 -82.5l-1 -5
q-20 -99 -95 -161q-27 -22 -61.5 -36t-62.5 -14q-36 0 -36 33q0 27 35 35z" />
    <glyph glyph-name="quotedblbase" unicode="&#x201e;" horiz-adv-x="573" 
d="M-32 -94q96 20 104 94q-60 16 -48 80l1 5q8 36 33 58.5t60 22.5q44 0 63 -29.5t8 -82.5l-1 -5q-20 -99 -95 -161q-27 -22 -61.5 -36t-62.5 -14q-36 0 -36 33q0 27 35 35zM222 -94q96 20 104 94q-60 16 -48 80l1 5q8 36 33 58.5t60 22.5q44 0 63 -29.5t8 -82.5l-1 -5
q-20 -99 -95 -161q-27 -22 -61.5 -36t-62.5 -14q-36 0 -36 33q0 27 35 35z" />
    <glyph glyph-name="dagger" unicode="&#x2020;" horiz-adv-x="412" 
d="M348 647l-28 -76l75 6q18 1 30 -10t12 -28q0 -18 -12.5 -29t-30.5 -10l-92 8l-54 -235q-10 -41 -45 -41q-21 0 -30.5 14t-2.5 38l68 224l-74 -6q-19 -1 -31 10t-12 29q0 17 12 28t30 10l91 -8l15 90q7 45 47 45q24 0 33 -15.5t-1 -43.5z" />
    <glyph glyph-name="daggerdbl" unicode="&#x2021;" horiz-adv-x="412" 
d="M270 350l-52 -158l73 6q19 1 31 -10t12 -29q0 -17 -12 -28t-30 -10l-90 8l-16 -90q-8 -45 -47 -45q-24 0 -33 15.5t1 43.5l29 76l-76 -6q-18 -1 -30 10t-12 28q0 18 12.5 29t30.5 10l91 -8l34 158l51 158l-73 -6q-19 -1 -31 10t-12 29q0 17 12 28t30 10l91 -8l15 90
q7 45 47 45q24 0 33 -15.5t-1 -43.5l-28 -76l75 6q18 1 30 -10t12 -28q0 -18 -12.5 -29t-30.5 -10l-91 8z" />
    <glyph glyph-name="bullet" unicode="&#x2022;" 
d="M246 200q-54 0 -85 31.5t-31 84.5q0 72 48 131t120 59q54 0 85 -31.5t31 -84.5q0 -72 -48 -131t-120 -59z" />
    <glyph glyph-name="ellipsis" unicode="&#x2026;" horiz-adv-x="872" 
d="M195 75q-6 -36 -33.5 -58.5t-65.5 -22.5q-39 0 -60 23t-15 58l1 6q7 37 34 59t65 22q39 0 60 -23t15 -58zM474 75q-6 -36 -33.5 -58.5t-65.5 -22.5q-39 0 -60 23t-15 58l1 6q7 37 34 59t65 22q39 0 60 -23t15 -58zM753 75q-6 -36 -33.5 -58.5t-65.5 -22.5q-39 0 -60 23
t-15 58l1 6q7 37 34 59t65 22q39 0 60 -23t15 -58z" />
    <glyph glyph-name="perthousand" unicode="&#x2030;" horiz-adv-x="1288" 
d="M238 346q-69 0 -111.5 42.5t-42.5 111.5q0 81 55 144.5t139 63.5q69 0 111.5 -42.5t42.5 -111.5q0 -81 -55 -144.5t-139 -63.5zM645 -8q-69 0 -111.5 42.5t-42.5 111.5q0 81 55 144.5t139 63.5q69 0 111.5 -42.5t42.5 -111.5q0 -81 -55 -144.5t-139 -63.5zM244 433
q39 0 64.5 37t25.5 80q0 33 -16.5 52t-45.5 19q-39 0 -64.5 -37t-25.5 -80q0 -33 16.5 -52t45.5 -19zM651 79q39 0 64.5 37t25.5 80q0 33 -16.5 52t-45.5 19q-39 0 -64.5 -37t-25.5 -80q0 -33 16.5 -52t45.5 -19zM1053 -8q-69 0 -111.5 42.5t-42.5 111.5q0 81 55 144.5
t139 63.5q69 0 111.5 -42.5t42.5 -111.5q0 -81 -55 -144.5t-139 -63.5zM1059 79q39 0 64.5 37t25.5 80q0 33 -16.5 52t-45.5 19q-39 0 -64.5 -37t-25.5 -80q0 -33 16.5 -52t45.5 -19zM790 624l-587 -611q-19 -19 -41 -19q-20 0 -33 12.5t-13 31.5q0 21 17 38l587 611
q19 19 41 19q20 0 33 -12.5t13 -31.5q0 -21 -17 -38z" />
    <glyph glyph-name="guilsinglleft" unicode="&#x2039;" horiz-adv-x="373" 
d="M73 288l169 167q32 30 58 30t41.5 -15t15.5 -40q0 -28 -21 -47l-146 -138l60 -114q10 -20 10 -39q0 -26 -18.5 -43.5t-45.5 -17.5q-40 0 -59 37l-68 135q-16 32 -16 44q0 23 20 41z" />
    <glyph glyph-name="guilsinglright" unicode="&#x203a;" horiz-adv-x="373" 
d="M297 238l-169 -167q-32 -30 -58 -30t-41.5 15t-15.5 40q0 28 21 47l146 138l-60 114q-10 20 -10 39q0 26 18.5 43.5t45.5 17.5q40 0 59 -37l68 -135q16 -32 16 -44q0 -23 -20 -41z" />
    <glyph glyph-name="fraction" unicode="&#x2044;" horiz-adv-x="520" 
d="M612 660l-589 -725q-31 -39 -61 -39q-20 0 -33.5 12.5t-13.5 36.5t26 55l589 725q31 39 61 39q20 0 33.5 -12.5t13.5 -36.5t-26 -55z" />
    <glyph glyph-name="Euro" unicode="&#x20ac;" horiz-adv-x="720" 
d="M341 487h135q21 0 36 -15t15 -36t-15 -35.5t-36 -14.5h-173q-10 -27 -17 -68h145q21 0 36 -15t15 -36t-15 -35.5t-36 -14.5h-146q9 -44 40 -67t74 -23q66 0 117 47q21 19 48 19q31 0 52 -19t21 -48q0 -32 -29 -57q-94 -81 -212 -81q-113 0 -185.5 61.5t-86.5 167.5h-42
q-21 0 -36 14.5t-15 35.5t15 36t36 15h44q5 38 13 68h-12q-21 0 -36 14.5t-15 35.5t15 36t36 15h42q45 102 130 163.5t197 61.5q152 0 223 -102q21 -31 21 -55q0 -32 -22 -52.5t-56 -20.5q-38 0 -58 29q-15 21 -25 32t-34 20.5t-57 9.5q-94 0 -147 -86z" />
    <glyph glyph-name="published" unicode="&#x2117;" horiz-adv-x="830" 
d="M435 -12q-151 0 -256 105.5t-105 254.5v2q0 149 106 255.5t257 106.5t256 -105.5t105 -254.5v-2q0 -149 -106 -255.5t-257 -106.5zM435 28q136 0 228.5 94t92.5 228v2q0 134 -91.5 227t-227.5 93t-228.5 -94t-92.5 -228v-2q0 -134 91.5 -227t227.5 -93zM303 201v305
q0 18 12.5 30.5t30.5 12.5h115q68 0 108 -36.5t40 -96.5v-2q0 -64 -44 -99t-112 -35h-64v-79q0 -18 -12.5 -30.5t-30.5 -12.5t-30.5 12.5t-12.5 30.5zM389 355h66q31 0 49 16.5t18 41.5v2q0 27 -18.5 42.5t-50.5 15.5h-64v-118z" />
    <glyph glyph-name="servicemark" unicode="&#x2120;" horiz-adv-x="703" 
d="M716 704h6q17 0 24 -12t2 -33l-64 -237q-9 -34 -37 -34q-17 0 -24.5 12t-1.5 32l38 143l-78 -83q-16 -18 -36 -18q-21 0 -30 21l-31 81l-42 -154q-9 -34 -37 -34q-18 0 -25 11.5t-1 32.5l64 237q8 35 37 35h6q20 0 31 -26l49 -128l110 132q19 22 40 22zM104 481
q12 0 24 -10q36 -30 79 -30q23 0 37.5 10t14.5 27q0 13 -11 22t-45 22q-43 17 -61 35.5t-18 47.5q0 45 35 73t89 28q58 0 94 -28q16 -13 16 -28q0 -13 -8.5 -21.5t-21.5 -8.5q-12 0 -22 8q-30 23 -65 23q-23 0 -37 -10t-14 -25q0 -13 11.5 -22.5t47.5 -23.5
q40 -16 57.5 -33.5t17.5 -47.5q0 -47 -35.5 -75t-88.5 -28q-66 0 -114 38q-13 11 -13 26q0 13 9 22t22 9z" />
    <glyph glyph-name="trademark" unicode="&#x2122;" horiz-adv-x="700" 
d="M274 638l-58 -218q-9 -34 -40 -34q-17 0 -25 12t-3 32l56 208h-57q-14 0 -23 8.5t-9 21.5q0 14 9.5 23t22.5 9h201q14 0 23 -9t9 -23q0 -13 -9 -21.5t-23 -8.5h-74zM713 704h6q17 0 24 -12t2 -33l-64 -237q-9 -34 -37 -34q-17 0 -24.5 12t-1.5 32l38 143l-78 -83
q-16 -18 -36 -18q-21 0 -30 21l-31 81l-42 -154q-9 -34 -37 -34q-18 0 -25 11.5t-1 32.5l64 237q8 35 37 35h6q20 0 31 -26l49 -128l110 132q19 22 40 22z" />
    <glyph glyph-name="minus" unicode="&#x2212;" horiz-adv-x="640" 
d="M528 281h-375q-29 0 -49.5 20.5t-20.5 49.5t20.5 50t49.5 21h375q29 0 50 -21t21 -50t-21 -49.5t-50 -20.5z" />
    <glyph glyph-name="Q.alt" horiz-adv-x="832" 
d="M556 313l45 -72q47 72 47 151q0 80 -47 129t-131 49q-105 0 -174 -82.5t-69 -179.5q0 -80 47 -129t131 -49q45 0 88 18l-43 58q-26 37 -26 62q0 31 22 53.5t53 22.5q38 0 57 -31zM592 0l-20 30q-84 -42 -185 -42q-143 0 -231.5 88t-88.5 222q0 105 52 199.5t150 154.5
t219 60q143 0 231.5 -88t88.5 -222q0 -166 -119 -288l13 -16q24 -28 24 -59t-21 -51.5t-52 -20.5q-41 0 -61 33z" />
    <glyph glyph-name="aring.alt" horiz-adv-x="588" 
d="M388 -6q-70 0 -65 68q-67 -72 -160 -72q-69 0 -112.5 40.5t-43.5 103.5q0 90 65 141.5t166 51.5q74 0 151 -24l2 7q6 24 6 40q0 63 -101 63q-48 0 -93 -12q-18 -4 -25 -4q-26 0 -43 17.5t-17 43.5q0 45 46 59q49 16 109 22q-13 22 -13 50q0 55 39 94.5t95 39.5
q50 0 80 -29.5t30 -74.5q0 -61 -49 -100q90 -39 90 -142q0 -35 -12 -81l-60 -225q-10 -37 -32.5 -57t-52.5 -20zM228 94q46 0 84 31.5t51 76.5l4 14q-49 19 -100 19q-48 0 -78.5 -23t-30.5 -61q0 -25 19 -41t51 -16zM372 540q30 0 49 23.5t19 54.5q0 22 -13 36t-35 14
q-30 0 -49 -23.5t-19 -54.5q0 -22 13 -36t35 -14z" />
    <glyph glyph-name="aringacute.alt" horiz-adv-x="588" 
d="M388 -6q-70 0 -65 68q-67 -72 -160 -72q-69 0 -112.5 40.5t-43.5 103.5q0 90 65 141.5t166 51.5q74 0 151 -24l2 7q6 24 6 40q0 63 -101 63q-48 0 -93 -12q-18 -4 -25 -4q-26 0 -43 17.5t-17 43.5q0 45 46 59q49 16 109 22q-13 22 -13 50q0 55 39 94.5t95 39.5
q50 0 80 -29.5t30 -74.5q0 -61 -49 -100q90 -39 90 -142q0 -35 -12 -81l-60 -225q-10 -37 -32.5 -57t-52.5 -20zM584 838l-78 -58q-44 -33 -89 -33q-42 0 -42 28q0 14 13 28l76 84q31 33 57 33q29 0 57 -15t28 -34q0 -17 -22 -33zM228 94q46 0 84 31.5t51 76.5l4 14
q-49 19 -100 19q-48 0 -78.5 -23t-30.5 -61q0 -25 19 -41t51 -16zM372 540q30 0 49 23.5t19 54.5q0 22 -13 36t-35 14q-30 0 -49 -23.5t-19 -54.5q0 -22 13 -36t35 -14z" />
    <glyph glyph-name="three.alt" horiz-adv-x="621" 
d="M129 178q58 -52 138 -52q59 0 93 27.5t34 63.5q0 73 -109 73h-1q-30 0 -49 18t-19 45q0 26 19 45t45 19h40q56 0 94 23.5t38 65.5q0 30 -26 49t-66 19q-61 0 -116 -41q-26 -18 -50 -18q-29 0 -48 18t-19 45q0 31 23 49q55 46 100.5 63.5t127.5 21.5q106 4 169 -50
t63 -132q0 -65 -39.5 -111t-116.5 -68q40 -16 67.5 -52.5t27.5 -85.5q0 -97 -81 -161t-212 -64q-142 0 -225 80q-27 27 -27 58q0 30 21 51.5t51 21.5t53 -21z" />
    <glyph glyph-name="registered.alt" horiz-adv-x="830" 
d="M435 -12q-151 0 -256 105.5t-105 254.5v2q0 149 106 255.5t257 106.5t256 -105.5t105 -254.5v-2q0 -149 -106 -255.5t-257 -106.5zM435 28q136 0 228.5 94t92.5 228v2q0 134 -91.5 227t-227.5 93t-228.5 -94t-92.5 -228v-2q0 -134 91.5 -227t227.5 -93zM287 204v307
q0 17 12.5 29.5t29.5 12.5h129q77 0 119 -42q32 -32 32 -84v-2q0 -85 -78 -117l63 -76q11 -14 11 -29q0 -17 -12 -29t-27 -12q-21 0 -36 19l-89 111h-69v-88q0 -17 -13 -29.5t-30 -12.5t-29.5 12.5t-12.5 29.5zM372 365h85q31 0 48.5 15t17.5 40v2q0 56 -68 56h-83v-113z
" />
    <glyph glyph-name="hfjslug" horiz-adv-x="694" 
d="M644 -200h-208l-8 14h-163l-8 -14h-207v303q14 0 23 9.5t9 22.5t-9.5 22.5t-22.5 9.5v554h100l30 79h334l29 -79h101v-921zM400 563v-172h15v78h38v14h-38v66h43v14h-58zM184 563v-172h15v79h47v-79h15v172h-15v-79h-47v79h-15zM460 394q10 -4 21 -4q31 0 31 36v137h-16
v-137q0 -22 -16 -22q-8 0 -20 5v-15zM371 465l-13 3q-4 -18 -8 -30h-1l-16 31q23 21 23 42q0 31 -27 31q-12 0 -20 -9t-8 -22t14 -39q-23 -18 -23 -47q0 -16 8 -26.5t21 -10.5q19 0 29 24h1l12 -24l12 6l-17 32q6 14 13 39zM523 323v-46h8v12l8 8l15 -20h10l-20 26l18 20
h-10l-20 -24h-1v24h-8zM488 292l10 -15h9l-12 17q10 4 10 14q0 15 -17 15h-20v-46h8v15h12zM426 276q10 0 17 7t7 17q0 9 -7 16.5t-17 7.5t-17 -7.5t-7 -16.5q0 -10 7 -17t17 -7zM370 301l-13 22h-9l18 -29v-17h8v17l18 29h-9zM193 323v-46h34v7h-26v13h23v7h-23v12h26v7
h-34zM132 323v-46h8v32l25 -32h7v46h-8v-32l-25 32h-7zM241 323l14 -47h8l11 34h1l11 -34h8l14 47h-8l-10 -35h-1l-11 35h-7l-11 -35h-1l-10 35h-8zM327 479q-12 22 -12 32q0 19 14 19q13 0 13 -19q0 -15 -15 -32zM342 423q-8 -21 -20 -21q-16 0 -16 25q0 19 16 35zM487 299
h-11v17h11q10 0 10 -8q0 -9 -10 -9zM426 283q-16 0 -16 17q0 6 4.5 11.5t11.5 5.5t11.5 -5.5t4.5 -11.5q0 -17 -16 -17z" />
    <glyph glyph-name="caron.alt" 
d="M281 553l35 131q12 47 61 47h23q29 0 29 -23q0 -13 -12 -35l-72 -130q-15 -27 -40 -27q-26 0 -26 23q0 6 2 14z" />
    <glyph glyph-name="NUL" horiz-adv-x="0" 
 />
    </font>
</defs>
</svg>
