<?xml version="1.0" standalone="no"?>
<!DOCTYPE svg PUBLIC "-//W3C//DTD SVG 1.1//EN" "http://www.w3.org/Graphics/SVG/1.1/DTD/svg11.dtd" >
<svg xmlns="http://www.w3.org/2000/svg" xmlns:xlink="http://www.w3.org/1999/xlink" version="1.1">
<metadata>
Created by FontForge 20150824 at Sun Mar  6 11:03:04 2016
 By Everything Fonts
(c) 2000, 2004 Adobe Systems Incorporated. All Rights Reserved. U.S. Patent D454,582.
</metadata>
<defs>
<font id="MyriadProBlackItalic" horiz-adv-x="400" >
  <font-face 
    font-family="MyriadProBlackItalic"
    font-weight="900"
    font-style="italic"
    font-stretch="normal"
    units-per-em="1000"
    panose-1="2 11 8 3 3 4 3 9 2 4"
    ascent="750"
    descent="-250"
    x-height="492"
    cap-height="674"
    bbox="-208 -250 1284 1002"
    underline-thickness="50"
    underline-position="-150"
    slope="-11"
    unicode-range="U+0020-FB04"
  />
<missing-glyph horiz-adv-x="500" 
d="M0 0v700h500v-700h-500zM250 395l170 255h-340zM280 350l170 -255v510zM80 50h340l-170 255zM50 605v-510l170 255z" />
    <glyph glyph-name="f_f_j" unicode="ffj" horiz-adv-x="904" 
d="M872 691l-44 -131q-53 22 -112 22q-101 0 -113 -72l-3 -18h293l-87 -469q-23 -124 -72 -177q-48 -55 -142 -55q-43 0 -75 8l18 129q11 -2 30 -2q25 0 42.5 19.5t27.5 75.5l64 342h-122l-68 -363h-171l68 363h-143l-68 -363h-170l68 363h-63l24 129h63l4 16q22 91 70 139
q58 60 160 60q53 0 88 -20l-54 -124q-14 8 -34 8q-22 0 -36 -14q-18 -17 -26 -53l-3 -12h145l4 16q21 102 98 157t193 55q90 0 146 -29z" />
    <glyph glyph-name="f_j" unicode="fj" horiz-adv-x="592" 
d="M560 691l-44 -131q-53 22 -112 22q-101 0 -113 -72l-3 -18h293l-87 -469q-23 -124 -72 -177q-48 -55 -142 -55q-43 0 -75 8l18 129q11 -2 30 -2q25 0 42.5 19.5t27.5 75.5l64 342h-122l-68 -363h-170l68 363h-63l25 129h62l4 16q21 102 98 157t193 55q90 0 146 -29z" />
    <glyph glyph-name="f_f" unicode="ff" horiz-adv-x="662" 
d="M750 709l-28 -135q-21 8 -45 8q-28 0 -47 -19t-25 -47l-5 -24h91l-24 -129h-90l-68 -363h-171l69 363h-144l-67 -363h-171l68 363h-62l24 129h63l3 14q22 94 71 143q58 58 156 58q45 0 78 -13l-45 -128q-15 5 -30 5q-48 0 -61 -64l-4 -15h145l5 25q19 104 84 156
q57 48 150 48q51 0 80 -12z" />
    <glyph glyph-name="f_i" unicode="fi" horiz-adv-x="592" 
d="M197 0h-170l68 363h-63l25 129h62l4 16q18 102 96 157t195 55q90 0 146 -29l-44 -131q-53 22 -112 22q-101 0 -113 -72l-3 -18h293l-93 -492h-170l68 363h-121z" />
    <glyph glyph-name="f_l" unicode="fl" horiz-adv-x="592" 
d="M197 0h-171l68 363h-62l24 129h63l3 21q19 98 100 156q72 52 197 52q49 0 105 -12t91 -33l-127 -676h-170l109 579q-18 10 -51 10q-34 0 -57 -23.5t-28 -58.5l-3 -15h77l-24 -129h-76z" />
    <glyph glyph-name="f_f_i" unicode="ffi" horiz-adv-x="904" 
d="M872 691l-44 -131q-53 22 -112 22q-101 0 -113 -72l-3 -18h293l-93 -492h-170l68 363h-121l-68 -363h-171l68 363h-143l-68 -363h-170l68 363h-63l24 129h63l4 16q22 91 70 139q58 60 160 60q51 0 89 -20l-55 -124q-14 8 -34 8q-22 0 -36 -14q-18 -17 -26 -53l-3 -12h145
l4 16q21 102 98 157t193 55q90 0 146 -29z" />
    <glyph glyph-name="f_f_l" unicode="ffl" horiz-adv-x="904" 
d="M437 689l-50 -126q-18 8 -36 8q-23 0 -38 -15q-17 -17 -24 -52l-3 -12h145l3 21q19 98 100 156q72 52 197 52q49 0 105 -12t91 -33l-127 -676h-170l109 579q-18 10 -51 10q-34 0 -57 -23.5t-28 -58.5l-3 -15h77l-24 -129h-76l-68 -363h-171l68 363h-143l-68 -363h-170
l68 363h-63l24 129h63l2 11q20 95 71 145q59 59 157 59q49 0 90 -18z" />
    <glyph glyph-name=".notdef" horiz-adv-x="500" 
d="M0 0v700h500v-700h-500zM250 395l170 255h-340zM280 350l170 -255v510zM80 50h340l-170 255zM50 605v-510l170 255z" />
    <glyph glyph-name=".null" horiz-adv-x="0" 
 />
    <glyph glyph-name="nonmarkingreturn" horiz-adv-x="333" 
 />
    <glyph glyph-name="space" unicode=" " horiz-adv-x="185" 
 />
    <glyph glyph-name="exclam" unicode="!" horiz-adv-x="284" 
d="M202 233h-130l58 441h182zM102 -11h-1q-41 0 -66 26t-25 66q0 47 31.5 81t79.5 34q41 0 67.5 -26.5t26.5 -68.5q0 -49 -32 -80.5t-81 -31.5z" />
    <glyph glyph-name="quotedbl" unicode="&#x22;" horiz-adv-x="423" 
d="M112 692h155l-80 -292h-106zM322 692h155l-79 -292h-107z" />
    <glyph glyph-name="numbersign" unicode="#" horiz-adv-x="562" 
d="M234 275h85l33 103h-86zM146 0h-102l54 172h-81l17 103h99l33 103h-84l17 103h99l54 169h100l-54 -169h86l54 169h101l-54 -169h80l-16 -103h-96l-33 -103h82l-17 -103h-99l-53 -172h-102l54 172h-86z" />
    <glyph glyph-name="dollar" unicode="$" horiz-adv-x="562" 
d="M266 -89h-109l18 93q-47 3 -93.5 20t-73.5 37l54 129q71 -53 169 -53q41 0 65.5 14t24.5 38q0 22 -19 39.5t-65 37.5q-69 34 -110.5 75t-41.5 101q0 79 58 133.5t155 65.5l17 86h109l-16 -85q85 -3 138 -39l-53 -125q-64 38 -145 38q-36 0 -56.5 -14.5t-20.5 -33.5
q0 -18 22.5 -35.5t77.5 -43.5q138 -66 138 -176q0 -90 -64.5 -143.5t-159.5 -64.5z" />
    <glyph glyph-name="percent" unicode="%" horiz-adv-x="911" 
d="M283 661h1q70 0 112 -42t42 -112q0 -106 -64 -176.5t-156 -70.5q-70 0 -114.5 41.5t-44.5 115.5q0 102 63 173t161 71zM268 565h-1q-36 0 -58 -52t-22 -99q0 -27 11.5 -43t31.5 -16q37 0 58.5 55t21.5 101q0 54 -42 54zM275 -11h-97l479 671h95zM721 391h1
q70 0 111.5 -42t41.5 -112q0 -106 -63.5 -176.5t-156.5 -70.5q-70 0 -114 42t-44 116q0 101 63 172t161 71zM705 296h-1q-24 0 -43.5 -28.5t-27.5 -62t-8 -60.5t11.5 -43t31.5 -16q37 0 58 54.5t21 100.5q0 55 -42 55z" />
    <glyph glyph-name="ampersand" unicode="&#x26;" horiz-adv-x="700" 
d="M643 0h-201q-9 9 -32 39q-77 -50 -177 -50q-99 0 -159 48.5t-60 134.5q0 129 160 204l1 2q-37 60 -37 110q0 85 63 141t163 56q81 0 133.5 -42.5t52.5 -114.5q0 -105 -165 -182v-3q18 -28 77 -104q52 59 89 158h155q-58 -168 -167 -265q44 -62 104 -132zM282 116h1
q30 0 60 20q-66 83 -110 149q-46 -36 -46 -83q0 -37 24.5 -61.5t70.5 -24.5zM349 577h-1q-24 0 -40.5 -21t-16.5 -51q0 -40 28 -73q33 14 56.5 39t23.5 56q0 22 -13 36t-37 14z" />
    <glyph glyph-name="quotesingle" unicode="'" horiz-adv-x="212" 
d="M112 692h155l-80 -292h-106z" />
    <glyph glyph-name="parenleft" unicode="(" horiz-adv-x="328" 
d="M252 690h123q-81 -105 -131.5 -244.5t-50.5 -287.5q0 -159 34 -273h-119q-51 123 -51 264q0 166 52 304.5t143 236.5z" />
    <glyph glyph-name="parenright" unicode=")" horiz-adv-x="328" 
d="M91 -115h-125q82 105 132.5 245t50.5 289q0 157 -34 271h120q50 -119 50 -263q0 -166 -52 -305t-142 -237z" />
    <glyph glyph-name="asterisk" unicode="*" horiz-adv-x="469" 
d="M352 685l95 -57l-128 -128l1 -3l170 39l-22 -118l-156 32l-1 -2l100 -125l-108 -58l-37 160l-2 -1l-71 -160l-94 61l128 125l-1 1l-167 -33l22 118l150 -39v3l-96 129l109 56l35 -159h3z" />
    <glyph glyph-name="plus" unicode="+" horiz-adv-x="596" 
d="M240 532h113v-211h201v-108h-201v-213h-113v213h-202v108h202v211z" />
    <glyph glyph-name="comma" unicode="," horiz-adv-x="281" 
d="M57 -108l-122 -10q83 169 121 304l181 10q-78 -170 -180 -304z" />
    <glyph glyph-name="hyphen" unicode="-" horiz-adv-x="328" 
d="M43 318h268l-23 -117h-268z" />
    <glyph glyph-name="period" unicode="." horiz-adv-x="281" 
d="M109 -10h-1q-41 0 -66.5 26.5t-25.5 67.5q0 48 32 82.5t81 34.5q41 0 67.5 -27t26.5 -70q0 -50 -32 -82t-82 -32z" />
    <glyph glyph-name="slash" unicode="/" horiz-adv-x="326" 
d="M83 -40h-117l325 725h117z" />
    <glyph glyph-name="zero" unicode="0" horiz-adv-x="562" 
d="M352 661q102 0 150 -65t48 -166q0 -78 -19 -153.5t-55.5 -141t-98.5 -106t-139 -40.5q-101 0 -150.5 66t-49.5 173q0 77 19.5 152t57 139t99 103t138.5 39zM332 526q-31 0 -57 -37.5t-40 -90t-21.5 -99.5t-7.5 -76q0 -99 52 -99q31 0 56.5 38t39.5 91t21 100.5t7 76.5
q0 96 -50 96z" />
    <glyph glyph-name="one" unicode="1" horiz-adv-x="562" 
d="M184 0l92 492h-2l-135 -56l-2 133l195 81h138l-122 -650h-164z" />
    <glyph glyph-name="two" unicode="2" horiz-adv-x="562" 
d="M463 0h-468l21 109l159 120q97 77 141.5 126t44.5 94q0 33 -23 51.5t-61 18.5q-78 0 -140 -35l-32 122q95 55 214 55q101 0 159 -50.5t58 -134.5q0 -47 -15.5 -87.5t-46.5 -76t-59.5 -60.5t-72.5 -57l-69 -48v-2h217z" />
    <glyph glyph-name="three" unicode="3" horiz-adv-x="562" 
d="M5 35l50 133q75 -36 151 -36q52 0 83 18.5t31 52.5q0 74 -130 74h-23l25 129h19q57 0 97 17.5t40 50.5q0 20 -18.5 32.5t-56.5 12.5q-81 0 -139 -30l-20 128q81 44 194 44q91 0 155.5 -39t64.5 -119q0 -57 -40 -99t-105 -57l-1 -2q51 -11 83 -48t32 -93
q0 -68 -44.5 -118.5t-110 -73.5t-139.5 -23q-65 0 -119.5 13t-78.5 33z" />
    <glyph glyph-name="four" unicode="4" horiz-adv-x="562" 
d="M417 0h-160l29 149h-276l21 114l294 387h214l-70 -372h71l-24 -129h-71zM197 278h113l24 108q3 13 15.5 62.5t18.5 74.5h-4q-46 -72 -91 -137l-75 -106z" />
    <glyph glyph-name="five" unicode="5" horiz-adv-x="562" 
d="M553 650l-29 -145h-233l-21 -73q10 1 26 1q86 0 144 -43q68 -50 68 -145q0 -120 -89.5 -188t-225.5 -68q-61 0 -110 11.5t-71 28.5l43 135q54 -32 138 -32q53 0 95.5 21t42.5 63q0 89 -163 89q-16 0 -83 -5l95 350h373z" />
    <glyph glyph-name="six" unicode="6" horiz-adv-x="562" 
d="M531 658l-26 -137q-22 1 -52 0q-83 -5 -138 -38t-78 -79l1 -1q51 36 123 36q71 0 120 -51t49 -133q0 -111 -76 -188.5t-193 -77.5q-111 0 -170.5 66t-59.5 169q0 106 44 196t116 146q115 89 287 94q32 1 53 -2zM266 119h1q42 0 64.5 37t22.5 80q0 35 -19.5 56.5
t-50.5 21.5q-47 0 -75 -48q-10 -17 -10 -33q-2 -12 -2 -28q0 -36 19 -61t50 -25z" />
    <glyph glyph-name="seven" unicode="7" horiz-adv-x="562" 
d="M115 650h463l-21 -112q-232 -358 -349 -538h-189q308 450 344 503v2h-276z" />
    <glyph glyph-name="eight" unicode="8" horiz-adv-x="562" 
d="M341 661h1q88 0 146 -42t58 -120q0 -97 -112 -149l-1 -2q41 -24 64 -61.5t23 -78.5q0 -70 -42.5 -121.5t-104 -74.5t-131.5 -23q-106 1 -166.5 48t-60.5 122q0 63 37.5 109t96.5 70l1 2q-63 48 -63 120q0 92 75 146.5t179 54.5zM263 112h1q30 0 53.5 21.5t23.5 57.5
q0 59 -71 85q-32 -9 -54 -34.5t-22 -60.5q0 -31 18.5 -50t50.5 -19zM323 539h-1q-29 0 -50 -21t-21 -48q0 -49 67 -71q26 9 45.5 31t19.5 50q0 27 -17 43t-43 16z" />
    <glyph glyph-name="nine" unicode="9" horiz-adv-x="562" 
d="M44 -8l21 139q11 -2 61 -2q69 3 124 30q69 38 99 97l-2 2q-37 -36 -111 -36q-79 0 -130 48t-51 131q0 108 80 184t195 76q110 0 168 -64.5t57 -171.5q0 -108 -46 -199t-118 -148q-52 -42 -123.5 -64.5t-146.5 -24.5q-50 0 -77 3zM316 531h-1q-34 0 -60 -34.5t-26 -74.5
q0 -35 19 -55.5t48 -20.5q44 0 68 30q9 11 15 31q5 15 5 46q0 34 -18 56t-50 22z" />
    <glyph glyph-name="colon" unicode=":" horiz-adv-x="281" 
d="M168 299h-1q-41 0 -66 26t-25 67q0 47 31.5 81t79.5 34q41 0 67.5 -26.5t26.5 -68.5q0 -50 -32 -81.5t-81 -31.5zM109 -11h-1q-40 0 -65.5 26t-25.5 67q0 47 32 81t80 34q41 0 67 -26.5t26 -68.5q0 -50 -32 -81.5t-81 -31.5z" />
    <glyph glyph-name="semicolon" unicode=";" horiz-adv-x="281" 
d="M56 -108l-121 -10q85 174 122 304l179 10q-78 -170 -180 -304zM172 299h-1q-41 0 -66 26t-25 67q0 47 31.5 81t79.5 34q41 0 67.5 -26.5t26.5 -68.5q0 -50 -32 -81.5t-81 -31.5z" />
    <glyph glyph-name="less" unicode="&#x3c;" horiz-adv-x="596" 
d="M40 216v100l488 216v-122l-352 -143v-2l352 -143v-122z" />
    <glyph glyph-name="equal" unicode="=" horiz-adv-x="596" 
d="M552 319h-516v108h516v-108zM552 108h-516v107h516v-107z" />
    <glyph glyph-name="greater" unicode="&#x3e;" horiz-adv-x="596" 
d="M557 320v-108l-488 -212v122l362 143v2l-362 144v121z" />
    <glyph glyph-name="question" unicode="?" horiz-adv-x="460" 
d="M296 231h-165q2 18 3 26q13 78 87 158q10 12 34 35t34 36.5t10 25.5q0 35 -52 38q-68 0 -112 -28l-21 118q74 46 183 46q76 0 126.5 -37t50.5 -103q0 -36 -16.5 -70.5t-33 -53.5t-50.5 -53l-9 -9q-49 -48 -63 -106q-1 -4 -3 -11.5t-3 -11.5zM179 -11h-1q-40 0 -65 26
t-25 66q0 47 31.5 81t79.5 34q41 0 67.5 -26.5t26.5 -68.5q0 -49 -32 -80.5t-82 -31.5z" />
    <glyph glyph-name="at" unicode="@" horiz-adv-x="762" 
d="M427 248l12 87q-10 3 -23 3q-41 0 -70 -37t-29 -88q0 -56 42 -56q22 0 42.5 25.5t25.5 65.5zM524 -6l18 -64q-81 -34 -185 -34q-130 0 -223 87t-93 229q0 157 106 268.5t272 111.5q133 0 220 -81.5t87 -207.5q0 -108 -54.5 -173.5t-140.5 -65.5q-78 0 -90 73h-3
q-45 -73 -123 -73q-52 0 -83 35.5t-31 97.5q0 96 63.5 163t169.5 67q81 0 124 -25l-28 -187q-12 -75 23 -76q34 -2 62.5 40.5t28.5 121.5q0 97 -62 160t-174 63q-117 0 -199.5 -83t-82.5 -218q0 -123 70 -191t185 -68q80 0 143 30z" />
    <glyph glyph-name="A" unicode="A" horiz-adv-x="640" 
d="M398 159h-177l-67 -159h-183l320 674h223l72 -674h-180zM269 287h123l-7 124q-1 15 -4 63.5t-5 72.5h-2q-6 -14 -24.5 -64.5t-28.5 -71.5z" />
    <glyph glyph-name="B" unicode="B" horiz-adv-x="609" 
d="M15 9l123 653q87 17 191 17q109 0 172 -31q40 -17 65.5 -51.5t25.5 -79.5q0 -60 -36.5 -99.5t-94.5 -57.5v-2q49 -16 76.5 -54.5t27.5 -91.5q0 -100 -97 -162q-85 -55 -270 -55q-115 0 -183 14zM285 543l-25 -129h42q54 0 85 19.5t31 54.5q0 29 -22.5 44t-59.5 15
q-31 0 -51 -4zM234 290l-30 -160q14 -2 50 -2q56 0 93 22.5t37 65.5q0 42 -30.5 58t-84.5 16h-35z" />
    <glyph glyph-name="C" unicode="C" horiz-adv-x="596" 
d="M525 155l12 -138q-65 -28 -179 -28q-138 0 -223 78t-85 211q0 118 48.5 205.5t132.5 138.5q103 63 244 63q97 0 149 -27l-45 -138q-54 19 -118 19q-81 0 -137 -42q-89 -69 -89 -200q0 -76 45 -119t123 -43q73 0 122 20z" />
    <glyph glyph-name="D" unicode="D" horiz-adv-x="696" 
d="M16 10l124 653q89 16 195 16q157 0 245 -66q100 -77 100 -223q0 -97 -38 -177t-102 -129q-115 -89 -331 -89q-121 0 -193 15zM289 539l-77 -403q33 -3 52 -3q50 0 95.5 19.5t74.5 54.5q60 72 60 183q0 75 -41 114t-116 39q-26 0 -48 -4z" />
    <glyph glyph-name="E" unicode="E" horiz-adv-x="538" 
d="M501 416l-28 -144h-237l-24 -127h266l-27 -145h-437l127 674h423l-28 -145h-251l-22 -113h238z" />
    <glyph glyph-name="F" unicode="F" horiz-adv-x="530" 
d="M14 0l127 674h419l-29 -145h-246l-25 -129h233l-28 -143h-232l-49 -257h-170z" />
    <glyph glyph-name="G" unicode="G" horiz-adv-x="695" 
d="M667 398l-70 -366q-123 -39 -230 -39q-141 0 -227 70q-92 74 -92 212q0 193 140 309q120 97 307 97q126 0 186 -30l-49 -143q-65 27 -144 27q-93 0 -155 -42q-97 -70 -97 -206q0 -76 42.5 -112.5t112.5 -36.5q40 0 61 8l23 116h-91l27 136h256z" />
    <glyph glyph-name="H" unicode="H" horiz-adv-x="683" 
d="M142 674h170l-48 -253h216l48 253h172l-128 -674h-171l51 268h-217l-50 -268h-171z" />
    <glyph glyph-name="I" unicode="I" horiz-adv-x="292" 
d="M137 674h171l-128 -674h-170z" />
    <glyph glyph-name="J" unicode="J" horiz-adv-x="414" 
d="M188 259l78 415h171l-84 -436q-25 -133 -88.5 -191t-186.5 -58q-78 0 -115 16l32 145q39 -11 78 -11q47 0 74.5 26.5t40.5 93.5z" />
    <glyph glyph-name="K" unicode="K" horiz-adv-x="623" 
d="M14 0l127 674h168l-55 -290h3q8 12 58 78l165 212h213l-269 -291l150 -383h-186l-98 277l-67 -65l-41 -212h-168z" />
    <glyph glyph-name="L" unicode="L" horiz-adv-x="507" 
d="M14 0l127 674h171l-99 -525h253l-28 -149h-424z" />
    <glyph glyph-name="M" unicode="M" horiz-adv-x="839" 
d="M742 0h-166l38 241q22 143 49 279h-3q-60 -144 -121 -271l-110 -235h-134l-13 234q-6 113 -11 272h-2q-10 -44 -30 -141t-29 -138l-56 -241h-156l167 674h231l7 -200q10 -217 10 -234h4q36 104 97 236l89 198h232z" />
    <glyph glyph-name="N" unicode="N" horiz-adv-x="681" 
d="M172 0h-158l127 674h203l61 -203q37 -127 62 -249h3q5 110 32 255l37 197h159l-128 -674h-178l-68 220q-49 165 -67 253h-4q-10 -94 -46 -287z" />
    <glyph glyph-name="O" unicode="O" horiz-adv-x="721" 
d="M425 685q130 0 205 -77.5t75 -205.5q0 -94 -31.5 -177t-88.5 -138q-101 -98 -256 -98q-129 0 -205.5 79.5t-76.5 204.5q0 93 32.5 176t90.5 138q103 98 255 98zM405 543q-56 0 -99 -43q-35 -35 -56 -99t-21 -124q0 -68 32 -107t93 -39q51 0 94 41q34 35 54.5 101
t20.5 124q0 66 -28 106t-90 40z" />
    <glyph glyph-name="P" unicode="P" horiz-adv-x="581" 
d="M14 0l124 660q73 19 189 19q118 0 185 -42q83 -50 83 -152q0 -125 -96 -196q-83 -62 -220 -62q-7 0 -55 4l-44 -231h-166zM283 540l-33 -171q24 -4 51 -4q54 0 88.5 30.5t34.5 73.5q0 75 -89 75q-32 0 -52 -4z" />
    <glyph glyph-name="Q" unicode="Q" horiz-adv-x="721" 
d="M650 1l-58 -134q-128 41 -260 106q-33 17 -48 19q-103 8 -170 84t-67 200q0 87 30 166.5t85 135.5q104 107 263 107q131 0 205 -80.5t74 -202.5q0 -87 -29.5 -169t-81.5 -134q-38 -38 -85 -61l-1 -2q57 -18 143 -35zM406 543q-59 0 -100 -43q-35 -35 -56 -101t-21 -125
q0 -68 32 -105.5t93 -37.5q54 0 93 41q33 34 54 101.5t22 128.5q0 60 -28 100.5t-89 40.5z" />
    <glyph glyph-name="R" unicode="R" horiz-adv-x="610" 
d="M14 0l127 660q73 19 194 19q120 0 185 -35q85 -46 85 -140q0 -135 -149 -189l-1 -3q49 -25 60 -118q3 -22 7.5 -70.5t9 -80t10.5 -43.5h-175q-10 33 -20 158q-5 55 -24.5 75.5t-60.5 20.5h-31l-48 -254h-169zM286 541l-30 -161h53q51 0 85 27t34 71q0 33 -26 50t-66 17
q-28 0 -50 -4z" />
    <glyph glyph-name="S" unicode="S" horiz-adv-x="529" 
d="M-5 38l56 141q73 -43 166 -43q38 0 64 15t26 43q0 23 -20 40t-68 42q-63 34 -102.5 76t-39.5 105q0 104 80.5 166t201.5 62q103 0 169 -33l-53 -142q-61 30 -129 28q-43 0 -66 -15t-23 -38q0 -20 19.5 -35.5t62.5 -39.5l4.5 -3t4.5 -2.5l5 -2.5q136 -71 136 -177
q0 -59 -24 -105.5t-64.5 -74.5t-91.5 -42t-108 -14q-136 3 -206 49z" />
    <glyph glyph-name="T" unicode="T" horiz-adv-x="550" 
d="M139 0l98 525h-169l29 149h512l-28 -149h-173l-99 -525h-170z" />
    <glyph glyph-name="U" unicode="U" horiz-adv-x="670" 
d="M138 674h170l-72 -382q-8 -35 -8 -78q1 -34 23 -58.5t64 -24.5q52 0 84 37.5t48 121.5l72 384h171l-71 -374q-30 -160 -104.5 -235.5t-220.5 -75.5q-114 -2 -175 55.5t-61 166.5q0 42 10 95z" />
    <glyph glyph-name="V" unicode="V" horiz-adv-x="643" 
d="M363 0h-200l-84 674h176l22 -272q4 -41 18 -231h2q32 87 97 227l123 276h191z" />
    <glyph glyph-name="W" unicode="W" horiz-adv-x="879" 
d="M303 0h-190l-23 674h172l-5 -254q-5 -181 -7 -238h2q16 44 46 128t38 108l92 256h189l-9 -263q-5 -131 -10 -224h2q39 122 78 233l88 254h180l-290 -674h-188l1 230q2 142 8 237h-2q-69 -202 -88 -249z" />
    <glyph glyph-name="X" unicode="X" horiz-adv-x="590" 
d="M539 0h-182l-37 122q-4 16 -33 115h-2q-12 -21 -31.5 -59.5t-32.5 -62.5l-62 -115h-205l248 345l-115 329h180l31 -110q22 -84 30 -116h3q13 24 32.5 62t29.5 57l57 107h203l-240 -331z" />
    <glyph glyph-name="Y" unicode="Y" horiz-adv-x="593" 
d="M317 0h-171l52 272l-133 402h183l33 -151q23 -113 25 -126h2q12 23 35 66t32 60l83 151h204l-293 -397z" />
    <glyph glyph-name="Z" unicode="Z" horiz-adv-x="567" 
d="M-28 0l18 97l362 427v3h-253l28 147h483l-20 -105l-353 -418v-4h278l-27 -147h-516z" />
    <glyph glyph-name="bracketleft" unicode="[" horiz-adv-x="328" 
d="M203 -112h-212l153 798h211l-18 -95h-86l-116 -608h86z" />
    <glyph glyph-name="backslash" unicode="\" horiz-adv-x="341" 
d="M315 -40h-114l-152 725h114z" />
    <glyph glyph-name="bracketright" unicode="]" horiz-adv-x="328" 
d="M134 686h212l-152 -798h-212l18 95h86l116 608h-86z" />
    <glyph glyph-name="asciicircum" unicode="^" horiz-adv-x="596" 
d="M549 172h-125l-138 343h-3l-137 -343h-124l211 478h105z" />
    <glyph glyph-name="underscore" unicode="_" horiz-adv-x="500" 
d="M-57 -75h501l-10 -50h-501z" />
    <glyph glyph-name="grave" unicode="`" 
d="M109 706h159l78 -156h-122z" />
    <glyph glyph-name="a" unicode="a" horiz-adv-x="568" 
d="M483 0h-156q1 14 2 42.5t2 42.5h-2q-55 -96 -155 -96q-67 0 -109.5 48t-42.5 127q0 64 20.5 122.5t62 108t112.5 79t162 29.5q90 0 175 -27l-52 -258q-22 -117 -19 -218zM343 273l20 99q-17 3 -31 3q-56 0 -94 -59t-38 -120q0 -70 49 -70q28 0 53.5 34t40.5 113z" />
    <glyph glyph-name="b" unicode="b" horiz-adv-x="576" 
d="M141 710h171l-55 -264h2q57 57 143 57q71 0 109.5 -49.5t38.5 -120.5q0 -63 -20.5 -122.5t-59.5 -110t-104.5 -81t-148.5 -30.5q-94 0 -140 37.5t-45 104.5q0 41 12 96zM221 250l-7 -35q-7 -36 -5 -52q2 -46 45 -46q46 0 81.5 58.5t35.5 119.5q0 70 -52 70
q-33 0 -60.5 -31t-37.5 -84z" />
    <glyph glyph-name="c" unicode="c" horiz-adv-x="440" 
d="M381 143l-2 -129q-50 -25 -138 -25q-94 0 -154 54t-60 154q0 133 92.5 219.5t236.5 86.5q56 0 98 -15l-40 -129q-24 9 -59 9q-68 0 -109 -44.5t-41 -108.5q0 -44 25.5 -67t60.5 -23q45 0 90 18z" />
    <glyph glyph-name="d" unicode="d" horiz-adv-x="575" 
d="M436 710h170l-96 -504q-21 -110 -24 -206h-156l4 72h-2q-55 -83 -154 -83q-63 0 -108.5 49t-45.5 139q0 133 86.5 229.5t224.5 96.5q33 0 59 -10zM348 244l23 115q-17 15 -48 15q-52 0 -86.5 -52.5t-34.5 -115.5q0 -41 16.5 -60.5t40.5 -19.5q27 0 51.5 28.5t37.5 89.5z
" />
    <glyph glyph-name="e" unicode="e" horiz-adv-x="523" 
d="M433 151l9 -123q-80 -39 -193 -39q-108 0 -165.5 55t-57.5 158q0 120 80.5 210.5t213.5 90.5q79 0 130.5 -42t51.5 -115q0 -176 -315 -167q4 -20 18 -33q30 -25 88 -25q75 0 140 30zM343 347v1q0 13 -12 22.5t-32 9.5q-42 0 -66.5 -24.5t-29.5 -53.5q76 -1 108 10t32 35z
" />
    <glyph glyph-name="f" unicode="f" horiz-adv-x="349" 
d="M195 0h-170l68 363h-62l24 129h63l4 25q19 102 84 156q57 48 150 48q50 0 81 -12l-28 -135q-21 8 -46 8q-28 0 -47.5 -19t-24.5 -47l-5 -24h92l-25 -129h-90z" />
    <glyph glyph-name="g" unicode="g" horiz-adv-x="573" 
d="M13 -179l37 129q19 -11 58.5 -17.5t70.5 -6.5q110 0 133 111l5 28h-2q-52 -59 -127 -59q-72 0 -116.5 50.5t-44.5 126.5q0 61 21.5 117.5t62 102t106 73t146.5 27.5q108 0 192 -34l-73 -405q-30 -158 -106 -217q-72 -56 -198 -56q-111 0 -165 30zM348 250l23 118
q-13 6 -40 6q-52 0 -88.5 -51.5t-36.5 -114.5q0 -34 15 -53t40 -19q29 0 53 29t34 85z" />
    <glyph glyph-name="h" unicode="h" horiz-adv-x="575" 
d="M177 0h-171l134 710h171l-52 -271h2q67 64 148 64q62 0 93.5 -36t31.5 -98q0 -42 -10 -90l-52 -279h-171l50 263q6 30 6 58q0 46 -38 46q-34 0 -61 -40t-40 -111z" />
    <glyph glyph-name="i" unicode="i" horiz-adv-x="281" 
d="M177 0h-171l93 492h171zM202 542h-1q-34 0 -56.5 21.5t-22.5 57.5q0 41 28 66.5t67 25.5q37 0 59.5 -21.5t22.5 -57.5q0 -43 -28 -67.5t-69 -24.5z" />
    <glyph glyph-name="j" unicode="j" horiz-adv-x="297" 
d="M118 492h170l-87 -469q-23 -124 -72 -177q-48 -55 -143 -55q-42 0 -75 8l19 129q11 -2 30 -2q25 0 42.5 19.5t27.5 75.5zM215 542h-1q-34 0 -56 21.5t-22 57.5q0 41 28 66.5t67 25.5q36 0 59 -21.5t23 -57.5q0 -43 -28.5 -67.5t-69.5 -24.5z" />
    <glyph glyph-name="k" unicode="k" horiz-adv-x="562" 
d="M176 0h-170l134 710h170l-79 -416h2q5 7 20 27.5t23 30.5l106 140h210l-207 -203l133 -289h-191l-73 197l-51 -51z" />
    <glyph glyph-name="l" unicode="l" horiz-adv-x="281" 
d="M177 0h-170l136 710h170z" />
    <glyph glyph-name="m" unicode="m" horiz-adv-x="842" 
d="M171 0h-165l60 325q13 73 26 167h146l-7 -75h1q62 86 166 86q54 0 83.5 -27t33.5 -59q63 86 165 86q61 0 90.5 -35.5t29.5 -97.5q0 -37 -8 -85l-53 -285h-165l48 263q7 33 7 57q0 21 -10 34t-28 13q-32 0 -58 -42.5t-40 -114.5l-39 -210h-164l49 263q6 38 6 54
q0 50 -35 50q-32 0 -60 -43.5t-41 -113.5z" />
    <glyph glyph-name="n" unicode="n" horiz-adv-x="576" 
d="M177 0h-171l61 325q9 45 28 167h150l-7 -75h2q65 86 167 86q65 0 96 -36t31 -98q0 -38 -8 -84l-54 -285h-171l50 267q5 28 5 52q0 48 -37 48q-32 0 -60 -41t-43 -116z" />
    <glyph glyph-name="o" unicode="o" horiz-adv-x="575" 
d="M330 503q98 0 156.5 -57t58.5 -145q0 -141 -85.5 -226.5t-216.5 -85.5q-96 0 -156 55t-60 149q0 132 84.5 221t218.5 89zM307 374q-34 0 -58.5 -33t-34.5 -72t-10 -73q0 -37 16.5 -57.5t46.5 -20.5q33 0 57 31.5t34.5 71.5t10.5 78q0 75 -62 75z" />
    <glyph glyph-name="p" unicode="p" horiz-adv-x="578" 
d="M139 -198h-170l94 493q16 96 29 202h152l-7 -68h2q57 74 149 74q77 0 119.5 -53.5t42.5 -136.5q0 -133 -79 -228.5t-205 -95.5q-56 0 -85 20h-2zM220 232l-15 -93q22 -22 54 -22q46 0 79 58.5t33 124.5q0 27 -13 46t-38 19q-36 0 -62.5 -36.5t-37.5 -96.5z" />
    <glyph glyph-name="q" unicode="q" horiz-adv-x="576" 
d="M435 -198h-171l60 262h-2q-52 -75 -144 -75q-67 0 -110.5 51t-43.5 138q0 60 20.5 116t60.5 104t108 76.5t155 28.5q76 0 192 -28zM349 249l23 117q-17 8 -46 8q-55 0 -90 -56t-35 -118q0 -36 14.5 -55t37.5 -19q31 0 58 31.5t38 91.5z" />
    <glyph glyph-name="r" unicode="r" horiz-adv-x="392" 
d="M177 0h-171l54 283q6 35 11 76t9 81.5t5 51.5h147q-4 -63 -7 -98h3q61 109 159 109q19 0 29 -1l-34 -165h-22q-69 0 -103 -45t-49 -124z" />
    <glyph glyph-name="s" unicode="s" horiz-adv-x="436" 
d="M-9 30l40 118q78 -36 138 -35q48 0 48 29q0 14 -13 25.5t-45 25.5q-110 53 -110 133q0 81 64.5 129t167.5 48q88 0 136 -26l-39 -118q-51 21 -104 21t-53 -30q0 -21 56 -46q24 -11 41.5 -22t36.5 -27.5t29.5 -38.5t10.5 -48q0 -86 -66.5 -133t-175.5 -46q-110 3 -162 41z
" />
    <glyph glyph-name="t" unicode="t" horiz-adv-x="364" 
d="M134 585l175 47l-26 -140h100l-25 -129h-100l-28 -136q-7 -37 -7 -55q0 -39 40 -39q26 0 40 2l-22 -134q-32 -12 -94 -12q-68 0 -103.5 30t-35.5 81q0 35 10 91l34 172h-60l25 129h60z" />
    <glyph glyph-name="u" unicode="u" horiz-adv-x="575" 
d="M392 492h171l-61 -324q-6 -29 -11 -59.5t-10 -62t-8 -46.5h-150l8 75h-2q-71 -86 -168 -86q-124 0 -124 136q0 44 10 94l51 273h171l-49 -259q-7 -35 -7 -62q0 -44 37 -44q33 0 60.5 39t40.5 108z" />
    <glyph glyph-name="v" unicode="v" horiz-adv-x="537" 
d="M43 492h176l14 -188q2 -35 6.5 -80t5.5 -60h4q6 19 55 142l78 186h191l-274 -492h-174z" />
    <glyph glyph-name="w" unicode="w" horiz-adv-x="745" 
d="M47 492h173l-6 -180q-2 -85 -7 -167h2q11 36 62 163l76 184h137l4 -176q2 -112 -1 -171h2q11 37 58 176l62 171h172l-237 -492h-161l-6 130q-3 54 -3 169h-2q-57 -157 -59 -160l-59 -139h-161z" />
    <glyph glyph-name="x" unicode="x" horiz-adv-x="524" 
d="M43 492h187l21 -59q9 -24 31 -85h3q10 14 26.5 40.5t25.5 40.5l39 63h195l-207 -239l113 -253h-187l-23 65q-19 50 -30 90h-3q-41 -73 -49 -86l-42 -69h-196l212 255z" />
    <glyph glyph-name="y" unicode="y" horiz-adv-x="522" 
d="M41 492h180l22 -193q2 -17 5.5 -42t5.5 -41t3 -29h2q28 83 39 113l74 192h179l-171 -344q-101 -203 -198 -291q-39 -36 -85.5 -57.5t-77.5 -26.5l-38 147q44 11 81 35q49 31 73 73q6 9 3 25z" />
    <glyph glyph-name="z" unicode="z" horiz-adv-x="465" 
d="M-27 0l18 102l126 132q53 54 128 118l2 2h-193l27 138h397l-20 -107l-122 -127q-62 -65 -127 -118v-2h212l-27 -138h-421z" />
    <glyph glyph-name="braceleft" unicode="{" horiz-adv-x="328" 
d="M31 243l16 89q32 1 51.5 13t25 23.5t9.5 28.5q5 24 10.5 76.5t9.5 76.5q26 136 177 136h44l-19 -96h-18q-51 -1 -66 -66q0 -1 -16 -116q-9 -57 -34.5 -83t-74.5 -36v-2q71 -16 71 -77q0 -30 -19 -96q-20 -68 -20 -90q0 -40 44 -40h17l-17 -96h-35q-67 0 -102 24.5
t-35 82.5q0 30 22 109q22 72 22 92q0 45 -63 47z" />
    <glyph glyph-name="bar" unicode="|" horiz-adv-x="250" 
d="M84 750h113v-1000h-113v1000z" />
    <glyph glyph-name="braceright" unicode="}" horiz-adv-x="328" 
d="M310 331l-16 -88q-75 -4 -86 -66q-5 -23 -10.5 -76t-9.5 -77q-27 -136 -178 -136h-43l19 96h18q51 1 66 66q4 17 8 55.5t8 60.5q9 58 34.5 84.5t74.5 35.5v2q-71 14 -71 76q0 20 20 96q18 70 18 90q0 40 -43 40h-18l18 96h35q67 0 102 -24.5t35 -82.5q0 -42 -22 -108
q-22 -72 -22 -93q0 -44 63 -47z" />
    <glyph glyph-name="asciitilde" unicode="~" horiz-adv-x="596" 
d="M151 184h-110q0 202 148 202q36 0 65.5 -11.5t73.5 -37.5q64 -38 83 -38q30 0 34 80h111q8 -204 -141 -204q-62 0 -149 56q-51 34 -73 34q-19 0 -28.5 -20.5t-13.5 -60.5z" />
    <glyph glyph-name="uni00A0" unicode="&#xa0;" horiz-adv-x="185" 
 />
    <glyph glyph-name="exclamdown" unicode="&#xa1;" horiz-adv-x="284" 
d="M149 -189h-182l110 441h130zM177 497h1q40 0 65.5 -26t25.5 -66q0 -47 -31.5 -81t-79.5 -34q-41 0 -67.5 26.5t-26.5 68.5q0 49 32 80.5t81 31.5z" />
    <glyph glyph-name="cent" unicode="&#xa2;" horiz-adv-x="562" 
d="M338 -10h-109l18 96q-78 15 -119 67q-43 54 -43 136q0 114 72.5 191.5t183.5 99.5l17 92h109l-16 -87q49 -2 84 -17l-49 -129q-30 15 -79 15q-61 0 -99.5 -40t-38.5 -102q0 -47 29 -72.5t73 -25.5q37 0 86 18l5 -126q-50 -23 -107 -23z" />
    <glyph glyph-name="sterling" unicode="&#xa3;" horiz-adv-x="562" 
d="M473 0h-464l16 95q35 12 71 43t51 65q13 26 10 54h-95l23 121h70q2 58 14 102q23 84 87 132.5t162 48.5q75 0 114 -26l-44 -130q-29 16 -74 16q-75 0 -91 -74q-7 -29 -5 -69h132l-23 -121h-113q-5 -28 -15 -51q-21 -41 -53 -60v-2h250z" />
    <glyph glyph-name="currency" unicode="&#xa4;" horiz-adv-x="562" 
d="M288 557h1q68 0 112 -33l81 87l76 -79l-92 -82q32 -53 32 -114q0 -67 -36 -118l91 -85l-75 -76l-78 91q-44 -38 -113 -38q-68 0 -113 37l-76 -90l-75 76l90 84q-37 49 -37 117q0 67 34 116l-92 82l76 80l80 -89q45 34 114 34zM287 443h-1q-34 0 -60 -30t-26 -78
q0 -51 27 -80.5t60 -29.5q34 0 60.5 29.5t26.5 81.5q0 47 -26 77t-61 30z" />
    <glyph glyph-name="yen" unicode="&#xa5;" horiz-adv-x="562" 
d="M306 0h-159l28 153h-151l16 81h151l11 60h-152l15 80h113l-108 276h178l29 -140q20 -107 22 -117h3q57 106 64 117l81 140h188l-216 -276h111l-15 -80h-155l-10 -60h154l-16 -81h-153z" />
    <glyph glyph-name="brokenbar" unicode="&#xa6;" horiz-adv-x="250" 
d="M84 174h113v-350h-113v350zM84 674h113v-350h-113v350z" />
    <glyph glyph-name="section" unicode="&#xa7;" horiz-adv-x="580" 
d="M194 330v-1q0 -42 70 -67q76 -27 101 -40q37 19 37 53q0 41 -48 62q-19 8 -61.5 24.5t-55.5 22.5q-16 -5 -29.5 -20t-13.5 -34zM554 648l-39 -103q-64 31 -140 31q-40 0 -62 -12t-22 -33q0 -16 20 -28t72 -29q78 -27 121.5 -64t43.5 -96q0 -93 -101 -148q30 -27 30 -72
q0 -61 -38.5 -103t-91.5 -58.5t-114 -16.5q-126 0 -203 52l45 105q69 -48 155 -48q84 0 84 43q0 18 -20.5 31.5t-70.5 31.5q-35 13 -60.5 25t-54 31t-43.5 44.5t-15 55.5q0 50 31.5 89.5t83.5 61.5q-27 31 -27 70q0 44 22 79t58 56t79.5 31.5t89.5 10.5q104 0 167 -37z" />
    <glyph glyph-name="dieresis" unicode="&#xa8;" 
d="M159 547h-1q-31 0 -52.5 20t-21.5 53q0 38 24.5 61.5t61.5 23.5q33 0 53 -20.5t20 -52.5q0 -38 -24.5 -61.5t-59.5 -23.5zM374 547h-1q-31 0 -52.5 20t-21.5 53q0 38 24.5 61.5t61.5 23.5q33 0 53 -20.5t20 -52.5q0 -39 -24 -62t-60 -23z" />
    <glyph glyph-name="copyright" unicode="&#xa9;" horiz-adv-x="672" 
d="M355 648h1q127 0 216 -90t89 -218q0 -129 -89.5 -219.5t-216.5 -90.5q-128 0 -218.5 90.5t-90.5 219.5q0 128 90.5 218t218.5 90zM354 585h-1q-97 0 -166 -72t-69 -174t69 -174t167 -72q98 -1 167 71t69 175q0 102 -69 174t-167 72zM489 492l-16 -61q-39 23 -95 23
q-53 0 -84.5 -30.5t-31.5 -86.5q0 -51 32.5 -84t82.5 -33q63 0 101 24l16 -59q-49 -32 -125 -32q-86 0 -135.5 51t-49.5 130q0 83 57.5 134.5t136.5 51.5q35 0 68.5 -8.5t42.5 -19.5z" />
    <glyph glyph-name="ordfeminine" unicode="&#xaa;" horiz-adv-x="422" 
d="M388 268h-111v46h-2q-40 -53 -109 -53q-44 0 -74 31.5t-30 88.5q0 88 58.5 149t174.5 61q74 0 135 -25l-34 -198q-5 -25 -8 -100zM282 400l15 100q-13 5 -29 5q-36 0 -58.5 -33t-22.5 -67q0 -51 41 -51q18 0 32.5 13.5t21.5 32.5z" />
    <glyph glyph-name="guillemotleft" unicode="&#xab;" horiz-adv-x="484" 
d="M273 446l-140 -196l93 -191h-115l-93 193l129 194h126zM479 446l-140 -196l93 -191h-115l-93 193l129 194h126z" />
    <glyph glyph-name="logicalnot" unicode="&#xac;" horiz-adv-x="596" 
d="M26 433h516v-333h-111v225h-405v108z" />
    <glyph glyph-name="uni00AD" unicode="&#xad;" horiz-adv-x="328" 
d="M43 318h268l-23 -117h-268z" />
    <glyph glyph-name="registered" unicode="&#xae;" horiz-adv-x="415" 
d="M244 484v-53h-55v156q60 6 74 6q47 0 67 -13q17 -12 17 -34q0 -11 -10.5 -21t-27.5 -14v-2q27 -8 34 -41q5 -21 11 -37h-61q-5 6 -11 31q-3 22 -24 22h-14zM246 554v-34h12q26 0 26 18q0 17 -24 17q-3 0 -7.5 -0.5t-6.5 -0.5zM264 686h1q75 0 127.5 -51.5t52.5 -123.5
q0 -74 -52.5 -125.5t-128.5 -51.5t-129.5 52t-53.5 125q0 72 53.5 123.5t129.5 51.5zM263 639h-1q-52 0 -87.5 -37.5t-35.5 -91.5t35.5 -91.5t88.5 -37.5q54 -1 89.5 37t35.5 93q0 54 -35.5 91t-89.5 37z" />
    <glyph glyph-name="macron" unicode="&#xaf;" 
d="M150 670h258l-18 -89h-258z" />
    <glyph glyph-name="degree" unicode="&#xb0;" horiz-adv-x="373" 
d="M241 685h1q68 0 111.5 -43t43.5 -106q0 -65 -49 -111t-116 -46q-69 0 -112.5 42t-43.5 106q-1 64 48.5 111t116.5 47zM240 606h-1q-28 0 -49.5 -24t-21.5 -55t19.5 -50t49.5 -19t49.5 22.5t19.5 54.5q0 31 -17.5 51t-48.5 20z" />
    <glyph glyph-name="plusminus" unicode="&#xb1;" horiz-adv-x="596" 
d="M228 582h113v-164h201v-107h-201v-166h-113v166h-202v107h202v164zM26 108h516v-108h-516v108z" />
    <glyph glyph-name="two.superior" unicode="&#xb2;" horiz-adv-x="359" 
d="M365 406h-321l12 65l76 58q68 47 101 78t33 57q0 34 -46 34q-44 0 -90 -28l-18 84q65 47 156 47q60 0 101.5 -27t41.5 -82q0 -28 -10.5 -52.5t-34 -46.5t-40.5 -34.5t-49 -34.5l-23 -15v-3h130z" />
    <glyph glyph-name="three.superior" unicode="&#xb3;" horiz-adv-x="354" 
d="M128 681l-10 83q59 37 150 37q57 0 99.5 -25.5t42.5 -67.5q0 -69 -100 -94v-2q33 -5 58 -26.5t25 -55.5q0 -62 -57 -95.5t-139 -33.5q-96 0 -150 35l41 88q41 -31 98 -31q27 0 46 10.5t19 28.5t-22 29t-59 11h-17l15 77h15q84 0 84 35q0 25 -42 25q-53 0 -97 -28z" />
    <glyph glyph-name="acute" unicode="&#xb4;" 
d="M261 706h161l-129 -156h-124z" />
    <glyph glyph-name="mu" unicode="&#xb5;" horiz-adv-x="573" 
d="M266 492l-51 -270q-10 -54 1.5 -75t40.5 -21q41 0 71 66q7 16 9 27l53 273h171l-61 -322q-6 -28 2 -38t28 -11l-31 -122q-22 -10 -57 -10q-82 0 -100 87h-3q-45 -82 -114 -82q-40 0 -60 19l-6 -36q-22 -112 -22 -175h-153q-4 16 1 69.5t16 110.5l95 510h170z" />
    <glyph glyph-name="paragraph" unicode="&#xb6;" horiz-adv-x="557" 
d="M250 -52h-108l60 311q-2 1 -7 2t-7 2q-54 19 -86 61t-32 100q0 123 91.5 186.5t246.5 63.5q116 0 159 -10l-138 -716h-108l119 623h-71z" />
    <glyph glyph-name="periodcentered" unicode="&#xb7;" horiz-adv-x="281" 
d="M128 153h-1q-41 0 -66 26t-25 67q0 48 31.5 82.5t80.5 34.5q41 0 67.5 -27t26.5 -70q0 -50 -32 -81.5t-82 -31.5z" />
    <glyph glyph-name="cedilla" unicode="&#xb8;" 
d="M118 5h89l-31 -46q28 -7 46 -25t18 -41q0 -54 -41 -78t-93 -24q-54 0 -83 22l27 63q27 -16 55 -16q33 0 33 24q0 30 -74 35z" />
    <glyph glyph-name="one.superior" unicode="&#xb9;" horiz-adv-x="294" 
d="M273 406h-136l53 280h-1l-81 -31l-10 92l131 49h119z" />
    <glyph glyph-name="ordmasculine" unicode="&#xba;" horiz-adv-x="399" 
d="M253 591h1q68 0 111.5 -37.5t43.5 -102.5q0 -87 -56.5 -138.5t-147.5 -51.5q-64 0 -107 38.5t-43 99.5q0 86 55 139t143 53zM246 506h-1q-30 0 -47.5 -35.5t-17.5 -73.5q0 -22 11 -36.5t30 -14.5q29 0 46 35.5t17 75.5q0 49 -38 49z" />
    <glyph glyph-name="guillemotright" unicode="&#xbb;" horiz-adv-x="483" 
d="M144 256l-92 190h114l94 -194l-129 -193h-127zM350 256l-92 190h114l94 -194l-129 -193h-127z" />
    <glyph glyph-name="onequarter" unicode="&#xbc;" horiz-adv-x="859" 
d="M724 0h-126l16 85h-195l14 74l204 235h162l-42 -224h49l-16 -85h-50zM630 170l10 55q3 14 10 40.5t10 38.5h-3q-22 -34 -51 -70l-51 -63l3 -1h72zM269 266h-137l53 280h-1l-81 -31l-10 92l132 49h118zM233 -11h-102l487 672h102z" />
    <glyph glyph-name="onehalf" unicode="&#xbd;" horiz-adv-x="859" 
d="M260 266h-137l54 280h-2l-80 -31l-10 92l131 49h118zM207 -11h-97l492 672h97zM771 0h-319l13 65l75 58q70 51 102 80.5t32 54.5q0 34 -46 34t-89 -29l-19 85q65 47 157 47q60 0 101 -27t41 -82q0 -28 -10.5 -52.5t-34 -46.5t-41 -35t-49.5 -34l-23 -15v-3h129z" />
    <glyph glyph-name="threequarters" unicode="&#xbe;" horiz-adv-x="859" 
d="M263 -11h-102l487 672h101zM106 541l-9 83q59 37 149 37q57 0 100 -25.5t43 -67.5q0 -69 -100 -94v-2q33 -5 58 -26.5t25 -55.5q0 -62 -57 -95.5t-139 -33.5q-98 0 -150 35l41 88q41 -31 98 -31q27 0 46 10.5t19 28.5q0 17 -22.5 28.5t-58.5 11.5h-17l15 77h14
q85 0 85 35q0 25 -43 25q-53 0 -97 -28zM735 0h-126l16 85h-195l14 74l204 235h162l-42 -224h50l-17 -85h-50zM641 170l11 55q2 15 9.5 42.5t9.5 36.5h-3q-22 -34 -51 -70l-50 -63l3 -1h71z" />
    <glyph glyph-name="questiondown" unicode="&#xbf;" horiz-adv-x="460" 
d="M163 256h165q0 -14 -3 -26q-13 -78 -87 -159q-10 -11 -27 -27.5t-26.5 -26t-17 -21.5t-7.5 -22q0 -35 52 -38q68 0 112 28l21 -118q-74 -46 -184 -46q-75 0 -125.5 37t-50.5 103q0 37 17 72t35 55.5t57 59.5q49 48 63 106zM281 497h1q40 0 65.5 -26t25.5 -66
q0 -47 -32 -81t-80 -34q-41 0 -67 26.5t-26 68.5q0 49 32 80.5t81 31.5z" />
    <glyph glyph-name="Agrave" unicode="&#xc0;" horiz-adv-x="640" 
d="M398 159h-177l-67 -159h-183l320 674h223l72 -674h-180zM269 287h123l-7 124q-1 15 -4 63.5t-5 72.5h-2q-6 -14 -24.5 -64.5t-28.5 -71.5zM220 840h182l78 -128h-142z" />
    <glyph glyph-name="Aacute" unicode="&#xc1;" horiz-adv-x="640" 
d="M398 159h-177l-67 -159h-183l320 674h223l72 -674h-180zM269 287h123l-7 124q-1 15 -4 63.5t-5 72.5h-2q-6 -14 -24.5 -64.5t-28.5 -71.5zM415 840h182l-130 -130h-143z" />
    <glyph glyph-name="Acircumflex" unicode="&#xc2;" horiz-adv-x="640" 
d="M398 159h-177l-67 -159h-183l320 674h223l72 -674h-180zM269 287h123l-7 124q-1 15 -4 63.5t-5 72.5h-2q-6 -14 -24.5 -64.5t-28.5 -71.5zM366 840h129l80 -130h-116l-36 57h-2l-53 -57h-127z" />
    <glyph glyph-name="Atilde" unicode="&#xc3;" horiz-adv-x="640" 
d="M398 159h-177l-67 -159h-183l320 674h223l72 -674h-180zM269 287h123l-7 124q-1 15 -4 63.5t-5 72.5h-2q-6 -14 -24.5 -64.5t-28.5 -71.5zM334 713h-81q11 69 39 102.5t67 33.5q34 0 64 -19q29 -21 39 -21q13 0 20 9.5t15 35.5h79q-20 -134 -108 -134q-37 0 -65 18
q-29 18 -39 18q-20 0 -30 -43z" />
    <glyph glyph-name="Adieresis" unicode="&#xc4;" horiz-adv-x="640" 
d="M398 159h-177l-67 -159h-183l320 674h223l72 -674h-180zM269 287h123l-7 124q-1 15 -4 63.5t-5 72.5h-2q-6 -14 -24.5 -64.5t-28.5 -71.5zM296 708h-1q-29 0 -50.5 19.5t-21.5 50.5q0 37 24 59.5t59 22.5q31 0 51 -20.5t20 -50.5q0 -36 -24 -58.5t-57 -22.5zM513 708h-1
q-29 0 -50.5 19.5t-21.5 50.5q0 37 23.5 59.5t58.5 22.5q32 0 52 -20.5t20 -50.5q0 -36 -24 -58.5t-57 -22.5z" />
    <glyph glyph-name="Aring" unicode="&#xc5;" horiz-adv-x="640" 
d="M398 159h-177l-67 -159h-183l320 674h223l72 -674h-180zM269 287h123l-7 124q-1 15 -4 63.5t-5 72.5h-2q-6 -14 -24.5 -64.5t-28.5 -71.5zM429 896h1q49 0 81.5 -24t32.5 -69q-2 -49 -39 -77t-95 -28q-47 0 -79 24t-33 65q-1 49 35.5 79t95.5 30zM423 841h-1
q-20 0 -32.5 -13.5t-12.5 -34.5q0 -18 10.5 -29t29.5 -11q21 0 34 13t13 32t-10.5 31t-30.5 12z" />
    <glyph glyph-name="AE" unicode="&#xc6;" horiz-adv-x="876" 
d="M135 0h-182l398 674h529l-27 -145h-258l-8 -117h245l-26 -143h-223l-6 -124h252l-27 -145h-398l9 162h-191zM301 303h118l10 151q4 62 6 94h-3q-23 -48 -48 -97z" />
    <glyph glyph-name="Ccedilla" unicode="&#xc7;" horiz-adv-x="596" 
d="M525 159l12 -137q-70 -32 -155 -32l-22 -31q64 -16 64 -69q0 -49 -41 -72t-93 -23t-82 22l26 59q27 -16 55 -16q34 0 34 25q0 28 -74 33l49 75q-118 16 -183 93t-65 192q0 118 48.5 205.5t132.5 138.5q103 63 244 63q97 0 149 -27l-45 -138q-54 19 -118 19
q-81 0 -137 -42q-89 -69 -89 -200q0 -76 45 -119t123 -43q67 0 122 24z" />
    <glyph glyph-name="Egrave" unicode="&#xc8;" horiz-adv-x="538" 
d="M501 416l-28 -144h-237l-24 -127h266l-27 -145h-437l127 674h423l-28 -145h-251l-22 -113h238zM186 840h181l79 -128h-142z" />
    <glyph glyph-name="Eacute" unicode="&#xc9;" horiz-adv-x="538" 
d="M501 416l-28 -144h-237l-24 -127h266l-27 -145h-437l127 674h423l-28 -145h-251l-22 -113h238zM363 840h182l-130 -130h-143z" />
    <glyph glyph-name="Ecircumflex" unicode="&#xca;" horiz-adv-x="538" 
d="M501 416l-28 -144h-237l-24 -127h266l-27 -145h-437l127 674h423l-28 -145h-251l-22 -113h238zM317 840h128l80 -130h-115l-37 57h-2l-52 -57h-127z" />
    <glyph glyph-name="Edieresis" unicode="&#xcb;" horiz-adv-x="538" 
d="M501 416l-28 -144h-237l-24 -127h266l-27 -145h-437l127 674h423l-28 -145h-251l-22 -113h238zM257 708h-1q-29 0 -50.5 19.5t-21.5 50.5q0 37 24 59.5t59 22.5q31 0 51 -20.5t20 -50.5q0 -36 -23.5 -58.5t-57.5 -22.5zM474 708h-1q-29 0 -50.5 19.5t-21.5 50.5
q0 37 24 59.5t59 22.5q31 0 51 -20.5t20 -50.5q0 -36 -24 -58.5t-57 -22.5z" />
    <glyph glyph-name="Igrave" unicode="&#xcc;" horiz-adv-x="292" 
d="M137 674h171l-128 -674h-170zM53 840h181l79 -128h-142z" />
    <glyph glyph-name="Iacute" unicode="&#xcd;" horiz-adv-x="292" 
d="M137 674h171l-128 -674h-170zM241 840h182l-130 -130h-143z" />
    <glyph glyph-name="Icircumflex" unicode="&#xce;" horiz-adv-x="292" 
d="M137 674h171l-128 -674h-170zM183 840h129l80 -130h-116l-36 57h-2l-53 -57h-127z" />
    <glyph glyph-name="Idieresis" unicode="&#xcf;" horiz-adv-x="292" 
d="M137 674h171l-128 -674h-170zM123 708h-1q-29 0 -50.5 19.5t-21.5 50.5q0 37 23.5 59.5t58.5 22.5q32 0 52 -20.5t20 -50.5q0 -36 -24 -58.5t-57 -22.5zM339 708h-1q-29 0 -50 19.5t-21 50.5q0 37 23.5 59.5t58.5 22.5q32 0 51.5 -20t19.5 -51q0 -36 -23.5 -58.5
t-57.5 -22.5z" />
    <glyph glyph-name="Eth" unicode="&#xd0;" horiz-adv-x="711" 
d="M8 274l28 140h72l47 249q87 16 189 16q167 0 249 -61q102 -75 102 -227q0 -100 -38 -179t-102 -128q-115 -89 -331 -89q-120 0 -193 15l51 264h-74zM394 414l-27 -140h-114l-26 -137q22 -4 52 -4q50 0 95.5 19.5t74.5 54.5q60 72 60 178q0 78 -40.5 118t-112.5 40
q-34 0 -52 -5l-24 -124h114z" />
    <glyph glyph-name="Ntilde" unicode="&#xd1;" horiz-adv-x="681" 
d="M172 0h-158l127 674h203l61 -203q37 -127 62 -249h3q5 110 32 255l37 197h159l-128 -674h-178l-68 220q-49 165 -67 253h-4q-10 -94 -46 -287zM363 715h-81q11 69 39 103t67 34q32 0 64 -20q27 -20 39 -20q13 0 20.5 9.5t14.5 35.5h79q-20 -135 -108 -135q-33 0 -65 18
q-30 19 -39 19q-20 0 -30 -44z" />
    <glyph glyph-name="Ograve" unicode="&#xd2;" horiz-adv-x="721" 
d="M330 -11h-1q-129 0 -205.5 79.5t-76.5 204.5q0 93 32.5 176t90.5 138q103 98 255 98q130 0 205 -77.5t75 -205.5q0 -94 -31.5 -177t-88.5 -138q-101 -98 -255 -98zM353 131h1q51 0 94 41q34 35 54.5 101t20.5 124q0 66 -28 106t-90 40q-56 0 -99 -43q-35 -35 -56 -99
t-21 -124q0 -68 31.5 -107t92.5 -39zM255 840h181l78 -128h-141z" />
    <glyph glyph-name="Oacute" unicode="&#xd3;" horiz-adv-x="721" 
d="M330 -11h-1q-129 0 -205.5 79.5t-76.5 204.5q0 93 32.5 176t90.5 138q103 98 255 98q130 0 205 -77.5t75 -205.5q0 -94 -31.5 -177t-88.5 -138q-101 -98 -255 -98zM353 131h1q51 0 94 41q34 35 54.5 101t20.5 124q0 66 -28 106t-90 40q-56 0 -99 -43q-35 -35 -56 -99
t-21 -124q0 -68 31.5 -107t92.5 -39zM446 844h182l-130 -130h-143z" />
    <glyph glyph-name="Ocircumflex" unicode="&#xd4;" horiz-adv-x="721" 
d="M330 -11h-1q-129 0 -205.5 79.5t-76.5 204.5q0 93 32.5 176t90.5 138q103 98 255 98q130 0 205 -77.5t75 -205.5q0 -94 -31.5 -177t-88.5 -138q-101 -98 -255 -98zM353 131h1q51 0 94 41q34 35 54.5 101t20.5 124q0 66 -28 106t-90 40q-56 0 -99 -43q-35 -35 -56 -99
t-21 -124q0 -68 31.5 -107t92.5 -39zM391 840h128l80 -130h-115l-37 57h-2l-52 -57h-127z" />
    <glyph glyph-name="Otilde" unicode="&#xd5;" horiz-adv-x="721" 
d="M330 -11h-1q-129 0 -205.5 79.5t-76.5 204.5q0 93 32.5 176t90.5 138q103 98 255 98q130 0 205 -77.5t75 -205.5q0 -94 -31.5 -177t-88.5 -138q-101 -98 -255 -98zM353 131h1q51 0 94 41q34 35 54.5 101t20.5 124q0 66 -28 106t-90 40q-56 0 -99 -43q-35 -35 -56 -99
t-21 -124q0 -68 31.5 -107t92.5 -39zM366 715h-81q11 69 39 103t67 34q32 0 64 -20q27 -20 39 -20q13 0 20.5 9.5t14.5 35.5h79q-20 -135 -108 -135q-34 0 -65 18q-30 19 -39 19q-20 0 -30 -44z" />
    <glyph glyph-name="Odieresis" unicode="&#xd6;" horiz-adv-x="721" 
d="M330 -11h-1q-129 0 -205.5 79.5t-76.5 204.5q0 93 32.5 176t90.5 138q103 98 255 98q130 0 205 -77.5t75 -205.5q0 -94 -31.5 -177t-88.5 -138q-101 -98 -255 -98zM353 131h1q51 0 94 41q34 35 54.5 101t20.5 124q0 66 -28 106t-90 40q-56 0 -99 -43q-35 -35 -56 -99
t-21 -124q0 -68 31.5 -107t92.5 -39zM336 708h-1q-29 0 -50.5 19.5t-21.5 50.5q0 37 23.5 59.5t58.5 22.5q32 0 52 -20.5t20 -50.5q0 -36 -24 -58.5t-57 -22.5zM552 708h-1q-29 0 -50 19.5t-21 50.5q0 37 23.5 59.5t58.5 22.5q32 0 51.5 -20t19.5 -51q0 -36 -23.5 -58.5
t-57.5 -22.5z" />
    <glyph glyph-name="multiply" unicode="&#xd7;" horiz-adv-x="596" 
d="M24 450l74 76l187 -189l185 189l75 -76l-187 -187l187 -186l-75 -77l-186 189l-185 -189l-74 77l186 186z" />
    <glyph glyph-name="Oslash" unicode="&#xd8;" horiz-adv-x="717" 
d="M117 -77l-80 75l70 86q-62 75 -62 198q0 186 124 304q101 99 245 99q95 0 155 -36l72 90l86 -67l-76 -95q51 -64 52 -183q0 -91 -31.5 -171t-87.5 -134q-102 -100 -248 -100q-83 0 -139 31zM228 229l240 299q-25 17 -62 17q-57 0 -102.5 -42.5t-67.5 -105.5
q-29 -81 -11 -168h3zM525 427l-229 -285q19 -12 53 -12q55 0 97.5 39t64.5 101q25 68 17 157h-3z" />
    <glyph glyph-name="Ugrave" unicode="&#xd9;" horiz-adv-x="670" 
d="M138 674h170l-72 -382q-8 -35 -8 -78q1 -34 23 -58.5t64 -24.5q52 0 84 37.5t48 121.5l72 384h171l-71 -374q-30 -160 -104.5 -235.5t-220.5 -75.5q-114 -2 -175 55.5t-61 166.5q0 42 10 95zM245 840h181l79 -128h-142z" />
    <glyph glyph-name="Uacute" unicode="&#xda;" horiz-adv-x="670" 
d="M138 674h170l-72 -382q-8 -35 -8 -78q1 -34 23 -58.5t64 -24.5q52 0 84 37.5t48 121.5l72 384h171l-71 -374q-30 -160 -104.5 -235.5t-220.5 -75.5q-114 -2 -175 55.5t-61 166.5q0 42 10 95zM430 840h182l-130 -130h-143z" />
    <glyph glyph-name="Ucircumflex" unicode="&#xdb;" horiz-adv-x="670" 
d="M138 674h170l-72 -382q-8 -35 -8 -78q1 -34 23 -58.5t64 -24.5q52 0 84 37.5t48 121.5l72 384h171l-71 -374q-30 -160 -104.5 -235.5t-220.5 -75.5q-114 -2 -175 55.5t-61 166.5q0 42 10 95zM379 840h129l80 -130h-116l-36 57h-2l-53 -57h-127z" />
    <glyph glyph-name="Udieresis" unicode="&#xdc;" horiz-adv-x="670" 
d="M138 674h170l-72 -382q-8 -35 -8 -78q1 -34 23 -58.5t64 -24.5q52 0 84 37.5t48 121.5l72 384h171l-71 -374q-30 -160 -104.5 -235.5t-220.5 -75.5q-114 -2 -175 55.5t-61 166.5q0 42 10 95zM319 708h-1q-29 0 -50.5 19.5t-21.5 50.5q0 37 24 59.5t59 22.5q31 0 51 -20.5
t20 -50.5q0 -36 -24 -58.5t-57 -22.5zM536 708h-1q-29 0 -50.5 19.5t-21.5 50.5q0 37 23.5 59.5t58.5 22.5q32 0 52 -20.5t20 -50.5q0 -36 -24 -58.5t-57 -22.5z" />
    <glyph glyph-name="Yacute" unicode="&#xdd;" horiz-adv-x="593" 
d="M317 0h-171l52 272l-133 402h183l33 -151q23 -113 25 -126h2q12 23 35 66t32 60l83 151h204l-293 -397zM374 840h182l-130 -130h-143z" />
    <glyph glyph-name="Thorn" unicode="&#xde;" horiz-adv-x="581" 
d="M14 0l127 674h167l-22 -117q36 3 62 3q103 0 160 -46q66 -51 66 -137q0 -130 -87 -195t-218 -65q-41 0 -65 4l-24 -121h-166zM260 421l-30 -162q17 -5 51 -5q53 0 87.5 27.5t34.5 71.5q0 72 -95 72q-26 0 -48 -4z" />
    <glyph glyph-name="germandbls" unicode="&#xdf;" horiz-adv-x="598" 
d="M177 0h-171l84 444q53 277 300 277q87 0 144.5 -46t57.5 -123q0 -63 -42 -99q-61 -37 -61 -76q0 -27 23 -68q42 -73 42 -127q0 -99 -61 -146t-159 -47q-73 0 -115 23l38 124q30 -16 70 -16q53 0 53 41q0 22 -23 64q-44 75 -44 119q0 45 27.5 82t69.5 61q15 20 15 44
q0 23 -15.5 39t-40.5 16q-37 0 -65.5 -33.5t-42.5 -104.5z" />
    <glyph glyph-name="agrave" unicode="&#xe0;" horiz-adv-x="568" 
d="M483 0h-156q1 14 2 42.5t2 42.5h-2q-55 -96 -155 -96q-67 0 -109.5 48t-42.5 127q0 64 20.5 122.5t62 108t112.5 79t162 29.5q90 0 175 -27l-52 -258q-22 -117 -19 -218zM343 273l20 99q-17 3 -31 3q-56 0 -94 -59t-38 -120q0 -70 49 -70q28 0 53.5 34t40.5 113zM190 706
h159l78 -156h-122z" />
    <glyph glyph-name="aacute" unicode="&#xe1;" horiz-adv-x="568" 
d="M483 0h-156q1 14 2 42.5t2 42.5h-2q-55 -96 -155 -96q-67 0 -109.5 48t-42.5 127q0 64 20.5 122.5t62 108t112.5 79t162 29.5q90 0 175 -27l-52 -258q-22 -117 -19 -218zM343 273l20 99q-17 3 -31 3q-56 0 -94 -59t-38 -120q0 -70 49 -70q28 0 53.5 34t40.5 113zM389 706
h160l-129 -156h-123z" />
    <glyph glyph-name="acircumflex" unicode="&#xe2;" horiz-adv-x="568" 
d="M483 0h-156q1 14 2 42.5t2 42.5h-2q-55 -96 -155 -96q-67 0 -109.5 48t-42.5 127q0 64 20.5 122.5t62 108t112.5 79t162 29.5q90 0 175 -27l-52 -258q-22 -117 -19 -218zM343 273l20 99q-17 3 -31 3q-56 0 -94 -59t-38 -120q0 -70 49 -70q28 0 53.5 34t40.5 113zM330 706
h116l77 -156h-106l-39 73h-2l-54 -73h-116z" />
    <glyph glyph-name="atilde" unicode="&#xe3;" horiz-adv-x="568" 
d="M483 0h-156q1 14 2 42.5t2 42.5h-2q-55 -96 -155 -96q-67 0 -109.5 48t-42.5 127q0 64 20.5 122.5t62 108t112.5 79t162 29.5q90 0 175 -27l-52 -258q-22 -117 -19 -218zM343 273l20 99q-17 3 -31 3q-56 0 -94 -59t-38 -120q0 -70 49 -70q28 0 53.5 34t40.5 113zM282 554
h-80q10 67 37 102.5t67 35.5q31 0 63 -20q30 -20 39 -20q11 0 18 9t14 35h78q-19 -134 -106 -134q-39 0 -66 20q-22 17 -36 17q-18 0 -28 -45z" />
    <glyph glyph-name="adieresis" unicode="&#xe4;" horiz-adv-x="568" 
d="M483 0h-156q1 14 2 42.5t2 42.5h-2q-55 -96 -155 -96q-67 0 -109.5 48t-42.5 127q0 64 20.5 122.5t62 108t112.5 79t162 29.5q90 0 175 -27l-52 -258q-22 -117 -19 -218zM343 273l20 99q-17 3 -31 3q-56 0 -94 -59t-38 -120q0 -70 49 -70q28 0 53.5 34t40.5 113zM243 547
h-1q-31 0 -53 20t-22 53q0 38 25 61.5t61 23.5q33 0 53.5 -20.5t20.5 -52.5q0 -38 -24.5 -61.5t-59.5 -23.5zM458 547h-1q-31 0 -52.5 20t-21.5 53q0 38 24.5 61.5t61.5 23.5q33 0 53 -20.5t20 -52.5q0 -38 -24.5 -61.5t-59.5 -23.5z" />
    <glyph glyph-name="aring" unicode="&#xe5;" horiz-adv-x="568" 
d="M483 0h-156q1 14 2 42.5t2 42.5h-2q-55 -96 -155 -96q-67 0 -109.5 48t-42.5 127q0 64 20.5 122.5t62 108t112.5 79t162 29.5q90 0 175 -27l-52 -258q-22 -117 -19 -218zM343 273l20 99q-17 3 -31 3q-56 0 -94 -59t-38 -120q0 -70 49 -70q28 0 53.5 34t40.5 113zM367 741
h1q48 0 80 -24.5t32 -70.5q-1 -50 -38 -78t-94 -28q-46 0 -78 24t-33 66q-1 51 35.5 81t94.5 30zM361 686h-1q-21 0 -33.5 -14.5t-12.5 -35.5q0 -17 11 -29t30 -12q22 0 35 14t13 33q0 44 -42 44z" />
    <glyph glyph-name="ae" unicode="&#xe6;" horiz-adv-x="783" 
d="M697 151l2 -120q-75 -42 -189 -42q-53 0 -97 20.5t-66 57.5h-4q-73 -78 -182 -78q-69 0 -113.5 39.5t-44.5 100.5q0 55 29.5 96t78 63.5t100.5 33.5t106 11l2 8q1 8 -4.5 17.5t-24 18t-45.5 8.5q-73 0 -141 -44l-25 107q85 55 187 55q109 0 148 -69h3q62 69 168 69
q87 0 133 -43t46 -100q0 -183 -318 -169q0 -23 10 -36q27 -33 97 -33q71 0 144 29zM294 184l7 40q-27 0 -53 -4.5t-50.5 -20.5t-24.5 -41q0 -40 47 -40q26 0 46.5 17.5t27.5 48.5zM600 343v1q0 15 -12.5 26t-36.5 11q-37 0 -60.5 -24.5t-27.5 -50.5q137 -10 137 37z" />
    <glyph glyph-name="ccedilla" unicode="&#xe7;" horiz-adv-x="439" 
d="M379 143l-2 -129q-43 -21 -92 -23l-22 -32q28 -7 46 -26t18 -44q0 -51 -40 -74.5t-88 -23.5q-59 0 -88 22l26 63q30 -16 57 -16q32 0 32 24q0 30 -74 35l48 74q-83 10 -129.5 65t-46.5 139q0 133 93 219.5t236 86.5q57 0 99 -15l-40 -130q-24 10 -60 10q-67 0 -108 -44.5
t-41 -108.5q0 -44 25 -67t61 -23q45 0 90 18z" />
    <glyph glyph-name="egrave" unicode="&#xe8;" horiz-adv-x="523" 
d="M433 151l9 -123q-80 -39 -193 -39q-108 0 -165.5 55t-57.5 158q0 120 80.5 210.5t213.5 90.5q79 0 130.5 -42t51.5 -115q0 -176 -315 -167q4 -20 18 -33q30 -25 88 -25q75 0 140 30zM343 347v1q0 13 -12 22.5t-32 9.5q-42 0 -66.5 -24.5t-29.5 -53.5q76 -1 108 10t32 35z
M158 706h159l79 -156h-122z" />
    <glyph glyph-name="eacute" unicode="&#xe9;" horiz-adv-x="523" 
d="M433 151l9 -123q-80 -39 -193 -39q-108 0 -165.5 55t-57.5 158q0 120 80.5 210.5t213.5 90.5q79 0 130.5 -42t51.5 -115q0 -176 -315 -167q4 -20 18 -33q30 -25 88 -25q75 0 140 30zM343 347v1q0 13 -12 22.5t-32 9.5q-42 0 -66.5 -24.5t-29.5 -53.5q76 -1 108 10t32 35z
M352 706h161l-129 -156h-124z" />
    <glyph glyph-name="ecircumflex" unicode="&#xea;" horiz-adv-x="523" 
d="M433 151l9 -123q-80 -39 -193 -39q-108 0 -165.5 55t-57.5 158q0 120 80.5 210.5t213.5 90.5q79 0 130.5 -42t51.5 -115q0 -176 -315 -167q4 -20 18 -33q30 -25 88 -25q75 0 140 30zM343 347v1q0 13 -12 22.5t-32 9.5q-42 0 -66.5 -24.5t-29.5 -53.5q76 -1 108 10t32 35z
M287 706h116l77 -156h-106l-39 73h-2l-53 -73h-117z" />
    <glyph glyph-name="edieresis" unicode="&#xeb;" horiz-adv-x="523" 
d="M433 151l9 -123q-80 -39 -193 -39q-108 0 -165.5 55t-57.5 158q0 120 80.5 210.5t213.5 90.5q79 0 130.5 -42t51.5 -115q0 -176 -315 -167q4 -20 18 -33q30 -25 88 -25q75 0 140 30zM343 347v1q0 13 -12 22.5t-32 9.5q-42 0 -66.5 -24.5t-29.5 -53.5q76 -1 108 10t32 35z
M225 547h-1q-31 0 -52.5 20t-21.5 53q0 38 24.5 61.5t61.5 23.5q33 0 53 -20.5t20 -52.5q0 -39 -24 -62t-60 -23zM441 547h-1q-31 0 -53 20t-22 53q0 38 25 61.5t61 23.5q33 0 53 -20.5t20 -52.5q0 -39 -24 -62t-59 -23z" />
    <glyph glyph-name="igrave" unicode="&#xec;" horiz-adv-x="281" 
d="M177 0h-171l93 492h171zM25 706h159l79 -156h-122z" />
    <glyph glyph-name="iacute" unicode="&#xed;" horiz-adv-x="281" 
d="M177 0h-171l93 492h171zM219 706h161l-129 -156h-124z" />
    <glyph glyph-name="icircumflex" unicode="&#xee;" horiz-adv-x="281" 
d="M177 0h-171l93 492h171zM163 706h115l78 -156h-107l-38 73h-2l-54 -73h-116z" />
    <glyph glyph-name="idieresis" unicode="&#xef;" horiz-adv-x="281" 
d="M177 0h-171l93 492h171zM99 547h-1q-31 0 -52.5 20t-21.5 53q0 38 24.5 61.5t61.5 23.5q33 0 53 -20.5t20 -52.5q0 -39 -24 -62t-60 -23zM315 547h-1q-31 0 -53 20t-22 53q0 38 25 61.5t61 23.5q33 0 53 -20.5t20 -52.5q0 -39 -24 -62t-59 -23z" />
    <glyph glyph-name="eth" unicode="&#xf0;" horiz-adv-x="576" 
d="M261 118h1q47 0 72 41t28 98q3 44 -4 63q-17 27 -57 27q-44 0 -73 -48.5t-29 -104.5q0 -33 16.5 -54.5t45.5 -21.5zM144 466l-21 66l118 48q-36 26 -81 44l78 92q83 -27 151 -78l146 57l23 -65l-110 -43q44 -43 70.5 -111.5t26.5 -149.5q0 -146 -80.5 -241.5
t-218.5 -95.5q-102 0 -162.5 58t-60.5 153q0 109 75 186t186 82q39 2 68 -12l1 3q-20 48 -49 71z" />
    <glyph glyph-name="ntilde" unicode="&#xf1;" horiz-adv-x="576" 
d="M177 0h-171l61 325q9 45 28 167h150l-7 -75h2q65 86 167 86q65 0 96 -36t31 -98q0 -38 -8 -84l-54 -285h-171l50 267q5 28 5 52q0 48 -37 48q-32 0 -60 -41t-43 -116zM277 554h-81q10 67 37 102.5t68 35.5q32 0 62 -20t39 -20q12 0 18.5 8.5t14.5 35.5h78
q-19 -134 -107 -134q-40 0 -65 20q-22 17 -37 17q-18 0 -27 -45z" />
    <glyph glyph-name="ograve" unicode="&#xf2;" horiz-adv-x="575" 
d="M244 -11h-1q-96 0 -156 55t-60 149q0 132 84.5 221t218.5 89q98 0 156.5 -57t58.5 -145q0 -141 -85 -226.5t-216 -85.5zM266 118h1q33 0 57 31.5t34.5 71.5t10.5 78q0 75 -62 75q-34 0 -58.5 -33t-34.5 -72t-10 -73q0 -36 16 -57t46 -21zM169 706h159l78 -156h-122z" />
    <glyph glyph-name="oacute" unicode="&#xf3;" horiz-adv-x="575" 
d="M244 -11h-1q-96 0 -156 55t-60 149q0 132 84.5 221t218.5 89q98 0 156.5 -57t58.5 -145q0 -141 -85 -226.5t-216 -85.5zM266 118h1q33 0 57 31.5t34.5 71.5t10.5 78q0 75 -62 75q-34 0 -58.5 -33t-34.5 -72t-10 -73q0 -36 16 -57t46 -21zM357 706h160l-129 -156h-123z
" />
    <glyph glyph-name="ocircumflex" unicode="&#xf4;" horiz-adv-x="575" 
d="M244 -11h-1q-96 0 -156 55t-60 149q0 132 84.5 221t218.5 89q98 0 156.5 -57t58.5 -145q0 -141 -85 -226.5t-216 -85.5zM266 118h1q33 0 57 31.5t34.5 71.5t10.5 78q0 75 -62 75q-34 0 -58.5 -33t-34.5 -72t-10 -73q0 -36 16 -57t46 -21zM303 706h116l77 -156h-106
l-39 73h-2l-54 -73h-116z" />
    <glyph glyph-name="otilde" unicode="&#xf5;" horiz-adv-x="575" 
d="M244 -11h-1q-96 0 -156 55t-60 149q0 132 84.5 221t218.5 89q98 0 156.5 -57t58.5 -145q0 -141 -85 -226.5t-216 -85.5zM266 118h1q33 0 57 31.5t34.5 71.5t10.5 78q0 75 -62 75q-34 0 -58.5 -33t-34.5 -72t-10 -73q0 -36 16 -57t46 -21zM265 554h-80q10 67 37 102.5
t67 35.5q31 0 63 -20q30 -20 39 -20q11 0 18 9t14 35h78q-19 -134 -106 -134q-39 0 -66 20q-22 17 -36 17q-18 0 -28 -45z" />
    <glyph glyph-name="odieresis" unicode="&#xf6;" horiz-adv-x="575" 
d="M244 -11h-1q-96 0 -156 55t-60 149q0 132 84.5 221t218.5 89q98 0 156.5 -57t58.5 -145q0 -141 -85 -226.5t-216 -85.5zM266 118h1q33 0 57 31.5t34.5 71.5t10.5 78q0 75 -62 75q-34 0 -58.5 -33t-34.5 -72t-10 -73q0 -36 16 -57t46 -21zM236 547h-1q-31 0 -53 20t-22 53
q0 38 25 61.5t61 23.5q33 0 53.5 -20.5t20.5 -52.5q0 -38 -24.5 -61.5t-59.5 -23.5zM451 547h-1q-31 0 -52.5 20t-21.5 53q0 38 24.5 61.5t61.5 23.5q33 0 53 -20.5t20 -52.5q0 -38 -24.5 -61.5t-59.5 -23.5z" />
    <glyph glyph-name="divide" unicode="&#xf7;" horiz-adv-x="596" 
d="M296 361h-1q-36 0 -58.5 22.5t-22.5 59.5t22.5 59.5t59.5 22.5t58.5 -22t22.5 -60q0 -37 -22 -59.5t-59 -22.5zM554 213h-516v108h516v-108zM296 9h-1q-36 0 -58.5 22.5t-22.5 59.5t22.5 59.5t59.5 22.5t58.5 -22t22.5 -60q0 -37 -22 -59.5t-59 -22.5z" />
    <glyph glyph-name="oslash" unicode="&#xf8;" horiz-adv-x="575" 
d="M59 -64l-44 46l63 74q-51 53 -51 140q0 130 84.5 218.5t216.5 88.5q65 0 111 -25l66 75l49 -44l-62 -71q53 -54 53 -138q0 -142 -84.5 -226.5t-208.5 -84.5q-76 0 -122 28zM203 194l141 173q-16 14 -38 14q-33 0 -58 -30.5t-35.5 -64t-11.5 -61.5q-1 -10 -1 -30zM369 296
l-143 -169q14 -15 41 -15q48 0 75 49.5t29 103.5q1 9 1 31h-3z" />
    <glyph glyph-name="ugrave" unicode="&#xf9;" horiz-adv-x="575" 
d="M392 492h171l-61 -324q-6 -29 -11 -59.5t-10 -62t-8 -46.5h-150l8 75h-2q-71 -86 -168 -86q-124 0 -124 136q0 44 10 94l51 273h171l-49 -259q-7 -35 -7 -62q0 -44 37 -44q33 0 60.5 39t40.5 108zM172 706h159l79 -156h-122z" />
    <glyph glyph-name="uacute" unicode="&#xfa;" horiz-adv-x="575" 
d="M392 492h171l-61 -324q-6 -29 -11 -59.5t-10 -62t-8 -46.5h-150l8 75h-2q-71 -86 -168 -86q-124 0 -124 136q0 44 10 94l51 273h171l-49 -259q-7 -35 -7 -62q0 -44 37 -44q33 0 60.5 39t40.5 108zM361 706h161l-129 -156h-124z" />
    <glyph glyph-name="ucircumflex" unicode="&#xfb;" horiz-adv-x="575" 
d="M392 492h171l-61 -324q-6 -29 -11 -59.5t-10 -62t-8 -46.5h-150l8 75h-2q-71 -86 -168 -86q-124 0 -124 136q0 44 10 94l51 273h171l-49 -259q-7 -35 -7 -62q0 -44 37 -44q33 0 60.5 39t40.5 108zM310 706h116l77 -156h-106l-39 73h-2l-53 -73h-117z" />
    <glyph glyph-name="udieresis" unicode="&#xfc;" horiz-adv-x="575" 
d="M392 492h171l-61 -324q-6 -29 -11 -59.5t-10 -62t-8 -46.5h-150l8 75h-2q-71 -86 -168 -86q-124 0 -124 136q0 44 10 94l51 273h171l-49 -259q-7 -35 -7 -62q0 -44 37 -44q33 0 60.5 39t40.5 108zM238 547h-1q-31 0 -53 20t-22 53q0 38 25 61.5t61 23.5q33 0 53.5 -20.5
t20.5 -52.5q0 -38 -24.5 -61.5t-59.5 -23.5zM453 547h-1q-31 0 -52.5 20t-21.5 53q0 38 24.5 61.5t61.5 23.5q33 0 53 -20.5t20 -52.5q0 -38 -24.5 -61.5t-59.5 -23.5z" />
    <glyph glyph-name="yacute" unicode="&#xfd;" horiz-adv-x="522" 
d="M41 492h180l22 -193q2 -17 5.5 -42t5.5 -41t3 -29h2q28 83 39 113l74 192h179l-171 -344q-101 -203 -198 -291q-39 -36 -85.5 -57.5t-77.5 -26.5l-38 147q44 11 81 35q49 31 73 73q6 9 3 25zM334 706h160l-129 -156h-123z" />
    <glyph glyph-name="thorn" unicode="&#xfe;" horiz-adv-x="581" 
d="M-31 -198l165 878h170l-45 -237h2q18 25 52 42.5t76 17.5q77 0 120 -53t42 -137q-1 -138 -80 -231t-203 -93q-56 0 -87 20h-2l-40 -207h-170zM219 222l-16 -84q25 -21 54 -21q48 0 81 56t33 125q0 29 -13 48t-38 19q-36 0 -62.5 -37.5t-38.5 -105.5z" />
    <glyph glyph-name="ydieresis" unicode="&#xff;" horiz-adv-x="522" 
d="M41 492h180l22 -193q2 -17 5.5 -42t5.5 -41t3 -29h2q28 83 39 113l74 192h179l-171 -344q-101 -203 -198 -291q-39 -36 -85.5 -57.5t-77.5 -26.5l-38 147q44 11 81 35q49 31 73 73q6 9 3 25zM203 547h-1q-31 0 -53 20t-22 53q0 38 25 61.5t61 23.5q33 0 53.5 -20.5
t20.5 -52.5q0 -38 -24.5 -61.5t-59.5 -23.5zM418 547h-1q-31 0 -52.5 20t-21.5 53q0 38 24.5 61.5t61.5 23.5q33 0 53 -20.5t20 -52.5q0 -38 -24.5 -61.5t-59.5 -23.5z" />
    <glyph glyph-name="Amacron" unicode="&#x100;" horiz-adv-x="640" 
d="M398 159h-177l-67 -159h-183l320 674h223l72 -674h-180zM269 287h123l-7 124q-1 15 -4 63.5t-5 72.5h-2q-6 -14 -24.5 -64.5t-28.5 -71.5zM297 825h264l-18 -90h-264z" />
    <glyph glyph-name="amacron" unicode="&#x101;" horiz-adv-x="568" 
d="M483 0h-156q1 14 2 42.5t2 42.5h-2q-55 -96 -155 -96q-67 0 -109.5 48t-42.5 127q0 64 20.5 122.5t62 108t112.5 79t162 29.5q90 0 175 -27l-52 -258q-22 -117 -19 -218zM343 273l20 99q-17 3 -31 3q-56 0 -94 -59t-38 -120q0 -70 49 -70q28 0 53.5 34t40.5 113zM245 670
h259l-18 -89h-259z" />
    <glyph glyph-name="Abreve" unicode="&#x102;" horiz-adv-x="640" 
d="M398 159h-177l-67 -159h-183l320 674h223l72 -674h-180zM269 287h123l-7 124q-1 15 -4 63.5t-5 72.5h-2q-6 -14 -24.5 -64.5t-28.5 -71.5zM280 850h92q-1 -20 11.5 -34t37.5 -14q53 0 62 48h94q-23 -130 -166 -130q-74 0 -106 36t-25 94z" />
    <glyph glyph-name="abreve" unicode="&#x103;" horiz-adv-x="568" 
d="M483 0h-156q1 14 2 42.5t2 42.5h-2q-55 -96 -155 -96q-67 0 -109.5 48t-42.5 127q0 64 20.5 122.5t62 108t112.5 79t162 29.5q90 0 175 -27l-52 -258q-22 -117 -19 -218zM343 273l20 99q-17 3 -31 3q-56 0 -94 -59t-38 -120q0 -70 49 -70q28 0 53.5 34t40.5 113zM233 694
h83q3 -25 11.5 -38.5t31.5 -13.5q47 0 59 52h85q-22 -135 -153 -135q-68 0 -96.5 36t-20.5 99z" />
    <glyph glyph-name="Aogonek" unicode="&#x104;" horiz-adv-x="640" 
d="M514 674l72 -674h-88q-29 -44 -29 -75q0 -40 44 -40q18 0 48 9l9 -82q-46 -37 -116 -37q-50 0 -78 24.5t-28 70.5q0 58 58 131l-8 158h-177l-67 -159h-183l320 674h223zM269 287h123l-7 124q-1 15 -4 63.5t-5 72.5h-2q-6 -14 -24.5 -64.5t-28.5 -71.5z" />
    <glyph glyph-name="aogonek" unicode="&#x105;" horiz-adv-x="568" 
d="M555 476l-49 -258q-22 -105 -20 -218h-49q-43 -43 -43 -82q0 -33 38 -33q23 0 53 9l9 -82q-46 -37 -115 -37q-50 0 -78 24.5t-28 70.5q0 59 57 131q4 56 5 84h-3q-57 -96 -156 -96q-67 0 -109.5 48t-42.5 127q0 64 21 122.5t62 108t112 79t162 29.5q93 0 174 -27z
M346 273l18 99q-16 3 -30 3q-55 0 -93.5 -59.5t-38.5 -119.5q0 -34 13.5 -52t35.5 -18q28 0 54.5 34t40.5 113z" />
    <glyph glyph-name="Cacute" unicode="&#x106;" horiz-adv-x="596" 
d="M525 155l12 -138q-65 -28 -179 -28q-138 0 -223 78t-85 211q0 118 48.5 205.5t132.5 138.5q103 63 244 63q97 0 149 -27l-45 -138q-54 19 -118 19q-81 0 -137 -42q-89 -69 -89 -200q0 -76 45 -119t123 -43q73 0 122 20zM437 844h183l-130 -130h-143z" />
    <glyph glyph-name="cacute" unicode="&#x107;" horiz-adv-x="440" 
d="M381 143l-2 -129q-50 -25 -138 -25q-94 0 -154 54t-60 154q0 133 92.5 219.5t236.5 86.5q56 0 98 -15l-40 -129q-24 9 -59 9q-68 0 -109 -44.5t-41 -108.5q0 -44 25.5 -67t60.5 -23q45 0 90 18zM331 706h160l-129 -156h-123z" />
    <glyph glyph-name="Ccircumflex" unicode="&#x108;" horiz-adv-x="596" 
d="M525 155l12 -138q-65 -28 -179 -28q-138 0 -223 78t-85 211q0 118 48.5 205.5t132.5 138.5q103 63 244 63q97 0 149 -27l-45 -138q-54 19 -118 19q-81 0 -137 -42q-89 -69 -89 -200q0 -76 45 -119t123 -43q73 0 122 20zM384 844h129l80 -130h-116l-36 56h-2l-53 -56h-127
z" />
    <glyph glyph-name="ccircumflex" unicode="&#x109;" horiz-adv-x="440" 
d="M381 143l-2 -129q-50 -25 -138 -25q-94 0 -154 54t-60 154q0 133 92.5 219.5t236.5 86.5q56 0 98 -15l-40 -129q-24 9 -59 9q-68 0 -109 -44.5t-41 -108.5q0 -44 25.5 -67t60.5 -23q45 0 90 18zM263 706h115l78 -156h-107l-38 73h-2l-54 -73h-116z" />
    <glyph glyph-name="Cdotaccent" unicode="&#x10a;" horiz-adv-x="596" 
d="M525 155l12 -138q-65 -28 -179 -28q-138 0 -223 78t-85 211q0 118 48.5 205.5t132.5 138.5q103 63 244 63q97 0 149 -27l-45 -138q-54 19 -118 19q-81 0 -137 -42q-89 -69 -89 -200q0 -76 45 -119t123 -43q73 0 122 20zM443 712h-1q-30 0 -51.5 20t-21.5 51q0 37 24.5 60
t59.5 23q32 0 52.5 -20.5t20.5 -50.5q0 -37 -24.5 -60t-58.5 -23z" />
    <glyph glyph-name="cdotaccent" unicode="&#x10b;" horiz-adv-x="440" 
d="M381 143l-2 -129q-50 -25 -138 -25q-94 0 -154 54t-60 154q0 133 92.5 219.5t236.5 86.5q56 0 98 -15l-40 -129q-24 9 -59 9q-68 0 -109 -44.5t-41 -108.5q0 -44 25.5 -67t60.5 -23q45 0 90 18zM318 546h-1q-32 0 -54 20t-22 54q0 38 25 62t62 24q34 0 54.5 -21t20.5 -53
q0 -39 -24.5 -62.5t-60.5 -23.5z" />
    <glyph glyph-name="Ccaron" unicode="&#x10c;" horiz-adv-x="596" 
d="M525 155l12 -138q-65 -28 -179 -28q-138 0 -223 78t-85 211q0 118 48.5 205.5t132.5 138.5q103 63 244 63q97 0 149 -27l-45 -138q-54 19 -118 19q-81 0 -137 -42q-89 -69 -89 -200q0 -76 45 -119t123 -43q73 0 122 20zM487 714h-128l-80 130h115l36 -60h2l53 60h127z
" />
    <glyph glyph-name="ccaron" unicode="&#x10d;" horiz-adv-x="440" 
d="M381 143l-2 -129q-50 -25 -138 -25q-94 0 -154 54t-60 154q0 133 92.5 219.5t236.5 86.5q56 0 98 -15l-40 -129q-24 9 -59 9q-68 0 -109 -44.5t-41 -108.5q0 -44 25.5 -67t60.5 -23q45 0 90 18zM364 550h-116l-78 156h107l38 -74h2l54 74h116z" />
    <glyph glyph-name="Dcaron" unicode="&#x10e;" horiz-adv-x="696" 
d="M16 10l124 653q89 16 195 16q157 0 245 -66q100 -77 100 -223q0 -97 -38 -177t-102 -129q-115 -89 -331 -89q-121 0 -193 15zM289 539l-77 -403q33 -3 52 -3q50 0 95.5 19.5t74.5 54.5q60 72 60 183q0 75 -41 114t-116 39q-26 0 -48 -4zM445 710h-128l-80 130h115l36 -60
h2l53 60h127z" />
    <glyph glyph-name="dcaron" unicode="&#x10f;" horiz-adv-x="582" 
d="M436 710h170l-96 -504q-21 -110 -24 -206h-156l4 72h-2q-55 -83 -154 -83q-63 0 -108.5 49t-45.5 139q0 133 86.5 229.5t224.5 96.5q33 0 59 -10zM348 244l23 115q-17 15 -48 15q-52 0 -86.5 -52.5t-34.5 -115.5q0 -41 16.5 -60.5t40.5 -19.5q27 0 51.5 28.5t37.5 89.5z
M664 491l-64 61q51 46 51 116q0 18 -6 38l113 19q19 -21 19 -63q0 -49 -33.5 -96t-79.5 -75z" />
    <glyph glyph-name="Dcroat" unicode="&#x110;" horiz-adv-x="711" 
d="M8 274l28 140h72l47 249q87 16 189 16q167 0 249 -61q102 -75 102 -227q0 -100 -38 -179t-102 -128q-115 -89 -331 -89q-120 0 -193 15l51 264h-74zM394 414l-27 -140h-114l-26 -137q22 -4 52 -4q50 0 95.5 19.5t74.5 54.5q60 72 60 178q0 78 -40.5 118t-112.5 40
q-34 0 -52 -5l-24 -124h114z" />
    <glyph glyph-name="dcroat" unicode="&#x111;" horiz-adv-x="575" 
d="M348 244l23 115q-17 15 -48 15q-52 0 -86.5 -52.5t-34.5 -115.5q0 -41 16.5 -60.5t40.5 -19.5q27 0 51 29t38 89zM239 632h182l15 78h170l-14 -78h75l-18 -91h-75l-64 -335q-21 -110 -24 -206h-156l4 72h-2q-55 -83 -154 -83q-63 0 -108.5 49t-45.5 139q0 133 86.5 229.5
t224.5 96.5q33 0 59 -10l9 48h-182z" />
    <glyph glyph-name="Emacron" unicode="&#x112;" horiz-adv-x="538" 
d="M501 416l-28 -144h-237l-24 -127h266l-27 -145h-437l127 674h423l-28 -145h-251l-22 -113h238zM246 825h264l-18 -90h-264z" />
    <glyph glyph-name="emacron" unicode="&#x113;" horiz-adv-x="523" 
d="M433 151l9 -123q-80 -39 -193 -39q-108 0 -165.5 55t-57.5 158q0 120 80.5 210.5t213.5 90.5q79 0 130.5 -42t51.5 -115q0 -176 -315 -167q4 -20 18 -33q30 -25 88 -25q75 0 140 30zM343 347v1q0 13 -12 22.5t-32 9.5q-42 0 -66.5 -24.5t-29.5 -53.5q76 -1 108 10t32 35z
M211 670h259l-18 -89h-259z" />
    <glyph glyph-name="Ebreve" unicode="&#x114;" horiz-adv-x="538" 
d="M501 416l-28 -144h-237l-24 -127h266l-27 -145h-437l127 674h423l-28 -145h-251l-22 -113h238zM227 843h92q-1 -20 11.5 -34t37.5 -14q53 0 62 48h94q-23 -130 -166 -130q-74 0 -106 36t-25 94z" />
    <glyph glyph-name="ebreve" unicode="&#x115;" horiz-adv-x="523" 
d="M433 151l9 -123q-80 -39 -193 -39q-108 0 -165.5 55t-57.5 158q0 120 80.5 210.5t213.5 90.5q79 0 130.5 -42t51.5 -115q0 -176 -315 -167q4 -20 18 -33q30 -25 88 -25q75 0 140 30zM343 347v1q0 13 -12 22.5t-32 9.5q-42 0 -66.5 -24.5t-29.5 -53.5q76 -1 108 10t32 35z
M209 694h83q3 -25 12 -38.5t32 -13.5q48 0 58 52h85q-9 -63 -47 -99t-105 -36q-68 0 -96.5 36t-21.5 99z" />
    <glyph glyph-name="Edotaccent" unicode="&#x116;" horiz-adv-x="538" 
d="M501 416l-28 -144h-237l-24 -127h266l-27 -145h-437l127 674h423l-28 -145h-251l-22 -113h238zM365 708h-1q-30 0 -51.5 19.5t-21.5 51.5q0 37 24.5 60t59.5 23q32 0 52 -20.5t20 -51.5q0 -36 -24 -59t-58 -23z" />
    <glyph glyph-name="edotaccent" unicode="&#x117;" horiz-adv-x="523" 
d="M433 151l9 -123q-80 -39 -193 -39q-108 0 -165.5 55t-57.5 158q0 120 80.5 210.5t213.5 90.5q79 0 130.5 -42t51.5 -115q0 -176 -315 -167q4 -20 18 -33q30 -25 88 -25q75 0 140 30zM343 347v1q0 13 -12 22.5t-32 9.5q-42 0 -66.5 -24.5t-29.5 -53.5q76 -1 108 10t32 35z
M326 546h-1q-31 0 -53 20t-22 54q0 38 25 62t62 24q33 0 53.5 -20.5t20.5 -53.5q0 -39 -24.5 -62.5t-60.5 -23.5z" />
    <glyph glyph-name="Eogonek" unicode="&#x118;" horiz-adv-x="538" 
d="M14 0l127 674h423l-28 -145h-251l-22 -113h238l-28 -144h-237l-24 -127h266l-27 -145h-21q-70 -49 -70 -89q0 -27 26 -27q20 0 47 10l20 -82q-47 -37 -117 -37q-48 0 -74 24t-26 64q0 36 23.5 72.5t61.5 64.5h-307z" />
    <glyph glyph-name="eogonek" unicode="&#x119;" horiz-adv-x="523" 
d="M343 347v1q0 13 -12 22.5t-32 9.5q-42 0 -66.5 -24.5t-29.5 -53.5q76 -1 108 10t32 35zM363 -107l21 -82q-54 -36 -123 -36q-46 0 -70.5 22.5t-24.5 63.5q0 34 21 68t58 60v1q-14 0 -20 1q-97 7 -148 60.5t-51 150.5q0 120 80.5 210.5t213.5 90.5q79 0 130.5 -42
t51.5 -115q1 -90 -79 -131t-236 -36q4 -20 18 -33q30 -25 88 -25q75 0 140 30l9 -123q-8 -4 -68 -28q-83 -51 -83 -92q0 -11 7.5 -18t18.5 -7q19 0 46 10z" />
    <glyph glyph-name="Ecaron" unicode="&#x11a;" horiz-adv-x="538" 
d="M501 416l-28 -144h-237l-24 -127h266l-27 -145h-437l127 674h423l-28 -145h-251l-22 -113h238zM425 710h-129l-80 130h116l36 -60h2l53 60h127z" />
    <glyph glyph-name="ecaron" unicode="&#x11b;" horiz-adv-x="523" 
d="M433 151l9 -123q-80 -39 -193 -39q-108 0 -165.5 55t-57.5 158q0 120 80.5 210.5t213.5 90.5q79 0 130.5 -42t51.5 -115q0 -176 -315 -167q4 -20 18 -33q30 -25 88 -25q75 0 140 30zM343 347v1q0 13 -12 22.5t-32 9.5q-42 0 -66.5 -24.5t-29.5 -53.5q76 -1 108 10t32 35z
M382 550h-116l-77 156h106l39 -74h2l54 74h116z" />
    <glyph glyph-name="Gcircumflex" unicode="&#x11c;" horiz-adv-x="695" 
d="M667 398l-70 -366q-123 -39 -230 -39q-141 0 -227 70q-92 74 -92 212q0 193 140 309q120 97 307 97q126 0 186 -30l-49 -143q-65 27 -144 27q-93 0 -155 -42q-97 -70 -97 -206q0 -76 42.5 -112.5t112.5 -36.5q40 0 61 8l23 116h-91l27 136h256zM422 840h129l80 -130h-116
l-36 57h-2l-53 -57h-127z" />
    <glyph glyph-name="gcircumflex" unicode="&#x11d;" horiz-adv-x="573" 
d="M13 -179l37 129q19 -11 58.5 -17.5t70.5 -6.5q110 0 133 111l5 28h-2q-52 -59 -127 -59q-72 0 -116.5 50.5t-44.5 126.5q0 61 21.5 117.5t62 102t106 73t146.5 27.5q108 0 192 -34l-73 -405q-30 -158 -106 -217q-72 -56 -198 -56q-111 0 -165 30zM348 250l23 118
q-13 6 -40 6q-52 0 -88.5 -51.5t-36.5 -114.5q0 -34 15 -53t40 -19q29 0 53 29t34 85zM309 706h116l78 -156h-107l-38 73h-2l-54 -73h-116z" />
    <glyph glyph-name="Gbreve" unicode="&#x11e;" horiz-adv-x="695" 
d="M667 398l-70 -366q-123 -39 -230 -39q-141 0 -227 70q-92 74 -92 212q0 193 140 309q120 97 307 97q126 0 186 -30l-49 -143q-65 27 -144 27q-93 0 -155 -42q-97 -70 -97 -206q0 -76 42.5 -112.5t112.5 -36.5q40 0 61 8l23 116h-91l27 136h256zM323 846h92
q-1 -20 11.5 -33.5t37.5 -13.5q53 0 62 47h94q-23 -130 -166 -130q-74 0 -106 36t-25 94z" />
    <glyph glyph-name="gbreve" unicode="&#x11f;" horiz-adv-x="573" 
d="M13 -179l37 129q19 -11 58.5 -17.5t70.5 -6.5q110 0 133 111l5 28h-2q-52 -59 -127 -59q-72 0 -116.5 50.5t-44.5 126.5q0 61 21.5 117.5t62 102t106 73t146.5 27.5q108 0 192 -34l-73 -405q-30 -158 -106 -217q-72 -56 -198 -56q-111 0 -165 30zM348 250l23 118
q-13 6 -40 6q-52 0 -88.5 -51.5t-36.5 -114.5q0 -34 15 -53t40 -19q29 0 53 29t34 85zM235 694h83q3 -25 11.5 -38.5t31.5 -13.5q47 0 59 52h85q-22 -135 -152 -135q-68 0 -96.5 36t-21.5 99z" />
    <glyph glyph-name="Gdotaccent" unicode="&#x120;" horiz-adv-x="695" 
d="M667 398l-70 -366q-123 -39 -230 -39q-141 0 -227 70q-92 74 -92 212q0 193 140 309q120 97 307 97q126 0 186 -30l-49 -143q-65 27 -144 27q-93 0 -155 -42q-97 -70 -97 -206q0 -76 42.5 -112.5t112.5 -36.5q40 0 61 8l23 116h-91l27 136h256zM474 708h-1
q-30 0 -51.5 19.5t-21.5 51.5q0 37 24.5 60t59.5 23q32 0 52 -20.5t20 -51.5q0 -36 -24 -59t-58 -23z" />
    <glyph glyph-name="gdotaccent" unicode="&#x121;" horiz-adv-x="573" 
d="M13 -179l37 129q19 -11 58.5 -17.5t70.5 -6.5q110 0 133 111l5 28h-2q-52 -59 -127 -59q-72 0 -116.5 50.5t-44.5 126.5q0 61 21.5 117.5t62 102t106 73t146.5 27.5q108 0 192 -34l-73 -405q-30 -158 -106 -217q-72 -56 -198 -56q-111 0 -165 30zM348 250l23 118
q-13 6 -40 6q-52 0 -88.5 -51.5t-36.5 -114.5q0 -34 15 -53t40 -19q29 0 53 29t34 85zM362 546h-1q-31 0 -53 20t-22 54q0 38 25 62t62 24q33 0 54 -21t21 -53q0 -39 -25 -62.5t-61 -23.5z" />
    <glyph glyph-name="Gcommaaccent" unicode="&#x122;" horiz-adv-x="695" 
d="M667 398l-70 -366q-123 -39 -230 -39q-141 0 -227 70q-92 74 -92 212q0 193 140 309q120 97 307 97q126 0 186 -30l-49 -143q-65 27 -144 27q-93 0 -155 -42q-97 -70 -97 -206q0 -76 42.5 -112.5t112.5 -36.5q40 0 61 8l23 116h-91l27 136h256zM246 -248l-17 77
q28 4 50 21t22 43q0 27 -18 47l125 20q25 -25 25 -65q0 -69 -57 -105t-130 -38z" />
    <glyph glyph-name="gcommaaccent" unicode="&#x123;" horiz-adv-x="573" 
d="M13 -179l37 129q19 -11 58.5 -17.5t70.5 -6.5q110 0 133 111l5 28h-2q-52 -59 -127 -59q-72 0 -116.5 50.5t-44.5 126.5q0 61 21.5 117.5t62 102t106 73t146.5 27.5q108 0 192 -34l-73 -405q-28 -156 -106 -217q-72 -56 -198 -56q-111 0 -165 30zM348 250l23 118
q-13 6 -40 6q-52 0 -88.5 -51.5t-36.5 -114.5q0 -34 15 -53t40 -19q29 0 52.5 29t34.5 85zM474 739l16 -76q-29 -4 -52 -21t-23 -44q0 -28 19 -47l-118 -19q-25 25 -25 65q0 68 56.5 104.5t126.5 37.5z" />
    <glyph glyph-name="Hcircumflex" unicode="&#x124;" horiz-adv-x="683" 
d="M142 674h170l-48 -253h216l48 253h172l-128 -674h-171l51 268h-217l-50 -268h-171zM386 840h129l80 -130h-116l-36 57h-2l-53 -57h-127z" />
    <glyph glyph-name="hcircumflex" unicode="&#x125;" horiz-adv-x="575" 
d="M177 0h-171l134 710h171l-52 -271h2q67 64 148 64q62 0 93.5 -36t31.5 -98q0 -42 -10 -90l-52 -279h-171l50 263q6 30 6 58q0 46 -38 46q-34 0 -61 -40t-40 -111zM195 873h129l80 -130h-116l-36 56h-2l-53 -56h-127z" />
    <glyph glyph-name="Hbar" unicode="&#x126;" horiz-adv-x="683" 
d="M489 468h-216l-14 -76h216zM40 571h82l20 103h170l-19 -103h216l19 103h172l-20 -103h75l-21 -103h-74l-88 -468h-171l45 240h-216l-45 -240h-171l89 468h-84z" />
    <glyph glyph-name="hbar" unicode="&#x127;" horiz-adv-x="575" 
d="M35 629h90l15 81h171l-15 -81h156l-17 -90h-157l-19 -100h2q67 64 148 64q62 0 93.5 -36t31.5 -98q0 -42 -10 -90l-52 -279h-171l50 263q6 30 6 58q0 46 -38 46q-34 0 -61 -40t-40 -111l-41 -216h-171l102 538h-90z" />
    <glyph glyph-name="Itilde" unicode="&#x128;" horiz-adv-x="292" 
d="M137 674h171l-128 -674h-170zM161 713h-81q11 69 39 102.5t67 33.5q34 0 64 -19q29 -21 40 -21q12 0 19 9.5t15 35.5h79q-20 -134 -108 -134q-35 0 -65 18q-27 18 -39 18q-20 0 -30 -43z" />
    <glyph glyph-name="itilde" unicode="&#x129;" horiz-adv-x="281" 
d="M177 0h-171l93 492h171zM139 554h-81q10 67 37 102.5t68 35.5q32 0 62 -20t39 -20q12 0 18.5 8.5t14.5 35.5h78q-19 -134 -107 -134q-40 0 -65 20q-22 17 -37 17q-18 0 -27 -45z" />
    <glyph glyph-name="Imacron" unicode="&#x12a;" horiz-adv-x="292" 
d="M137 674h171l-128 -674h-170zM122 825h264l-18 -90h-264z" />
    <glyph glyph-name="imacron" unicode="&#x12b;" horiz-adv-x="281" 
d="M177 0h-171l93 492h171zM90 670h259l-18 -89h-259z" />
    <glyph glyph-name="Ibreve" unicode="&#x12c;" horiz-adv-x="292" 
d="M137 674h171l-128 -674h-170zM104 848h92q-1 -20 11.5 -34t37.5 -14q53 0 62 48h94q-23 -130 -166 -130q-74 0 -106 35.5t-25 94.5z" />
    <glyph glyph-name="ibreve" unicode="&#x12d;" horiz-adv-x="281" 
d="M177 0h-171l93 492h171zM88 694h83q3 -25 12 -38.5t32 -13.5q48 0 58 52h85q-9 -63 -47 -99t-105 -36q-68 0 -96.5 36t-21.5 99z" />
    <glyph glyph-name="Iogonek" unicode="&#x12e;" horiz-adv-x="292" 
d="M308 674l-128 -674h-77q-29 -43 -29 -75q0 -40 43 -40q18 0 48 9l9 -82q-44 -37 -115 -37q-50 0 -78 24.5t-28 70.5q0 61 58 131l126 673h171z" />
    <glyph glyph-name="iogonek" unicode="&#x12f;" horiz-adv-x="281" 
d="M202 545h-1q-37 0 -60.5 23t-23.5 61q0 43 30 71t72 28q39 0 63 -22.5t24 -61.5q0 -46 -30 -72.5t-74 -26.5zM270 492l-93 -492h-78q-29 -43 -29 -75q0 -40 43 -40q21 0 48 9l9 -82q-44 -37 -115 -37q-50 0 -78 24.5t-28 70.5q0 61 58 131l92 491h171z" />
    <glyph glyph-name="Idotaccent" unicode="&#x130;" horiz-adv-x="292" 
d="M137 674h171l-128 -674h-170zM244 708h-1q-30 0 -51.5 19.5t-21.5 51.5q0 37 24.5 60t59.5 23q32 0 52 -20.5t20 -51.5q0 -36 -24 -59t-58 -23z" />
    <glyph glyph-name="dotlessi" unicode="&#x131;" horiz-adv-x="281" 
d="M177 0h-171l93 492h171z" />
    <glyph glyph-name="IJ" unicode="&#x132;" horiz-adv-x="706" 
d="M137 674h171l-128 -674h-170zM479 259l79 415h171l-84 -436q-26 -133 -89 -191t-186 -58q-78 0 -115 16l32 145q39 -11 78 -11q47 0 74.5 27t39.5 93z" />
    <glyph glyph-name="ij" unicode="&#x133;" horiz-adv-x="577" 
d="M177 0h-171l93 492h171zM202 542h-1q-34 0 -56.5 21.5t-22.5 57.5q0 41 28 66.5t67 25.5q37 0 59.5 -21.5t22.5 -57.5q0 -43 -28 -67.5t-69 -24.5zM399 492h170l-88 -469q-22 -123 -71 -177q-48 -55 -143 -55q-42 0 -75 8l19 129q11 -2 29 -2q26 0 43 19t27 76zM496 542
h-1q-34 0 -56.5 21.5t-22.5 57.5q0 41 28 66.5t67 25.5q37 0 59.5 -21.5t22.5 -57.5q0 -43 -28 -67.5t-69 -24.5z" />
    <glyph glyph-name="Jcircumflex" unicode="&#x134;" horiz-adv-x="414" 
d="M188 259l78 415h171l-84 -436q-25 -133 -88.5 -191t-186.5 -58q-78 0 -115 16l32 145q39 -11 78 -11q47 0 74.5 26.5t40.5 93.5zM314 840h128l80 -130h-115l-37 57h-2l-52 -57h-127z" />
    <glyph glyph-name="jcircumflex" unicode="&#x135;" horiz-adv-x="297" 
d="M118 492h170l-87 -469q-23 -124 -72 -177q-48 -55 -143 -55q-42 0 -75 8l19 129q11 -2 30 -2q25 0 42.5 19.5t27.5 75.5zM166 706h112l78 -156h-105l-38 82h-2l-54 -82h-114z" />
    <glyph glyph-name="Kcommaaccent" unicode="&#x136;" horiz-adv-x="623" 
d="M14 0l127 674h168l-55 -290h3q8 12 58 78l165 212h213l-269 -291l150 -383h-186l-98 277l-67 -65l-41 -212h-168zM166 -248l-17 77q28 4 50 21t22 43q0 27 -18 47l125 20q25 -25 25 -65q0 -69 -57 -105t-130 -38z" />
    <glyph glyph-name="kcommaaccent" unicode="&#x137;" horiz-adv-x="562" 
d="M176 0h-170l134 710h170l-79 -416h2q5 7 20 27.5t23 30.5l106 140h210l-207 -203l133 -289h-191l-73 197l-51 -51zM135 -248l-16 77q27 4 49.5 21t22.5 43q0 28 -19 47l125 20q25 -25 25 -65q0 -69 -56.5 -105t-130.5 -38z" />
    <glyph glyph-name="kgreenlandic" unicode="&#x138;" horiz-adv-x="562" 
d="M176 0h-170l93 492h170l-38 -198h2q5 7 20 27.5t23 30.5l106 140h210l-207 -203l133 -289h-191l-73 197l-51 -51z" />
    <glyph glyph-name="Lacute" unicode="&#x139;" horiz-adv-x="507" 
d="M14 0l127 674h171l-99 -525h253l-28 -149h-424zM266 840h182l-130 -130h-143z" />
    <glyph glyph-name="lacute" unicode="&#x13a;" horiz-adv-x="281" 
d="M177 0h-170l136 710h170zM242 880h183l-130 -130h-143z" />
    <glyph glyph-name="Lcommaaccent" unicode="&#x13b;" horiz-adv-x="507" 
d="M14 0l127 674h171l-99 -525h253l-28 -149h-424zM111 -248l-16 77q27 4 49.5 21t22.5 43q0 28 -19 47l125 20q25 -25 25 -65q0 -69 -56.5 -105t-130.5 -38z" />
    <glyph glyph-name="lcommaaccent" unicode="&#x13c;" horiz-adv-x="281" 
d="M177 0h-170l136 710h170zM-13 -248l-16 77q27 4 49.5 21t22.5 43q0 28 -19 47l125 20q25 -25 25 -65q0 -69 -56.5 -105t-130.5 -38z" />
    <glyph glyph-name="Lcaron" unicode="&#x13d;" horiz-adv-x="507" 
d="M14 0l127 674h171l-99 -525h253l-28 -149h-424zM350 472l-17 77q27 4 49.5 21t22.5 43q0 27 -18 47l124 20q25 -23 25 -65q0 -68 -56.5 -104.5t-129.5 -38.5z" />
    <glyph glyph-name="lcaron" unicode="&#x13e;" horiz-adv-x="289" 
d="M177 0h-170l136 710h170zM380 491l-68 57q20 21 35.5 54.5t15.5 65.5q0 23 -6 38l113 19q20 -20 20 -63q0 -57 -34.5 -103.5t-75.5 -67.5z" />
    <glyph glyph-name="Ldot" unicode="&#x13f;" horiz-adv-x="511" 
d="M14 0l127 674h171l-99 -525h253l-28 -149h-424zM409 305h-1q-30 0 -51.5 19.5t-21.5 51.5q0 37 24.5 60t59.5 23q32 0 52.5 -21t20.5 -51q0 -36 -24.5 -59t-58.5 -23z" />
    <glyph glyph-name="ldot" unicode="&#x140;" horiz-adv-x="395" 
d="M177 0h-170l136 710h170zM353 279h-1q-29 0 -49.5 19.5t-20.5 51.5q0 37 23 59.5t57 22.5q31 0 50 -19.5t19 -51.5q0 -38 -22.5 -60t-55.5 -22z" />
    <glyph glyph-name="Lslash" unicode="&#x141;" horiz-adv-x="521" 
d="M452 0h-425l42 221l-81 -48l25 122l79 48l63 331h170l-41 -214l136 82l-22 -123l-137 -82l-35 -188h253z" />
    <glyph glyph-name="lslash" unicode="&#x142;" horiz-adv-x="296" 
d="M184 0h-170l39 204l-73 -49l25 126l72 49l73 380h170l-48 -248l82 55l-24 -126l-82 -55z" />
    <glyph glyph-name="Nacute" unicode="&#x143;" horiz-adv-x="681" 
d="M172 0h-158l127 674h203l61 -203q37 -127 62 -249h3q5 110 32 255l37 197h159l-128 -674h-178l-68 220q-49 165 -67 253h-4q-10 -94 -46 -287zM428 840h183l-131 -130h-143z" />
    <glyph glyph-name="nacute" unicode="&#x144;" horiz-adv-x="576" 
d="M177 0h-171l61 325q9 45 28 167h150l-7 -75h2q65 86 167 86q65 0 96 -36t31 -98q0 -38 -8 -84l-54 -285h-171l50 267q5 28 5 52q0 48 -37 48q-32 0 -60 -41t-43 -116zM363 706h160l-129 -156h-123z" />
    <glyph glyph-name="Ncommaaccent" unicode="&#x145;" horiz-adv-x="681" 
d="M172 0h-158l127 674h203l61 -203q37 -127 62 -249h3q5 110 32 255l37 197h159l-128 -674h-178l-68 220q-49 165 -67 253h-4q-10 -94 -46 -287zM196 -248l-17 77q27 4 49.5 21t22.5 43q0 27 -18 47l124 20q25 -23 25 -65q0 -69 -56.5 -105t-129.5 -38z" />
    <glyph glyph-name="ncommaaccent" unicode="&#x146;" horiz-adv-x="576" 
d="M177 0h-171l61 325q9 45 28 167h150l-7 -75h2q65 86 167 86q65 0 96 -36t31 -98q0 -38 -8 -84l-54 -285h-171l50 267q5 28 5 52q0 48 -37 48q-32 0 -60 -41t-43 -116zM143 -248l-17 77q28 4 50 21t22 43q0 27 -18 47l125 20q25 -25 25 -65q0 -69 -57 -105t-130 -38z" />
    <glyph glyph-name="Ncaron" unicode="&#x147;" horiz-adv-x="681" 
d="M172 0h-158l127 674h203l61 -203q37 -127 62 -249h3q5 110 32 255l37 197h159l-128 -674h-178l-68 220q-49 165 -67 253h-4q-10 -94 -46 -287zM494 710h-128l-80 130h115l36 -60h2l53 60h127z" />
    <glyph glyph-name="ncaron" unicode="&#x148;" horiz-adv-x="576" 
d="M177 0h-171l61 325q9 45 28 167h150l-7 -75h2q65 86 167 86q65 0 96 -36t31 -98q0 -38 -8 -84l-54 -285h-171l50 267q5 28 5 52q0 48 -37 48q-32 0 -60 -41t-43 -116zM389 550h-116l-78 156h107l38 -74h2l54 74h116z" />
    <glyph glyph-name="napostrophe" unicode="&#x149;" horiz-adv-x="576" 
d="M177 0h-171l61 325q9 45 28 167h150l-7 -75h2q65 86 167 86q65 0 96 -36t31 -98q0 -38 -8 -84l-54 -285h-171l50 267q5 28 5 52q0 48 -37 48q-32 0 -60 -41t-43 -116zM72 542l-19 76q18 5 32 24t14 41q0 28 -17 47l116 19q25 -25 25 -65q0 -67 -49.5 -104t-101.5 -38z
" />
    <glyph glyph-name="Eng" unicode="&#x14a;" horiz-adv-x="681" 
d="M288 -219l-18 137q45 5 79.5 24.5t43.5 46.5l-69 231q-45 147 -67 253h-4q-10 -94 -46 -287l-35 -186h-158l127 674h203l61 -203q37 -127 62 -249h3q5 110 32 255l37 197h159l-118 -621q-48 -261 -292 -272z" />
    <glyph glyph-name="eng" unicode="&#x14b;" horiz-adv-x="576" 
d="M228 -196l-16 139q43 3 65 25t31 69l43 230q5 28 5 52q0 48 -37 48q-32 0 -60 -41t-43 -116l-39 -210h-171l61 325q13 70 28 167h150l-7 -75h2q65 86 166 86q65 0 96.5 -36.5t31.5 -98.5q0 -37 -8 -83l-44 -231q-27 -140 -90 -194.5t-164 -55.5z" />
    <glyph glyph-name="Omacron" unicode="&#x14c;" horiz-adv-x="721" 
d="M330 -11h-1q-129 0 -205.5 79.5t-76.5 204.5q0 93 32.5 176t90.5 138q103 98 255 98q130 0 205 -77.5t75 -205.5q0 -94 -31.5 -177t-88.5 -138q-101 -98 -255 -98zM353 131h1q51 0 94 41q34 35 54.5 101t20.5 124q0 66 -28 106t-90 40q-56 0 -99 -43q-35 -35 -56 -99
t-21 -124q0 -68 31.5 -107t92.5 -39zM325 825h264l-18 -90h-263z" />
    <glyph glyph-name="omacron" unicode="&#x14d;" horiz-adv-x="575" 
d="M244 -11h-1q-96 0 -156 55t-60 149q0 132 84.5 221t218.5 89q98 0 156.5 -57t58.5 -145q0 -141 -85 -226.5t-216 -85.5zM266 118h1q33 0 57 31.5t34.5 71.5t10.5 78q0 75 -62 75q-34 0 -58.5 -33t-34.5 -72t-10 -73q0 -36 16 -57t46 -21zM238 670h258l-18 -89h-258z" />
    <glyph glyph-name="Obreve" unicode="&#x14e;" horiz-adv-x="721" 
d="M330 -11h-1q-129 0 -205.5 79.5t-76.5 204.5q0 93 32.5 176t90.5 138q103 98 255 98q130 0 205 -77.5t75 -205.5q0 -94 -31.5 -177t-88.5 -138q-101 -98 -255 -98zM353 131h1q51 0 94 41q34 35 54.5 101t20.5 124q0 66 -28 106t-90 40q-56 0 -99 -43q-35 -35 -56 -99
t-21 -124q0 -68 31.5 -107t92.5 -39zM308 848h92q0 -48 50 -48q52 0 61 48h94q-21 -130 -165 -130q-74 0 -106 35.5t-26 94.5z" />
    <glyph glyph-name="obreve" unicode="&#x14f;" horiz-adv-x="575" 
d="M244 -11h-1q-96 0 -156 55t-60 149q0 132 84.5 221t218.5 89q98 0 156.5 -57t58.5 -145q0 -141 -85 -226.5t-216 -85.5zM266 118h1q33 0 57 31.5t34.5 71.5t10.5 78q0 75 -62 75q-34 0 -58.5 -33t-34.5 -72t-10 -73q0 -36 16 -57t46 -21zM236 694h83q3 -25 11.5 -38.5
t31.5 -13.5q47 0 59 52h85q-22 -135 -152 -135q-68 0 -96.5 36t-21.5 99z" />
    <glyph glyph-name="Ohungarumlaut" unicode="&#x150;" horiz-adv-x="721" 
d="M330 -11h-1q-129 0 -205.5 79.5t-76.5 204.5q0 93 32.5 176t90.5 138q103 98 255 98q130 0 205 -77.5t75 -205.5q0 -94 -31.5 -177t-88.5 -138q-101 -98 -255 -98zM353 131h1q51 0 94 41q34 35 54.5 101t20.5 124q0 66 -28 106t-90 40q-56 0 -99 -43q-35 -35 -56 -99
t-21 -124q0 -68 31.5 -107t92.5 -39zM352 842h160l-119 -122h-123zM549 842h160l-118 -122h-123z" />
    <glyph glyph-name="ohungarumlaut" unicode="&#x151;" horiz-adv-x="575" 
d="M244 -11h-1q-96 0 -156 55t-60 149q0 132 84.5 221t218.5 89q98 0 156.5 -57t58.5 -145q0 -141 -85 -226.5t-216 -85.5zM266 118h1q33 0 57 31.5t34.5 71.5t10.5 78q0 75 -62 75q-34 0 -58.5 -33t-34.5 -72t-10 -73q0 -36 16 -57t46 -21zM257 706h138l-118 -157h-100z
M445 706h138l-118 -157h-100z" />
    <glyph glyph-name="OE" unicode="&#x152;" horiz-adv-x="927" 
d="M867 145l-26 -145h-370q-15 0 -50 -5q-30 -6 -85 -6q-136 0 -215.5 79t-79.5 206q0 177 113.5 294t298.5 117q30 0 93 -6q48 -5 68 -5h339l-27 -145h-253l-20 -113h237l-26 -144h-239l-23 -127h265zM429 139l75 394q-23 10 -63 10q-92 0 -154.5 -75.5t-62.5 -182.5
q0 -71 42 -112.5t108 -41.5q29 0 55 8z" />
    <glyph glyph-name="oe" unicode="&#x153;" horiz-adv-x="837" 
d="M749 150l8 -119q-73 -42 -184 -42q-115 0 -167 74h-3q-60 -74 -170 -74q-91 0 -149 57t-58 156q0 132 79.5 216.5t194.5 84.5q113 0 161 -75h2q67 75 176 75q84 0 131 -44t47 -105q0 -52 -26.5 -89t-72.5 -55.5t-98 -25.5t-113 -5q0 -17 16 -31q31 -28 90 -26
q72 0 136 28zM263 120h1q48 0 75 56.5t27 117.5q0 83 -60 83q-49 0 -76.5 -56t-27.5 -118q0 -37 16.5 -60t44.5 -23zM659 341v1q0 38 -52 38q-34 0 -55.5 -24.5t-27.5 -53.5q135 -6 135 39z" />
    <glyph glyph-name="Racute" unicode="&#x154;" horiz-adv-x="610" 
d="M14 0l127 660q73 19 194 19q120 0 185 -35q85 -46 85 -140q0 -135 -149 -189l-1 -3q49 -25 60 -118q3 -22 7.5 -70.5t9 -80t10.5 -43.5h-175q-10 33 -20 158q-5 55 -24.5 75.5t-60.5 20.5h-31l-48 -254h-169zM286 541l-30 -161h53q51 0 85 27t34 71q0 33 -26 50t-66 17
q-28 0 -50 -4zM367 840h183l-130 -130h-143z" />
    <glyph glyph-name="racute" unicode="&#x155;" horiz-adv-x="392" 
d="M177 0h-171l54 283q6 35 11 76t9 81.5t5 51.5h147q-4 -63 -7 -98h3q61 109 159 109q19 0 29 -1l-34 -165h-22q-69 0 -103 -45t-49 -124zM257 706h161l-129 -156h-124z" />
    <glyph glyph-name="Rcommaaccent" unicode="&#x156;" horiz-adv-x="610" 
d="M14 0l127 660q73 19 194 19q120 0 185 -35q85 -46 85 -140q0 -135 -149 -189l-1 -3q49 -25 60 -118q3 -22 7.5 -70.5t9 -80t10.5 -43.5h-175q-10 33 -20 158q-5 55 -24.5 75.5t-60.5 20.5h-31l-48 -254h-169zM286 541l-30 -161h53q51 0 85 27t34 71q0 33 -26 50t-66 17
q-28 0 -50 -4zM160 -248l-17 77q28 4 50 21t22 43q0 27 -18 47l125 20q25 -25 25 -65q0 -69 -57 -105t-130 -38z" />
    <glyph glyph-name="rcommaaccent" unicode="&#x157;" horiz-adv-x="392" 
d="M177 0h-171l54 283q6 35 11 76t9 81.5t5 51.5h147q-4 -63 -7 -98h3q61 109 159 109q19 0 29 -1l-34 -165h-22q-69 0 -103 -45t-49 -124zM-2 -248l-17 77q28 4 50.5 21t22.5 43q0 28 -19 47l125 20q25 -25 25 -65q0 -69 -57 -105t-130 -38z" />
    <glyph glyph-name="Rcaron" unicode="&#x158;" horiz-adv-x="610" 
d="M14 0l127 660q73 19 194 19q120 0 185 -35q85 -46 85 -140q0 -135 -149 -189l-1 -3q49 -25 60 -118q3 -22 7.5 -70.5t9 -80t10.5 -43.5h-175q-10 33 -20 158q-5 55 -24.5 75.5t-60.5 20.5h-31l-48 -254h-169zM286 541l-30 -161h53q51 0 85 27t34 71q0 33 -26 50t-66 17
q-28 0 -50 -4zM426 710h-129l-79 130h115l36 -60h2l53 60h127z" />
    <glyph glyph-name="rcaron" unicode="&#x159;" horiz-adv-x="392" 
d="M177 0h-171l54 283q6 35 11 76t9 81.5t5 51.5h147q-4 -63 -7 -98h3q61 109 159 109q19 0 29 -1l-34 -165h-22q-69 0 -103 -45t-49 -124zM309 550h-115l-78 156h107l38 -74h2l54 74h116z" />
    <glyph glyph-name="Sacute" unicode="&#x15a;" horiz-adv-x="529" 
d="M-5 38l56 141q73 -43 166 -43q38 0 64 15t26 43q0 23 -20 40t-68 42q-63 34 -102.5 76t-39.5 105q0 104 80.5 166t201.5 62q103 0 169 -33l-53 -142q-61 30 -129 28q-43 0 -66 -15t-23 -38q0 -20 19.5 -35.5t62.5 -39.5l4.5 -3t4.5 -2.5l5 -2.5q136 -71 136 -177
q0 -59 -24 -105.5t-64.5 -74.5t-91.5 -42t-108 -14q-136 3 -206 49zM349 840h183l-131 -130h-143z" />
    <glyph glyph-name="sacute" unicode="&#x15b;" horiz-adv-x="436" 
d="M-9 30l40 118q78 -36 138 -35q48 0 48 29q0 14 -13 25.5t-45 25.5q-110 53 -110 133q0 81 64.5 129t167.5 48q88 0 136 -26l-39 -118q-51 21 -104 21t-53 -30q0 -21 56 -46q24 -11 41.5 -22t36.5 -27.5t29.5 -38.5t10.5 -48q0 -86 -66.5 -133t-175.5 -46q-110 3 -162 41z
M276 706h161l-129 -156h-124z" />
    <glyph glyph-name="Scircumflex" unicode="&#x15c;" horiz-adv-x="529" 
d="M-5 38l56 141q73 -43 166 -43q38 0 64 15t26 43q0 23 -20 40t-68 42q-63 34 -102.5 76t-39.5 105q0 104 80.5 166t201.5 62q103 0 169 -33l-53 -142q-61 30 -129 28q-43 0 -66 -15t-23 -38q0 -20 19.5 -35.5t62.5 -39.5l4.5 -3t4.5 -2.5l5 -2.5q136 -71 136 -177
q0 -59 -24 -105.5t-64.5 -74.5t-91.5 -42t-108 -14q-136 3 -206 49zM309 840h129l80 -130h-116l-36 57h-2l-53 -57h-127z" />
    <glyph glyph-name="scircumflex" unicode="&#x15d;" horiz-adv-x="436" 
d="M-9 30l40 118q78 -36 138 -35q48 0 48 29q0 14 -13 25.5t-45 25.5q-110 53 -110 133q0 81 64.5 129t167.5 48q88 0 136 -26l-39 -118q-51 21 -104 21t-53 -30q0 -21 56 -46q24 -11 41.5 -22t36.5 -27.5t29.5 -38.5t10.5 -48q0 -86 -66.5 -133t-175.5 -46q-110 3 -162 41z
M238 706h115l78 -156h-107l-38 73h-2l-54 -73h-116z" />
    <glyph glyph-name="Scedilla" unicode="&#x15e;" horiz-adv-x="529" 
d="M528 652l-53 -142q-58 29 -129 28q-43 -1 -66 -15.5t-23 -37.5q0 -20 19.5 -35.5t62.5 -39.5l4.5 -3t4.5 -2.5l5 -2.5q136 -71 136 -177q0 -97 -58.5 -155t-153.5 -74l-24 -36q28 -7 46 -25.5t18 -43.5q0 -52 -41 -75.5t-93 -23.5q-54 0 -83 22l27 63q27 -16 55 -16
q33 0 33 24q0 30 -74 35l44 69h-4q-41 0 -97 13t-89 36l56 141q73 -43 166 -43q38 0 64 15t26 43q0 23 -20 40t-68 42q-63 34 -102.5 76t-39.5 105q0 104 80.5 166t201.5 62q103 0 169 -33z" />
    <glyph glyph-name="scedilla" unicode="&#x15f;" horiz-adv-x="436" 
d="M417 477l-39 -118q-51 21 -104 21t-53 -30q0 -21 56 -45q24 -11 41.5 -22t36.5 -27.5t29.5 -39t10.5 -48.5q0 -68 -43.5 -112.5t-119.5 -59.5l-24 -36q28 -7 46 -24.5t18 -40.5q0 -52 -41 -75.5t-93 -23.5q-54 0 -83 22l27 60q26 -17 55 -17q33 0 33 24q0 30 -74 35
l44 70h-3q-34 0 -79 11.5t-67 28.5l40 118q78 -36 138 -35q48 0 48 29q0 14 -13 25.5t-45 25.5q-110 53 -110 133q0 81 64.5 129t167.5 48q88 0 136 -26z" />
    <glyph glyph-name="Scaron" unicode="&#x160;" horiz-adv-x="529" 
d="M-5 38l56 141q73 -43 166 -43q38 0 64 15t26 43q0 23 -20 40t-68 42q-63 34 -102.5 76t-39.5 105q0 104 80.5 166t201.5 62q103 0 169 -33l-53 -142q-61 30 -129 28q-43 0 -66 -15t-23 -38q0 -20 19.5 -35.5t62.5 -39.5l4.5 -3t4.5 -2.5l5 -2.5q136 -71 136 -177
q0 -59 -24 -105.5t-64.5 -74.5t-91.5 -42t-108 -14q-136 3 -206 49zM412 710h-129l-80 130h116l35 -60h2l53 60h128z" />
    <glyph glyph-name="scaron" unicode="&#x161;" horiz-adv-x="436" 
d="M-9 30l40 118q78 -36 138 -35q48 0 48 29q0 14 -13 25.5t-45 25.5q-110 53 -110 133q0 81 64.5 129t167.5 48q88 0 136 -26l-39 -118q-51 21 -104 21t-53 -30q0 -21 56 -46q24 -11 41.5 -22t36.5 -27.5t29.5 -38.5t10.5 -48q0 -86 -66.5 -133t-175.5 -46q-110 3 -162 41z
M330 550h-115l-78 156h107l38 -74h2l54 74h116z" />
    <glyph glyph-name="Tcommaaccent" unicode="&#x162;" horiz-adv-x="550" 
d="M139 0l98 525h-169l29 149h512l-28 -149h-173l-99 -525h-170zM119 -248l-17 77q27 4 49.5 21t22.5 43q0 27 -18 47l124 20q25 -23 25 -65q0 -69 -56.5 -105t-129.5 -38z" />
    <glyph glyph-name="tcommaaccent" unicode="&#x163;" horiz-adv-x="364" 
d="M134 585l175 47l-26 -140h100l-25 -129h-100l-28 -136q-7 -37 -7 -55q0 -39 40 -39q26 0 40 2l-22 -134q-32 -12 -94 -12q-68 0 -103.5 30t-35.5 81q0 35 10 91l34 172h-60l25 129h60zM36 -248l-16 77q27 4 49.5 21t22.5 43q0 28 -19 47l125 20q25 -25 25 -65
q0 -69 -56.5 -105t-130.5 -38z" />
    <glyph glyph-name="Tcaron" unicode="&#x164;" horiz-adv-x="550" 
d="M139 0l98 525h-169l29 149h512l-28 -149h-173l-99 -525h-170zM424 710h-129l-80 130h116l35 -60h2l53 60h128z" />
    <glyph glyph-name="tcaron" unicode="&#x165;" horiz-adv-x="364" 
d="M134 585l175 47l-26 -140h100l-25 -129h-100l-28 -136q-7 -37 -7 -55q0 -39 40 -39q26 0 40 2l-22 -134q-32 -12 -94 -12q-68 0 -103.5 30t-35.5 81q0 35 10 91l34 172h-60l25 129h60zM395 533l-40 69q16 8 25 25.5t9 35.5q0 22 -13 48l111 19q11 -9 19.5 -28.5
t8.5 -37.5q0 -55 -39 -89t-81 -42z" />
    <glyph glyph-name="Tbar" unicode="&#x166;" horiz-adv-x="550" 
d="M480 277h-118l-53 -277h-170l52 277h-114l20 103h113l27 145h-169l29 149h512l-28 -149h-173l-27 -145h119z" />
    <glyph glyph-name="tbar" unicode="&#x167;" horiz-adv-x="364" 
d="M35 313h47l10 50h-60l25 129h60l17 93l175 47l-26 -140h100l-25 -129h-100l-10 -50h91l-18 -89h-91l-4 -22q-3 -17 -3 -30q0 -39 40 -39q26 0 40 2l-22 -134q-32 -12 -94 -12q-68 0 -103.5 30t-35.5 81q0 35 10 91l7 33h-48z" />
    <glyph glyph-name="Utilde" unicode="&#x168;" horiz-adv-x="670" 
d="M138 674h170l-72 -382q-8 -35 -8 -78q1 -34 23 -58.5t64 -24.5q52 0 84 37.5t48 121.5l72 384h171l-71 -374q-30 -160 -104.5 -235.5t-220.5 -75.5q-114 -2 -175 55.5t-61 166.5q0 42 10 95zM362 715h-81q10 69 38.5 103t67.5 34q30 0 64 -20q27 -20 39 -20
q13 0 19.5 9.5t14.5 35.5h80q-20 -135 -109 -135q-33 0 -64 18q-30 19 -39 19q-21 0 -30 -44z" />
    <glyph glyph-name="utilde" unicode="&#x169;" horiz-adv-x="575" 
d="M392 492h171l-61 -324q-6 -29 -11 -59.5t-10 -62t-8 -46.5h-150l8 75h-2q-71 -86 -168 -86q-124 0 -124 136q0 44 10 94l51 273h171l-49 -259q-7 -35 -7 -62q0 -44 37 -44q33 0 60.5 39t40.5 108zM286 554h-80q10 67 37 102.5t67 35.5q31 0 63 -20q30 -20 39 -20
q11 0 18 9t14 35h78q-19 -134 -106 -134q-39 0 -66 20q-22 17 -36 17q-18 0 -28 -45z" />
    <glyph glyph-name="Umacron" unicode="&#x16a;" horiz-adv-x="670" 
d="M138 674h170l-72 -382q-8 -35 -8 -78q1 -34 23 -58.5t64 -24.5q52 0 84 37.5t48 121.5l72 384h171l-71 -374q-30 -160 -104.5 -235.5t-220.5 -75.5q-114 -2 -175 55.5t-61 166.5q0 42 10 95zM311 825h264l-18 -90h-264z" />
    <glyph glyph-name="umacron" unicode="&#x16b;" horiz-adv-x="575" 
d="M392 492h171l-61 -324q-6 -29 -11 -59.5t-10 -62t-8 -46.5h-150l8 75h-2q-71 -86 -168 -86q-124 0 -124 136q0 44 10 94l51 273h171l-49 -259q-7 -35 -7 -62q0 -44 37 -44q33 0 60.5 39t40.5 108zM238 670h258l-18 -89h-258z" />
    <glyph glyph-name="Ubreve" unicode="&#x16c;" horiz-adv-x="670" 
d="M138 674h170l-72 -382q-8 -35 -8 -78q1 -34 23 -58.5t64 -24.5q52 0 84 37.5t48 121.5l72 384h171l-71 -374q-30 -160 -104.5 -235.5t-220.5 -75.5q-114 -2 -175 55.5t-61 166.5q0 42 10 95zM293 840h92q0 -48 50 -48q52 0 61 48h94q-10 -59 -50 -94.5t-115 -35.5
q-74 0 -106 36t-26 94z" />
    <glyph glyph-name="ubreve" unicode="&#x16d;" horiz-adv-x="575" 
d="M392 492h171l-61 -324q-6 -29 -11 -59.5t-10 -62t-8 -46.5h-150l8 75h-2q-71 -86 -168 -86q-124 0 -124 136q0 44 10 94l51 273h171l-49 -259q-7 -35 -7 -62q0 -44 37 -44q33 0 60.5 39t40.5 108zM230 694h84q2 -25 11 -38.5t32 -13.5q47 0 59 52h84q-9 -63 -47 -99
t-105 -36q-68 0 -96.5 36t-21.5 99z" />
    <glyph glyph-name="Uring" unicode="&#x16e;" horiz-adv-x="670" 
d="M138 674h170l-72 -382q-8 -35 -8 -78q1 -34 23 -58.5t64 -24.5q52 0 84 37.5t48 121.5l72 384h171l-71 -374q-30 -160 -104.5 -235.5t-220.5 -75.5q-114 -2 -175 55.5t-61 166.5q0 42 10 95zM435 893h1q49 0 81.5 -24t32.5 -68q-1 -49 -38.5 -77t-95.5 -28q-46 0 -78 24
t-34 65q-1 49 36 78.5t95 29.5zM430 839h-1q-21 0 -33.5 -14t-12.5 -35q0 -17 10.5 -28.5t29.5 -11.5q21 0 34 13.5t13 32.5t-10.5 31t-29.5 12z" />
    <glyph glyph-name="uring" unicode="&#x16f;" horiz-adv-x="575" 
d="M392 492h171l-61 -324q-6 -29 -11 -59.5t-10 -62t-8 -46.5h-150l8 75h-2q-71 -86 -168 -86q-124 0 -124 136q0 44 10 94l51 273h171l-49 -259q-7 -35 -7 -62q0 -44 37 -44q33 0 60.5 39t40.5 108zM369 741h1q48 0 80 -24.5t32 -70.5q-1 -50 -38 -78t-94 -28q-46 0 -78 24
t-33 66q-1 51 35.5 81t94.5 30zM363 686h-1q-21 0 -33.5 -14.5t-12.5 -35.5q0 -17 11 -29t30 -12q22 0 35 14t13 33q0 44 -42 44z" />
    <glyph glyph-name="Uhungarumlaut" unicode="&#x170;" horiz-adv-x="670" 
d="M138 674h170l-72 -382q-8 -35 -8 -78q1 -34 23 -58.5t64 -24.5q52 0 84 37.5t48 121.5l72 384h171l-71 -374q-30 -160 -104.5 -235.5t-220.5 -75.5q-114 -2 -175 55.5t-61 166.5q0 42 10 95zM326 842h160l-118 -122h-123zM524 842h160l-119 -122h-123z" />
    <glyph glyph-name="uhungarumlaut" unicode="&#x171;" horiz-adv-x="575" 
d="M392 492h171l-61 -324q-6 -29 -11 -59.5t-10 -62t-8 -46.5h-150l8 75h-2q-71 -86 -168 -86q-124 0 -124 136q0 44 10 94l51 273h171l-49 -259q-7 -35 -7 -62q0 -44 37 -44q33 0 60.5 39t40.5 108zM265 706h138l-119 -157h-99zM453 706h138l-118 -157h-100z" />
    <glyph glyph-name="Uogonek" unicode="&#x172;" horiz-adv-x="670" 
d="M392 -109l21 -84q-45 -32 -119 -32q-46 0 -72.5 24t-26.5 66q0 30 19.5 64t52.5 61q-2 0 -7 0.5t-8 0.5q-93 9 -143.5 65.5t-50.5 154.5q0 42 10 95l70 368h170l-72 -382q-8 -35 -8 -78q1 -34 23 -58.5t64 -24.5q52 0 84 37.5t48 121.5l72 384h171l-71 -374
q-23 -121 -69.5 -192.5t-128.5 -99.5q-22 -7 -42 -21q-27 -17 -43 -39.5t-16 -38.5q0 -25 26 -25q18 0 46 7z" />
    <glyph glyph-name="uogonek" unicode="&#x173;" horiz-adv-x="575" 
d="M563 492l-61 -324q-6 -29 -11 -59.5t-10 -62t-8 -46.5h-57q-29 -43 -29 -75q0 -40 44 -40q18 0 48 9l9 -82q-46 -37 -116 -37q-50 0 -78 24.5t-28 70.5q0 58 58 131l7 74h-2q-71 -86 -168 -86q-124 0 -124 136q0 44 10 94l51 273h171l-49 -259q-7 -35 -7 -62
q0 -44 37 -44q33 0 60.5 39t40.5 108l41 218h171z" />
    <glyph glyph-name="Wcircumflex" unicode="&#x174;" horiz-adv-x="879" 
d="M303 0h-190l-23 674h172l-5 -254q-5 -181 -7 -238h2q16 44 46 128t38 108l92 256h189l-9 -263q-5 -131 -10 -224h2q39 122 78 233l88 254h180l-290 -674h-188l1 230q2 142 8 237h-2q-69 -202 -88 -249zM484 840h129l80 -130h-116l-36 57h-2l-53 -57h-127z" />
    <glyph glyph-name="wcircumflex" unicode="&#x175;" horiz-adv-x="745" 
d="M47 492h173l-6 -180q-2 -85 -7 -167h2q11 36 62 163l76 184h137l4 -176q2 -112 -1 -171h2q11 37 58 176l62 171h172l-237 -492h-161l-6 130q-3 54 -3 169h-2q-57 -157 -59 -160l-59 -139h-161zM395 706h116l77 -156h-106l-39 73h-2l-54 -73h-116z" />
    <glyph glyph-name="Ycircumflex" unicode="&#x176;" horiz-adv-x="593" 
d="M317 0h-171l52 272l-133 402h183l33 -151q23 -113 25 -126h2q12 23 35 66t32 60l83 151h204l-293 -397zM323 840h129l80 -130h-116l-36 57h-2l-53 -57h-127z" />
    <glyph glyph-name="ycircumflex" unicode="&#x177;" horiz-adv-x="522" 
d="M41 492h180l22 -193q2 -17 5.5 -42t5.5 -41t3 -29h2q28 83 39 113l74 192h179l-171 -344q-101 -203 -198 -291q-39 -36 -85.5 -57.5t-77.5 -26.5l-38 147q44 11 81 35q49 31 73 73q6 9 3 25zM275 706h116l77 -156h-106l-39 73h-2l-54 -73h-116z" />
    <glyph glyph-name="Ydieresis" unicode="&#x178;" horiz-adv-x="593" 
d="M317 0h-171l52 272l-133 402h183l33 -151q23 -113 25 -126h2q12 23 35 66t32 60l83 151h204l-293 -397zM259 708h-1q-29 0 -50 19.5t-21 50.5q0 37 23.5 59.5t58.5 22.5q32 0 51.5 -20t19.5 -51q0 -36 -23.5 -58.5t-57.5 -22.5zM476 708h-1q-29 0 -50.5 19.5t-21.5 50.5
q0 37 24 59.5t59 22.5q31 0 51 -20.5t20 -50.5q0 -36 -23.5 -58.5t-57.5 -22.5z" />
    <glyph glyph-name="Zacute" unicode="&#x179;" horiz-adv-x="567" 
d="M-28 0l18 97l362 427v3h-253l28 147h483l-20 -105l-353 -418v-4h278l-27 -147h-516zM371 840h182l-130 -130h-143z" />
    <glyph glyph-name="zacute" unicode="&#x17a;" horiz-adv-x="465" 
d="M-27 0l18 102l126 132q53 54 128 118l2 2h-193l27 138h397l-20 -107l-122 -127q-62 -65 -127 -118v-2h212l-27 -138h-421zM301 706h161l-129 -156h-124z" />
    <glyph glyph-name="Zdotaccent" unicode="&#x17b;" horiz-adv-x="567" 
d="M-28 0l18 97l362 427v3h-253l28 147h483l-20 -105l-353 -418v-4h278l-27 -147h-516zM372 708h-1q-30 0 -51.5 19.5t-21.5 51.5q0 37 24.5 60t59.5 23q32 0 52.5 -21t20.5 -51q0 -36 -24.5 -59t-58.5 -23z" />
    <glyph glyph-name="zdotaccent" unicode="&#x17c;" horiz-adv-x="465" 
d="M-27 0l18 102l126 132q53 54 128 118l2 2h-193l27 138h397l-20 -107l-122 -127q-62 -65 -127 -118v-2h212l-27 -138h-421zM295 546h-1q-31 0 -53 20t-22 54q0 38 24.5 62t61.5 24q33 0 54 -21t21 -53q0 -39 -24.5 -62.5t-60.5 -23.5z" />
    <glyph glyph-name="Zcaron" unicode="&#x17d;" horiz-adv-x="567" 
d="M-28 0l18 97l362 427v3h-253l28 147h483l-20 -105l-353 -418v-4h278l-27 -147h-516zM430 710h-129l-80 130h116l35 -60h2l53 60h128z" />
    <glyph glyph-name="zcaron" unicode="&#x17e;" horiz-adv-x="465" 
d="M-27 0l18 102l126 132q53 54 128 118l2 2h-193l27 138h397l-20 -107l-122 -127q-62 -65 -127 -118v-2h212l-27 -138h-421zM342 550h-116l-77 156h106l39 -74h2l54 74h116z" />
    <glyph glyph-name="florin" unicode="&#x192;" horiz-adv-x="562" 
d="M113 294l18 121h86l6 28q5 22 12 43.5t26 55.5t44 58.5t68 42.5t95 18q55 0 85 -19l-42 -121q-20 9 -46 9q-56 0 -73 -73l-10 -42h95l-17 -121h-108l-41 -176q-23 -97 -74 -154.5t-150 -57.5q-57 0 -93 20l34 121q19 -9 48 -9q28 0 47 27.5t39 111.5l25 117h-74z" />
    <glyph glyph-name="Ohorn" unicode="&#x1a0;" horiz-adv-x="721" 
d="M655 745l126 20q18 -38 18 -89q0 -59 -32.5 -97t-89.5 -43q28 -56 28 -134q0 -94 -31.5 -177t-88.5 -138q-101 -98 -256 -98q-129 0 -205.5 79.5t-76.5 204.5q0 93 32.5 176t90.5 138q103 98 255 98q71 0 128 -25q4 -2 23 -12t32 -14.5t24 -4.5q39 0 39 50q0 28 -16 66z
M405 543q-56 0 -99 -43q-35 -35 -56 -99t-21 -124q0 -68 32 -107t93 -39q51 0 94 41q34 35 54.5 101t20.5 124q0 66 -28 106t-90 40z" />
    <glyph glyph-name="ohorn" unicode="&#x1a1;" horiz-adv-x="580" 
d="M307 374q-34 0 -58.5 -33t-34.5 -72t-10 -73q0 -37 16.5 -57.5t46.5 -20.5q33 0 57 31.5t34.5 71.5t10.5 78q0 75 -62 75zM514 571l123 20q13 -37 13 -77q0 -60 -31 -96t-86 -44q12 -33 12 -73q0 -141 -85.5 -226.5t-216.5 -85.5q-96 0 -156 55t-60 149q0 132 84.5 221
t218.5 89q51 0 90 -15q8 -3 22.5 -10.5t25.5 -11.5t20 -4q40 0 40 47q0 27 -14 62z" />
    <glyph glyph-name="Uhorn" unicode="&#x1af;" horiz-adv-x="692" 
d="M673 587l-54 -287q-30 -160 -104.5 -235.5t-220.5 -75.5q-114 -2 -175 55.5t-61 166.5q0 42 10 95l70 368h170l-72 -382q-8 -35 -8 -78q1 -34 23 -58.5t64 -24.5q52 0 84 37.5t48 121.5l72 384h123q64 0 64 57q0 30 -11 56l122 21q10 -30 10 -63q0 -71 -41 -112.5
t-113 -45.5z" />
    <glyph glyph-name="uhorn" unicode="&#x1b0;" horiz-adv-x="604" 
d="M566 605l123 21q10 -30 10 -65q0 -65 -39.5 -108.5t-112.5 -46.5l-45 -238q-6 -29 -11 -59.5t-10 -62t-8 -46.5h-150l8 75h-2q-71 -86 -168 -86q-124 0 -124 136q0 44 10 94l51 273h171l-49 -259q-7 -35 -7 -62q0 -44 37 -44q33 0 60.5 39t40.5 108l41 218h122
q65 0 65 57q0 23 -13 56z" />
    <glyph glyph-name="uni01FA" unicode="&#x1fa;" horiz-adv-x="640" 
d="M416 694q-50 0 -79 24.5t-29 64.5q0 42 34 70.5t88 28.5q50 0 78 -24t28 -66q0 -41 -32.5 -69.5t-87.5 -28.5zM420 750q21 0 33 11.5t12 27.5t-11.5 27t-30.5 11q-20 0 -31.5 -11.5t-11.5 -28.5q0 -16 11 -26.5t29 -10.5zM472 994h183l-152 -95h-143zM398 159h-177
l-67 -159h-183l320 674h223l72 -674h-180zM269 287h123l-7 124q-1 15 -4 63.5t-5 72.5h-2q-6 -14 -24.5 -64.5t-28.5 -71.5z" />
    <glyph glyph-name="uni01FB" unicode="&#x1fb;" horiz-adv-x="568" 
d="M483 0h-156q1 14 2 42.5t2 42.5h-2q-55 -96 -155 -96q-67 0 -109.5 48t-42.5 127q0 64 20.5 122.5t62 108t112.5 79t162 29.5q90 0 175 -27l-52 -258q-22 -117 -19 -218zM343 273l20 99q-17 3 -31 3q-56 0 -94 -59t-38 -120q0 -70 49 -70q28 0 53.5 34t40.5 113zM447 867
h160l-156 -115h-124zM390 728h1q48 0 80.5 -24.5t32.5 -70.5q-2 -50 -39 -78t-94 -28q-46 0 -78 24t-33 66q-1 51 35.5 81t94.5 30zM385 673h-1q-21 0 -34 -14t-13 -36q0 -17 11 -29t30 -12q22 0 35 14t13 33q0 44 -41 44z" />
    <glyph glyph-name="AEacute" unicode="&#x1fc;" horiz-adv-x="876" 
d="M135 0h-182l398 674h529l-27 -145h-258l-8 -117h245l-26 -143h-223l-6 -124h252l-27 -145h-398l9 162h-191zM301 303h118l10 151q4 62 6 94h-3q-23 -48 -48 -97zM554 840h183l-131 -130h-143z" />
    <glyph glyph-name="aeacute" unicode="&#x1fd;" horiz-adv-x="783" 
d="M697 151l2 -120q-75 -42 -189 -42q-53 0 -97 20.5t-66 57.5h-4q-73 -78 -182 -78q-69 0 -113.5 39.5t-44.5 100.5q0 55 29.5 96t78 63.5t100.5 33.5t106 11l2 8q1 8 -4.5 17.5t-24 18t-45.5 8.5q-73 0 -141 -44l-25 107q85 55 187 55q109 0 148 -69h3q62 69 168 69
q87 0 133 -43t46 -100q0 -183 -318 -169q0 -23 10 -36q27 -33 97 -33q71 0 144 29zM294 184l7 40q-27 0 -53 -4.5t-50.5 -20.5t-24.5 -41q0 -40 47 -40q26 0 46.5 17.5t27.5 48.5zM600 343v1q0 15 -12.5 26t-36.5 11q-37 0 -60.5 -24.5t-27.5 -50.5q137 -10 137 37zM453 706
h160l-129 -156h-123z" />
    <glyph glyph-name="Oslashacute" unicode="&#x1fe;" horiz-adv-x="717" 
d="M117 -77l-80 75l70 86q-62 75 -62 198q0 186 124 304q101 99 245 99q95 0 155 -36l72 90l86 -67l-76 -95q51 -64 52 -183q0 -91 -31.5 -171t-87.5 -134q-102 -100 -248 -100q-83 0 -139 31zM228 229l240 299q-25 17 -62 17q-57 0 -102.5 -42.5t-67.5 -105.5
q-29 -81 -11 -168h3zM525 427l-229 -285q19 -12 53 -12q55 0 97.5 39t64.5 101q25 68 17 157h-3zM443 844h183l-130 -130h-143z" />
    <glyph glyph-name="oslashacute" unicode="&#x1ff;" horiz-adv-x="575" 
d="M59 -64l-44 46l63 74q-51 53 -51 140q0 130 84.5 218.5t216.5 88.5q65 0 111 -25l66 75l49 -44l-62 -71q53 -54 53 -138q0 -142 -84.5 -226.5t-208.5 -84.5q-76 0 -122 28zM203 194l141 173q-16 14 -38 14q-33 0 -58 -30.5t-35.5 -64t-11.5 -61.5q-1 -10 -1 -30zM369 296
l-143 -169q14 -15 41 -15q48 0 75 49.5t29 103.5q1 9 1 31h-3zM360 706h161l-129 -156h-124z" />
    <glyph glyph-name="Scommaaccent" unicode="&#x218;" horiz-adv-x="529" 
d="M-5 38l56 141q73 -43 166 -43q38 0 64 15t26 43q0 23 -20 40t-68 42q-63 34 -102.5 76t-39.5 105q0 104 80.5 166t201.5 62q103 0 169 -33l-53 -142q-61 30 -129 28q-43 0 -66 -15t-23 -38q0 -20 19.5 -35.5t62.5 -39.5l4.5 -3t4.5 -2.5l5 -2.5q136 -71 136 -177
q0 -59 -24 -105.5t-64.5 -74.5t-91.5 -42t-108 -14q-136 3 -206 49zM119 -248l-16 77q27 4 49.5 21t22.5 43q0 28 -19 47l125 20q25 -25 25 -65q0 -69 -57 -105t-130 -38z" />
    <glyph glyph-name="scommaaccent" unicode="&#x219;" horiz-adv-x="436" 
d="M-9 30l40 118q78 -36 138 -35q48 0 48 29q0 14 -13 25.5t-45 25.5q-110 53 -110 133q0 81 64.5 129t167.5 48q88 0 136 -26l-39 -118q-51 21 -104 21t-53 -30q0 -21 56 -46q24 -11 41.5 -22t36.5 -27.5t29.5 -38.5t10.5 -48q0 -86 -66.5 -133t-175.5 -46q-110 3 -162 41z
M70 -248l-17 77q28 4 50 21t22 43q0 27 -18 47l125 20q25 -25 25 -65q0 -69 -57 -105t-130 -38z" />
    <glyph glyph-name="uni021A" unicode="&#x21a;" horiz-adv-x="550" 
d="M139 0l98 525h-169l29 149h512l-28 -149h-173l-99 -525h-170zM119 -248l-17 77q27 4 49.5 21t22.5 43q0 27 -18 47l124 20q25 -23 25 -65q0 -69 -56.5 -105t-129.5 -38z" />
    <glyph glyph-name="uni021B" unicode="&#x21b;" horiz-adv-x="364" 
d="M134 585l175 47l-26 -140h100l-25 -129h-100l-28 -136q-7 -37 -7 -55q0 -39 40 -39q26 0 40 2l-22 -134q-32 -12 -94 -12q-68 0 -103.5 30t-35.5 81q0 35 10 91l34 172h-60l25 129h60zM36 -248l-16 77q27 4 49.5 21t22.5 43q0 28 -19 47l125 20q25 -25 25 -65
q0 -69 -56.5 -105t-130.5 -38z" />
    <glyph glyph-name="uni021C" unicode="&#x21c;" horiz-adv-x="536" 
d="M9 -130l-12 135q132 7 217.5 53.5t85.5 115.5q0 33 -20 56.5t-72 23.5q-42 0 -90 -15l-18 114q83 17 145 52.5t62 86.5q0 27 -22.5 42t-55.5 15q-41 0 -104 -28l-27 111q89 53 204 53q91 0 140 -42.5t50 -104.5q0 -57 -34.5 -98.5t-104.5 -76.5v-2q61 -12 98.5 -59.5
t37.5 -105.5q0 -100 -69.5 -174t-175.5 -110t-235 -42z" />
    <glyph glyph-name="uni021D" unicode="&#x21d;" horiz-adv-x="459" 
d="M-44 -208l-9 135q23 0 52 3t71.5 12t76.5 23t58.5 39.5t24.5 58.5q0 24 -20.5 40t-64.5 16q-36 0 -84 -13l-15 115q54 11 90.5 22.5t66.5 34t30 52.5q-3 36 -61 36q-42 0 -101 -26l-30 107q95 56 201 56q77 0 123 -37t46 -86q0 -54 -26 -87.5t-92 -62.5v-2
q56 -12 88.5 -52t32.5 -88q0 -72 -44 -130.5t-113.5 -93.5t-147.5 -53.5t-153 -18.5z" />
    <glyph glyph-name="uni0232" unicode="&#x232;" horiz-adv-x="593" 
d="M317 0h-171l52 272l-133 402h183l33 -151q23 -113 25 -126h2q12 23 35 66t32 60l83 151h204l-293 -397zM272 825h264l-18 -90h-264z" />
    <glyph glyph-name="uni0233" unicode="&#x233;" horiz-adv-x="522" 
d="M211 670h258l-18 -89h-258zM41 492h180l22 -193q2 -17 5.5 -42t5.5 -41t3 -29h2q28 83 39 113l74 192h179l-171 -344q-101 -203 -198 -291q-39 -36 -85.5 -57.5t-77.5 -26.5l-38 147q44 11 81 35q49 31 73 73q6 9 3 25z" />
    <glyph glyph-name="circumflex" unicode="&#x2c6;" 
d="M222 706h116l78 -156h-107l-38 73h-2l-54 -73h-116z" />
    <glyph glyph-name="caron" unicode="&#x2c7;" 
d="M321 550h-116l-77 156h106l39 -74h2l53 74h117z" />
    <glyph glyph-name="uni02C9" unicode="&#x2c9;" 
d="M150 670h258l-18 -89h-258z" />
    <glyph glyph-name="breve" unicode="&#x2d8;" 
d="M148 694h83q3 -25 11.5 -38.5t31.5 -13.5q47 0 59 52h85q-22 -135 -152 -135q-68 0 -96.5 36t-21.5 99z" />
    <glyph glyph-name="dotaccent" unicode="&#x2d9;" 
d="M265 546h-1q-31 0 -53 20t-22 54q0 38 24.5 62t61.5 24q33 0 54 -21t21 -53q0 -39 -24.5 -62.5t-60.5 -23.5z" />
    <glyph glyph-name="ring" unicode="&#x2da;" 
d="M281 741h1q48 0 80.5 -24.5t32.5 -70.5q-2 -50 -39 -78t-94 -28q-46 0 -78 24t-33 66q-1 51 35.5 81t94.5 30zM276 686h-1q-21 0 -34 -14t-13 -36q0 -17 11 -29t30 -12q22 0 35 14t13 33q0 44 -41 44z" />
    <glyph glyph-name="ogonek" unicode="&#x2db;" 
d="M122 1h92q-33 -43 -33 -76q0 -40 43 -40q21 0 48 9l9 -82q-46 -37 -116 -37q-50 0 -77.5 24.5t-27.5 68.5q0 64 62 133z" />
    <glyph glyph-name="tilde" unicode="&#x2dc;" 
d="M198 554h-80q10 67 37 102.5t68 35.5q32 0 62 -20t39 -20q11 0 18 9t15 35h78q-11 -71 -37.5 -102.5t-69.5 -31.5q-39 0 -66 20q-22 17 -36 17q-18 0 -28 -45z" />
    <glyph glyph-name="hungarumlaut" unicode="&#x2dd;" 
d="M165 706h138l-119 -157h-99zM353 706h138l-118 -157h-100z" />
    <glyph glyph-name="uni037E" unicode="&#x37e;" horiz-adv-x="290" 
d="M75 -107l-121 -10q78 177 103 296l179 4q-62 -148 -161 -290zM169 272h-1q-42 0 -68 27t-26 69q0 49 32.5 84.5t83.5 35.5q42 0 69.5 -27.5t27.5 -71.5q0 -51 -33.5 -84t-84.5 -33z" />
    <glyph glyph-name="tonos" unicode="&#x384;" horiz-adv-x="325" 
d="M263 706h157l-129 -156h-120z" />
    <glyph glyph-name="dieresistonos" unicode="&#x385;" horiz-adv-x="474" 
d="M257 721h129l-96 -174h-92zM115 553h-1q-28 0 -47 17t-19 47q0 33 22 53.5t54 20.5q29 0 46.5 -18t17.5 -46q0 -33 -21.5 -53.5t-51.5 -20.5zM442 553h-1q-27 0 -46 17.5t-19 46.5q0 33 21.5 53.5t53.5 20.5q29 0 47 -18t18 -46q0 -33 -21.5 -53.5t-52.5 -20.5z" />
    <glyph glyph-name="Alphatonos" unicode="&#x386;" horiz-adv-x="640" 
d="M398 159h-177l-67 -159h-183l320 674h223l72 -674h-180zM269 287h123l-7 124q-1 15 -4 63.5t-5 72.5h-2q-6 -15 -24.5 -65.5t-28.5 -71.5zM67 674h137l-67 -182h-97z" />
    <glyph glyph-name="anoteleia" unicode="&#x387;" horiz-adv-x="290" 
d="M138 203h-1q-43 0 -70 27.5t-27 70.5q0 50 33.5 86t84.5 36q44 0 71.5 -28t27.5 -73q0 -53 -33.5 -86t-85.5 -33z" />
    <glyph glyph-name="Epsilontonos" unicode="&#x388;" horiz-adv-x="606" 
d="M569 416l-28 -144h-237l-24 -127h266l-28 -145h-437l128 674h423l-28 -145h-251l-22 -113h238zM26 674h137l-67 -182h-98z" />
    <glyph glyph-name="Etatonos" unicode="&#x389;" horiz-adv-x="749" 
d="M208 674h170l-48 -253h216l48 253h171l-127 -674h-171l50 268h-216l-50 -268h-171zM26 674h137l-67 -182h-98z" />
    <glyph glyph-name="Iotatonos" unicode="&#x38a;" horiz-adv-x="360" 
d="M206 674h170l-127 -674h-171zM26 674h137l-67 -182h-98z" />
    <glyph glyph-name="Omicrontonos" unicode="&#x38c;" horiz-adv-x="770" 
d="M379 -11h-1q-129 0 -205 79.5t-76 204.5q0 93 32 176t90 138q103 98 255 98q130 0 205 -77.5t75 -205.5q0 -95 -31.5 -178t-89.5 -138q-100 -97 -254 -97zM402 131h1q72 0 120.5 87t48.5 179q0 66 -28 106t-90 40q-75 0 -125 -85.5t-50 -180.5q0 -68 31 -107t92 -39z
M26 674h136l-67 -182h-97z" />
    <glyph glyph-name="Upsilontonos" unicode="&#x38e;" horiz-adv-x="709" 
d="M176 538l41 142q51 0 100.5 -21.5t80.5 -64.5q62 -80 51 -207h8q39 127 121 205q45 43 96.5 65.5t90.5 22.5l11 -154q-74 -20 -144 -93t-107 -160q-30 -72 -41 -138l-25 -135h-171l25 135q12 71 15 131q3 106 -32.5 180.5t-119.5 91.5zM26 674h137l-68 -182h-97z" />
    <glyph glyph-name="Omegatonos" unicode="&#x38f;" horiz-adv-x="788" 
d="M183 129l1 5q-34 34 -58.5 86t-24.5 114q0 149 110 250t266 101q138 0 216.5 -77.5t78.5 -184.5q0 -96 -47 -170t-108 -119v-5h113l-22 -129h-307l18 103q170 116 170 301q0 67 -33.5 105.5t-93.5 38.5q-73 0 -127 -69.5t-54 -189.5q0 -59 20.5 -108.5t57.5 -77.5
l-18 -103h-306l22 129h126zM26 674h136l-67 -182h-97z" />
    <glyph glyph-name="iotadieresistonos" unicode="&#x390;" horiz-adv-x="281" 
d="M262 492l-62 -328q-5 -24 3.5 -34t31.5 -8l-31 -123q-25 -10 -67 -10q-56 0 -85.5 24t-29.5 82q0 34 7 66l62 331h171zM181 719h129l-97 -174h-92zM38 551h-1q-26 0 -44.5 16.5t-18.5 44.5q0 32 21 51.5t51 19.5q28 0 45.5 -17.5t17.5 -44.5q0 -32 -21 -51t-50 -19z
M366 551h-1q-26 0 -44.5 16.5t-18.5 44.5q0 32 21 51.5t51 19.5q28 0 45 -17.5t17 -44.5q0 -32 -20 -51t-50 -19z" />
    <glyph glyph-name="Alpha" unicode="&#x391;" horiz-adv-x="640" 
d="M398 159h-177l-67 -159h-183l320 674h223l72 -674h-180zM269 287h123l-7 124q-1 15 -4 63.5t-5 72.5h-2q-6 -14 -24.5 -64.5t-28.5 -71.5z" />
    <glyph glyph-name="Beta" unicode="&#x392;" horiz-adv-x="609" 
d="M15 9l123 653q87 17 191 17q109 0 172 -31q40 -17 65.5 -51.5t25.5 -79.5q0 -60 -36.5 -99.5t-94.5 -57.5v-2q49 -16 76.5 -54.5t27.5 -91.5q0 -100 -97 -162q-85 -55 -270 -55q-115 0 -183 14zM285 543l-25 -129h42q54 0 85 19.5t31 54.5q0 29 -22.5 44t-59.5 15
q-31 0 -51 -4zM234 290l-30 -160q14 -2 50 -2q56 0 93 22.5t37 65.5q0 42 -30.5 58t-84.5 16h-35z" />
    <glyph glyph-name="Gamma" unicode="&#x393;" horiz-adv-x="493" 
d="M141 674h422l-28 -145h-248l-101 -529h-173z" />
    <glyph glyph-name="uni0394" unicode="&#x394;" horiz-adv-x="653" 
d="M-30 0l15 89l315 585h213l96 -585l-15 -89h-624zM186 138h235l-34 253q-2 19 -6.5 69.5t-6.5 72.5h-4q-4 -9 -16 -37.5t-23.5 -54t-19.5 -43.5z" />
    <glyph glyph-name="Epsilon" unicode="&#x395;" horiz-adv-x="538" 
d="M501 416l-28 -144h-237l-24 -127h266l-27 -145h-437l127 674h423l-28 -145h-251l-22 -113h238z" />
    <glyph glyph-name="Zeta" unicode="&#x396;" horiz-adv-x="567" 
d="M-28 0l18 97l362 427v3h-253l28 147h483l-20 -105l-353 -418v-4h278l-27 -147h-516z" />
    <glyph glyph-name="Eta" unicode="&#x397;" horiz-adv-x="683" 
d="M142 674h170l-48 -253h216l48 253h172l-128 -674h-171l51 268h-217l-50 -268h-171z" />
    <glyph glyph-name="Theta" unicode="&#x398;" horiz-adv-x="721" 
d="M330 -11h-1q-129 0 -205.5 79.5t-76.5 204.5q0 93 32.5 176t90.5 138q103 98 255 98q130 0 205 -77.5t75 -205.5q0 -94 -31.5 -177.5t-89.5 -138.5q-100 -97 -254 -97zM353 130h1q49 0 89 44t60 104.5t20 118.5q0 66 -28 107t-90 41q-75 0 -125.5 -86.5t-50.5 -181.5
q0 -68 31.5 -107.5t92.5 -39.5zM302 410h177l-24 -135h-176z" />
    <glyph glyph-name="Iota" unicode="&#x399;" horiz-adv-x="292" 
d="M137 674h171l-128 -674h-170z" />
    <glyph glyph-name="Kappa" unicode="&#x39a;" horiz-adv-x="623" 
d="M14 0l127 674h168l-55 -290h3q8 12 58 78l165 212h213l-269 -291l150 -383h-186l-98 277l-67 -65l-41 -212h-168z" />
    <glyph glyph-name="Lambda" unicode="&#x39b;" horiz-adv-x="640" 
d="M587 0h-185l-24 377q-1 53 -5 155h-3q-40 -111 -58 -157l-155 -375h-188l318 674h226z" />
    <glyph glyph-name="Mu" unicode="&#x39c;" horiz-adv-x="839" 
d="M742 0h-166l38 241q22 143 49 279h-3q-60 -144 -121 -271l-110 -235h-134l-13 234q-6 113 -11 272h-2q-10 -44 -30 -141t-29 -138l-56 -241h-156l167 674h231l7 -200q10 -217 10 -234h4q36 104 97 236l89 198h232z" />
    <glyph glyph-name="Nu" unicode="&#x39d;" horiz-adv-x="681" 
d="M172 0h-158l127 674h203l61 -203q37 -127 62 -249h3q5 110 32 255l37 197h159l-128 -674h-178l-68 220q-49 165 -67 253h-4q-10 -94 -46 -287z" />
    <glyph glyph-name="Xi" unicode="&#x39e;" horiz-adv-x="572" 
d="M126 674h471l-24 -142h-471zM111 415h409l-23 -142h-410zM16 144h503l-24 -144h-503z" />
    <glyph glyph-name="Omicron" unicode="&#x39f;" horiz-adv-x="721" 
d="M330 -11h-1q-129 0 -205.5 79.5t-76.5 204.5q0 93 32.5 176t90.5 138q103 98 255 98q130 0 205 -77.5t75 -205.5q0 -94 -31.5 -177.5t-89.5 -138.5q-100 -97 -254 -97zM353 131h1q72 0 120.5 87t48.5 179q0 66 -28 106t-90 40q-75 0 -125.5 -85.5t-50.5 -180.5
q0 -68 31.5 -107t92.5 -39z" />
    <glyph glyph-name="Pi" unicode="&#x3a0;" horiz-adv-x="667" 
d="M685 674l-126 -674h-171l100 531h-204l-100 -531h-170l126 674h545z" />
    <glyph glyph-name="Rho" unicode="&#x3a1;" horiz-adv-x="581" 
d="M14 0l124 660q73 19 189 19q118 0 185 -42q83 -50 83 -152q0 -125 -96 -196q-83 -62 -220 -62q-7 0 -55 4l-44 -231h-166zM283 540l-33 -171q24 -4 51 -4q54 0 88.5 30.5t34.5 73.5q0 75 -89 75q-32 0 -52 -4z" />
    <glyph glyph-name="Sigma" unicode="&#x3a3;" horiz-adv-x="568" 
d="M239 149v-4h283l-24 -145h-516l16 102l224 234l-141 219l21 119h481l-23 -143h-267l-1 -4l127 -196z" />
    <glyph glyph-name="Tau" unicode="&#x3a4;" horiz-adv-x="550" 
d="M139 0l98 525h-169l29 149h512l-28 -149h-173l-99 -525h-170z" />
    <glyph glyph-name="Upsilon" unicode="&#x3a5;" horiz-adv-x="563" 
d="M33 538l41 142q51 0 100.5 -21.5t80.5 -64.5q62 -82 50 -207h9q36 124 120 205q46 43 97.5 65.5t89.5 22.5l12 -154q-75 -20 -145 -93t-106 -160q-29 -70 -42 -138l-25 -135h-170l25 135q13 72 14 131q3 106 -32 180.5t-119 91.5z" />
    <glyph glyph-name="Phi" unicode="&#x3a6;" horiz-adv-x="798" 
d="M266 -30l11 59q-98 16 -164 85t-66 178q0 68 22.5 127t59 100t82.5 70.5t92.5 44t89.5 15.5l11 55h159l-10 -55q95 -14 161.5 -83.5t66.5 -176.5q0 -84 -31.5 -152.5t-83 -111.5t-110.5 -67.5t-120 -28.5l-11 -59h-159zM300 151l70 378q-52 -5 -101 -73t-49 -162
q0 -56 22.5 -94t57.5 -49zM530 528l-72 -378q53 5 102 68.5t49 168.5q0 57 -22 94.5t-57 46.5z" />
    <glyph glyph-name="Chi" unicode="&#x3a7;" horiz-adv-x="590" 
d="M539 0h-182l-37 122q-4 16 -33 115h-2q-12 -21 -31.5 -59.5t-32.5 -62.5l-62 -115h-205l248 345l-115 329h180l31 -110q22 -84 30 -116h3q13 24 32.5 62t29.5 57l57 107h203l-240 -331z" />
    <glyph glyph-name="Psi" unicode="&#x3a8;" horiz-adv-x="710" 
d="M759 674l-40 -212q-26 -138 -106 -209.5t-197 -77.5l-33 -175h-158l33 175q-89 10 -148 59.5t-59 140.5q0 35 8 72l42 227h165l-38 -204q-10 -48 -10 -73q0 -45 16 -64.5t47 -26.5l71 368h157l-70 -370q46 6 74.5 48.5t47.5 145.5l33 176h165z" />
    <glyph glyph-name="uni03A9" unicode="&#x3a9;" horiz-adv-x="738" 
d="M133 129l1 5q-34 33 -58 85.5t-24 114.5q0 149 110 250t265 101q138 0 216.5 -77.5t78.5 -184.5q0 -96 -47 -170t-109 -119v-5h115l-23 -129h-306l17 103q170 114 170 301q0 67 -34 105.5t-93 38.5q-74 0 -127.5 -69.5t-53.5 -189.5q0 -59 20.5 -108.5t57.5 -77.5
l-18 -103h-306l23 129h125z" />
    <glyph glyph-name="Iotadieresis" unicode="&#x3aa;" horiz-adv-x="292" 
d="M126 715h-1q-30 0 -51 19t-21 51q0 37 23.5 59.5t58.5 22.5q32 0 51.5 -20t19.5 -51q0 -37 -23 -59t-57 -22zM343 715h-1q-29 0 -50 19t-21 51q0 37 23.5 59.5t58.5 22.5q32 0 51.5 -20t19.5 -51q0 -37 -23.5 -59t-57.5 -22zM137 674h171l-128 -674h-170z" />
    <glyph glyph-name="Upsilondieresis" unicode="&#x3ab;" horiz-adv-x="563" 
d="M250 697h-1q-29 0 -50.5 19t-21.5 51q0 37 24 59.5t59 22.5q32 0 51.5 -20t19.5 -51q0 -36 -23.5 -58.5t-57.5 -22.5zM467 697h-1q-29 0 -50 19t-21 51q0 37 23.5 59.5t58.5 22.5q32 0 51.5 -20t19.5 -51q0 -36 -23.5 -58.5t-57.5 -22.5zM33 538l41 142q51 0 100.5 -21.5
t80.5 -64.5q62 -82 50 -207h9q36 124 120 205q46 43 97.5 65.5t89.5 22.5l12 -154q-75 -20 -145 -93t-106 -160q-29 -70 -42 -138l-25 -135h-170l25 135q13 72 14 131q3 106 -32 180.5t-119 91.5z" />
    <glyph glyph-name="alphatonos" unicode="&#x3ac;" horiz-adv-x="591" 
d="M381 706h158l-129 -156h-121zM360 72h-3q-66 -83 -166 -83q-71 0 -118 50t-47 137q0 73 25 137t64 104t83.5 63t84.5 23q95 0 127 -64h4q10 29 21 53h144q-14 -59 -26 -106q-33 -147 -44 -204q-8 -37 2 -50.5t30 -10.5l-30 -123q-22 -9 -53 -9q-83 0 -98 83zM202 196v-1
q0 -33 15.5 -52t40.5 -19q28 0 51 24t34 56q9 29 11 46q6 30 6 46q0 78 -57 78q-40 0 -70.5 -56.5t-30.5 -121.5z" />
    <glyph glyph-name="epsilontonos" unicode="&#x3ad;" horiz-adv-x="450" 
d="M303 706h157l-129 -156h-120zM357 199h-39q-119 -2 -119 -46q0 -17 22.5 -26t55.5 -9q63 0 128 25l4 -115q-71 -39 -193 -39q-88 0 -147 31.5t-59 95.5q0 57 37 94t85 46l1 5q-72 23 -72 89q0 64 65 108.5t174 44.5q102 0 155 -39l-38 -105q-43 25 -103 25q-37 0 -59 -12
t-22 -29q0 -35 106 -35h37z" />
    <glyph glyph-name="etatonos" unicode="&#x3ae;" horiz-adv-x="576" 
d="M358 706h158l-129 -156h-121zM237 417h3q65 86 167 86q64 0 95.5 -36.5t31.5 -97.5q0 -44 -8 -84l-58 -305q-26 -138 -22 -178h-161q-15 32 14 181l52 284q5 23 5 52q0 48 -37 48q-32 0 -60 -41t-43 -116l-39 -210h-171l61 325q22 122 16 167h149q9 -25 5 -75z" />
    <glyph glyph-name="iotatonos" unicode="&#x3af;" horiz-adv-x="281" 
d="M221 706h158l-129 -156h-121zM262 492l-62 -327q-4 -24 4.5 -34.5t30.5 -8.5l-31 -123q-25 -10 -68 -10q-54 0 -84 23.5t-30 82.5q0 31 7 66l62 331h171z" />
    <glyph glyph-name="upsilondieresistonos" unicode="&#x3b0;" horiz-adv-x="552" 
d="M361 492h158q14 -35 14 -92q0 -70 -19 -141t-54.5 -132t-95 -99.5t-132.5 -38.5q-94 0 -147.5 45t-53.5 124q0 22 13 93l13 72q26 127 20 169h165q12 -24 -1 -95l-22 -123q-14 -64 -14 -85q0 -26 14 -44t37 -18q49 0 80 93.5t31 194.5q0 49 -6 77zM291 719h129l-97 -174
h-91zM148 551h-1q-25 0 -43.5 16.5t-18.5 44.5q0 32 20.5 51.5t51.5 19.5q28 0 45 -17.5t17 -44.5q0 -32 -20.5 -51t-50.5 -19zM476 551h-1q-26 0 -44.5 16.5t-18.5 44.5q0 32 21 51.5t51 19.5q28 0 45.5 -17.5t17.5 -44.5q0 -32 -20.5 -51t-50.5 -19z" />
    <glyph glyph-name="alpha" unicode="&#x3b1;" horiz-adv-x="591" 
d="M360 72h-3q-66 -83 -166 -83q-71 0 -118 50t-47 137q0 73 25 137t64 104t83.5 63t84.5 23q95 0 127 -64h4q10 29 21 53h144q-14 -59 -26 -106q-33 -147 -44 -204q-8 -37 2 -50.5t30 -10.5l-30 -123q-22 -9 -53 -9q-83 0 -98 83zM202 196v-1q0 -33 15.5 -52t40.5 -19
q28 0 51 24t34 56q9 29 11 46q6 30 6 46q0 78 -57 78q-40 0 -70.5 -56.5t-30.5 -121.5z" />
    <glyph glyph-name="beta" unicode="&#x3b2;" horiz-adv-x="575" 
d="M144 -198h-157q-16 39 11 181l78 418q35 185 122 258q73 62 171 62q87 0 135.5 -48t48.5 -116q0 -120 -107 -171l-1 -6q41 -13 69.5 -56.5t28.5 -100.5q0 -97 -69.5 -165.5t-164.5 -68.5q-90 0 -133 39h-2l-10 -55q-23 -116 -20 -171zM279 308l21 103q4 0 16 2
q33 9 55.5 38t22.5 73q0 27 -13 45.5t-38 18.5q-66 0 -94 -148l-52 -280q29 -43 79 -43q42 0 67.5 31.5t25.5 73.5q0 34 -19.5 56.5t-50.5 28.5q-6 1 -20 1z" />
    <glyph glyph-name="gamma" unicode="&#x3b3;" horiz-adv-x="502" 
d="M230 -198h-166q35 168 36 262q1 98 -27.5 218t-65.5 210h189q20 -48 34 -136.5t14 -178.5h5q78 140 101 265q5 34 4 50h169q0 -25 -4 -54q-16 -84 -82 -198t-163 -221q-9 -12 -13 -30q-12 -84 -31 -187z" />
    <glyph glyph-name="delta" unicode="&#x3b4;" horiz-adv-x="564" 
d="M535 656l-57 -100q-55 45 -104 45q-35 0 -35 -23q0 -18 47 -60l53 -51q94 -90 94 -193q0 -116 -80 -200.5t-208 -84.5q-99 0 -161.5 60t-62.5 152q0 97 57 162.5t135 99.5v4l-19 23q-35 40 -35 87q0 61 54 102.5t134 41.5q118 0 188 -65zM320 348l-30 32
q-42 -24 -67.5 -70t-25.5 -106q0 -40 19 -67t51 -27q38 0 65 37t27 96q0 65 -39 105z" />
    <glyph glyph-name="epsilon" unicode="&#x3b5;" horiz-adv-x="450" 
d="M357 199h-39q-119 -2 -119 -46q0 -17 22.5 -26t55.5 -9q63 0 128 25l4 -116q-73 -38 -193 -38q-88 0 -147 31.5t-59 95.5q0 57 37 94t85 46l1 5q-72 23 -72 89q0 64 65 108.5t174 44.5q102 0 155 -39l-39 -105q-41 25 -102 25q-37 0 -59 -12t-22 -29q0 -35 105 -35h38z
" />
    <glyph glyph-name="zeta" unicode="&#x3b6;" horiz-adv-x="442" 
d="M487 705l4 -110q-93 -43 -189.5 -153.5t-96.5 -210.5q0 -70 53 -104q36 -24 143 -42q8 -1 8 -13q0 -40 -37 -114t-78 -115l-101 35q30 53 40 95q-48 10 -90 30q-50 23 -84.5 71t-34.5 121q0 103 73.5 212t169.5 171v5q-29 0 -45 1q-64 0 -90 17l31 110q30 -6 136 -6h188z
" />
    <glyph glyph-name="eta" unicode="&#x3b7;" horiz-adv-x="576" 
d="M237 417h3q65 86 167 86q64 0 95.5 -36.5t31.5 -97.5q0 -44 -8 -84l-58 -305q-26 -139 -22 -178h-161q-15 29 14 181l52 284q5 23 5 52q0 48 -37 48q-32 0 -60 -41t-43 -116l-39 -210h-171l61 325q22 118 16 167h148q10 -28 6 -75z" />
    <glyph glyph-name="theta" unicode="&#x3b8;" horiz-adv-x="573" 
d="M246 -11h-1q-104 0 -158.5 63t-54.5 180q0 89 21 173q35 139 116 227.5t195 88.5q98 0 150.5 -65t52.5 -168q0 -74 -13 -143q-19 -97 -58 -175t-104.5 -129.5t-145.5 -51.5zM228 420h167q9 58 9 84q0 98 -59 98q-42 0 -72 -49.5t-45 -132.5zM374 300h-169
q-10 -60 -10 -95q0 -97 65 -97q79 0 114 192z" />
    <glyph glyph-name="iota" unicode="&#x3b9;" horiz-adv-x="281" 
d="M262 492l-62 -326q-5 -26 3.5 -36.5t32.5 -8.5l-32 -122q-25 -10 -67 -10q-117 0 -117 109q0 14 9 63l62 331h171z" />
    <glyph glyph-name="kappa" unicode="&#x3ba;" horiz-adv-x="549" 
d="M373 267l-1 -4q24 -10 39.5 -39t32.5 -82l48 -142h-185l-26 93q-13 51 -26 75.5t-35 24.5h-6l-36 -193h-170l66 350q20 116 13 142h161q18 -22 5 -93l-20 -106h4q31 38 85 110t67 89h193v-6q-67 -73 -209 -219z" />
    <glyph glyph-name="lambda" unicode="&#x3bb;" horiz-adv-x="491" 
d="M282 0l-22 216q0 4 -3.5 34t-4.5 51h-6q-23 -65 -32 -90l-84 -211h-179l236 460q9 18 9 29q0 4 -2 18q-5 34 -25 54.5t-52 21.5h-19l34 128q23 6 54 4q82 -3 121 -61.5t60 -173.5l88 -480h-173z" />
    <glyph glyph-name="uni03BC" unicode="&#x3bc;" horiz-adv-x="573" 
d="M266 492l-51 -270q-10 -54 1.5 -75t40.5 -21q41 0 71 66q7 16 9 27l53 273h171l-61 -322q-6 -28 2 -38t28 -11l-31 -122q-22 -10 -57 -10q-82 0 -100 87h-3q-45 -82 -114 -82q-40 0 -60 19l-6 -36q-22 -112 -22 -175h-153q-4 16 1 69.5t16 110.5l95 510h170z" />
    <glyph glyph-name="nu" unicode="&#x3bd;" horiz-adv-x="502" 
d="M25 492h182q8 -98 14 -209q5 -97 6 -118h5q87 156 110 280q4 23 4 47h166q1 -17 -2 -44q-31 -174 -245 -448h-163q-61 400 -77 492z" />
    <glyph glyph-name="xi" unicode="&#x3be;" horiz-adv-x="467" 
d="M397 316h-34q-74 0 -118 -29.5t-44 -78.5q0 -37 24 -61.5t78 -38.5q34 -10 121 -24q9 -1 9 -14q0 -34 -40.5 -113.5t-75.5 -112.5l-102 35q28 52 39 94q-35 6 -64 15q-28 8 -54 20.5t-55 34.5t-46 56.5t-17 77.5q0 81 51 139.5t120 74.5l1 6q-38 18 -59.5 51t-21.5 73
q0 85 70.5 142.5t189.5 57.5q91 0 140 -33l-40 -109q-38 22 -85 22q-45 0 -74 -25.5t-29 -62.5q0 -69 110 -80q11 -2 27 -2z" />
    <glyph glyph-name="omicron" unicode="&#x3bf;" horiz-adv-x="575" 
d="M243 -11h-1q-96 0 -156 55t-60 149q0 132 84.5 221t217.5 89q98 0 157 -57t59 -145q0 -141 -85 -226.5t-216 -85.5zM265 118h1q47 0 74 59t27 122q0 33 -15 54t-46 21q-34 0 -59 -33t-35 -72t-10 -73q0 -37 16.5 -57.5t46.5 -20.5z" />
    <glyph glyph-name="pi" unicode="&#x3c0;" horiz-adv-x="592" 
d="M586 361h-58l-37 -199q-21 -111 -19 -162h-164q-12 22 11 153l39 208h-80q-16 -72 -19 -84q-50 -209 -101 -277h-163q54 97 100 274q11 44 18 87q-57 0 -87 -8l-2 98q41 41 193 41h399z" />
    <glyph glyph-name="rho" unicode="&#x3c1;" horiz-adv-x="578" 
d="M142 -198h-163q-7 39 17 174l41 218q20 105 54 164.5t84 94.5q72 50 169 50q92 0 149.5 -57t57.5 -145q0 -130 -80.5 -221t-180.5 -91q-83 0 -112 38h-2l-11 -56q-23 -119 -23 -169zM216 239l-6 -28q-3 -18 -3 -39q0 -17 18.5 -35.5t48.5 -18.5q39 0 70.5 52t31.5 117
q0 35 -16 57t-46 22q-70 0 -98 -127z" />
    <glyph glyph-name="uni03C2" unicode="&#x3c2;" horiz-adv-x="458" 
d="M302 -157l-102 35q30 48 40 94q-29 6 -78 24q-23 8 -45 22.5t-45.5 38t-38 60.5t-14.5 82q0 121 90.5 212.5t228.5 91.5q74 0 126 -27l-44 -120q-32 16 -79 16q-57 0 -100.5 -42.5t-43.5 -103.5q0 -78 80 -111q39 -17 132 -32q7 -1 7 -13q0 -39 -36.5 -112.5
t-77.5 -114.5z" />
    <glyph glyph-name="sigma" unicode="&#x3c3;" horiz-adv-x="606" 
d="M499 392l-2 -6q20 -18 31 -51.5t11 -61.5q0 -119 -84 -201.5t-209 -82.5q-99 0 -159.5 55t-60.5 149q0 132 84 221t215 89h132h85h100l-22 -125q-33 0 -121 14zM265 118h1q47 0 74 59t27 122q0 76 -60 76q-35 0 -60.5 -33.5t-35 -72t-9.5 -73.5q0 -37 16.5 -57.5
t46.5 -20.5z" />
    <glyph glyph-name="tau" unicode="&#x3c4;" horiz-adv-x="448" 
d="M337 123l-27 -122q-24 -12 -69 -12q-136 0 -136 128q0 39 10 91l29 152h-37q-62 0 -91 -6l-1 100q58 38 194 38h262l-30 -132h-127l-31 -166q-4 -20 -4 -37q0 -16 9.5 -25t26.5 -9h22z" />
    <glyph glyph-name="upsilon" unicode="&#x3c5;" horiz-adv-x="552" 
d="M362 492h157q14 -35 14 -96q0 -69 -18.5 -139t-54.5 -131t-95.5 -99t-132.5 -38q-93 0 -147 45t-54 123q0 27 13 92l13 74q26 130 20 169h165q12 -24 -1 -95l-22 -123q-14 -78 -14 -86q0 -25 14 -43t37 -18q34 0 60 46.5t38.5 111.5t12.5 130q0 42 -5 77z" />
    <glyph glyph-name="phi" unicode="&#x3c6;" horiz-adv-x="717" 
d="M254 105l37 202q19 99 72 147.5t125 48.5q85 0 141 -58.5t56 -146.5q0 -70 -27 -129.5t-71 -98t-97.5 -60t-107.5 -21.5l-35 -187h-150l35 187q-81 10 -143.5 66.5t-62.5 150.5q0 61 21.5 115t55 89.5t69.5 58.5t71 33l57 -81q-42 -25 -76 -78.5t-34 -127.5
q0 -41 17.5 -70.5t46.5 -39.5zM451 356l-48 -251q53 5 86 61.5t33 128.5q0 39 -13 64.5t-33 25.5t-25 -29z" />
    <glyph glyph-name="chi" unicode="&#x3c7;" horiz-adv-x="492" 
d="M35 492h177l28 -126q2 -11 8.5 -43.5t9.5 -51.5h4q32 66 41 84q8 15 34 63t40 74h168q-150 -232 -227 -348l97 -341l-164 -34l-31 132q-15 64 -25 116h-6q-10 -22 -50 -96q-56 -99 -87 -152l-140 49q75 113 227 340z" />
    <glyph glyph-name="psi" unicode="&#x3c8;" horiz-adv-x="720" 
d="M534 492h152q15 -42 15 -102q0 -171 -85.5 -282t-232.5 -119l-35 -187h-153l36 187q-83 7 -140.5 56t-57.5 138q0 41 9 88l15 84q19 92 18 137h153q14 -21 0 -96l-22 -119q-9 -46 -9 -89q0 -75 56 -80l96 512h151l-96 -513q58 2 97 81.5t39 220.5q0 53 -6 83z" />
    <glyph glyph-name="omega" unicode="&#x3c9;" horiz-adv-x="734" 
d="M505 492h151q46 -59 46 -171q0 -134 -71 -233t-180 -99q-41 0 -72.5 19.5t-45.5 54.5h-4q-54 -74 -141 -74q-71 0 -117 51t-45 146q0 92 39.5 178t84.5 128h161v-3q-44 -48 -78.5 -126.5t-34.5 -157.5q0 -72 34 -72t48 79l28 163h156l-29 -139q-10 -58 -10 -64
q0 -39 27 -39q37 0 60.5 68t23.5 153q0 84 -31 135v3z" />
    <glyph glyph-name="iotadieresis" unicode="&#x3ca;" horiz-adv-x="281" 
d="M82 542h-1q-29 0 -50 19t-21 51q0 37 23.5 59.5t58.5 22.5q32 0 51.5 -20t19.5 -51q0 -37 -23.5 -59t-57.5 -22zM297 542h-1q-30 0 -51 19t-21 51q0 37 23.5 59.5t58.5 22.5q32 0 51.5 -20t19.5 -51q0 -37 -23 -59t-57 -22zM262 492l-62 -327q-5 -24 4 -34.5t32 -9.5
l-32 -122q-25 -10 -67 -10q-115 0 -115 105q0 28 7 67l62 331h171z" />
    <glyph glyph-name="upsilondieresis" unicode="&#x3cb;" horiz-adv-x="552" 
d="M201 542h-1q-29 0 -50.5 19t-21.5 51q0 37 24 59.5t59 22.5q32 0 51.5 -20t19.5 -51q0 -37 -23.5 -59t-57.5 -22zM415 542h-1q-29 0 -50 19t-21 51q0 37 23.5 59.5t58.5 22.5q32 0 51.5 -20t19.5 -51q0 -37 -23.5 -59t-57.5 -22zM361 492h158q14 -35 14 -92
q0 -70 -19 -141t-54.5 -132t-95 -99.5t-132.5 -38.5q-95 0 -148 44.5t-53 126.5q0 24 13 91l13 72q26 127 20 169h165q12 -24 -1 -95l-22 -123q-14 -68 -14 -85q0 -26 14 -44t37 -18q49 0 80 93.5t31 194.5q0 49 -6 77z" />
    <glyph glyph-name="omicrontonos" unicode="&#x3cc;" horiz-adv-x="575" 
d="M354 706h157l-129 -156h-120zM243 -11h-1q-96 0 -156 55t-60 149q0 132 84.5 221t217.5 89q98 0 157 -57t59 -145q0 -141 -85 -226.5t-216 -85.5zM265 118h1q47 0 74 59t27 122q0 33 -15 54t-46 21q-34 0 -59 -33t-35 -72t-10 -73q0 -37 16.5 -57.5t46.5 -20.5z" />
    <glyph glyph-name="upsilontonos" unicode="&#x3cd;" horiz-adv-x="552" 
d="M319 706h158l-129 -156h-121zM361 492h158q14 -35 14 -92q0 -70 -19 -141t-54.5 -132t-95 -99.5t-132.5 -38.5q-94 0 -147.5 45t-53.5 124q0 26 13 93l13 72q26 127 20 169h165q12 -24 -1 -95l-22 -123q-14 -74 -14 -85q0 -26 14 -44t37 -18q49 0 80 93.5t31 194.5
q0 49 -6 77z" />
    <glyph glyph-name="omegatonos" unicode="&#x3ce;" horiz-adv-x="733" 
d="M435 706h157l-129 -156h-120zM506 492h150q47 -60 47 -171q0 -134 -71.5 -233t-180.5 -99q-41 0 -72.5 19.5t-45.5 54.5h-4q-54 -74 -141 -74q-71 0 -116.5 51t-45.5 146q0 92 39.5 178t84.5 128h161v-3q-44 -48 -78.5 -126.5t-34.5 -157.5q0 -72 34 -72q36 0 48 79
l29 163h156l-30 -139q-10 -58 -10 -64q0 -39 27 -39q37 0 60.5 68t23.5 153q0 86 -31 135z" />
    <glyph glyph-name="afii10023" unicode="&#x401;" horiz-adv-x="538" 
d="M501 416l-28 -144h-237l-24 -127h266l-27 -145h-437l127 674h423l-28 -145h-251l-22 -113h238zM257 708h-1q-29 0 -50.5 19.5t-21.5 50.5q0 37 24 59.5t59 22.5q31 0 51 -20.5t20 -50.5q0 -36 -23.5 -58.5t-57.5 -22.5zM474 708h-1q-29 0 -50.5 19.5t-21.5 50.5
q0 37 24 59.5t59 22.5q31 0 51 -20.5t20 -50.5q0 -36 -24 -58.5t-57 -22.5z" />
    <glyph glyph-name="afii10051" unicode="&#x402;" horiz-adv-x="717" 
d="M98 674h551l-30 -147h-215l-17 -93h2q38 18 92 18q92 0 142 -62t50 -162q0 -167 -99 -271q-43 -46 -102.5 -75.5t-116.5 -35.5l-25 146q64 12 105 54q56 58 56 155q0 110 -81 110q-27 0 -49 -13l-54 -298h-169l97 527h-167z" />
    <glyph glyph-name="afii10052" unicode="&#x403;" horiz-adv-x="485" 
d="M142 674h401l-28 -149h-231l-99 -525h-171zM354 840h182l-130 -130h-143z" />
    <glyph glyph-name="afii10053" unicode="&#x404;" horiz-adv-x="573" 
d="M621 656l-46 -137q-48 23 -126 23q-75 -2 -129.5 -38.5t-74.5 -102.5h259l-21 -135h-249q-1 -4 -1 -11q2 -44 43 -83.5t115 -39.5q71 0 134 23l11 -136q-28 -13 -80.5 -21.5t-99.5 -8.5q-147 0 -226.5 81t-79.5 212q0 203 145 317q112 86 267 86q101 0 159 -29z" />
    <glyph glyph-name="afii10054" unicode="&#x405;" horiz-adv-x="529" 
d="M-5 38l56 141q73 -43 166 -43q38 0 64 15t26 43q0 23 -20 40t-68 42q-63 34 -102.5 76t-39.5 105q0 104 80.5 166t201.5 62q103 0 169 -33l-53 -142q-58 29 -129 28q-43 -1 -66 -15.5t-23 -37.5q0 -20 19.5 -35.5t62.5 -39.5l4.5 -3t4.5 -2.5l5 -2.5q136 -71 136 -177
q0 -59 -24 -105.5t-64.5 -74.5t-91.5 -42t-108 -14q-134 1 -206 49z" />
    <glyph glyph-name="afii10055" unicode="&#x406;" horiz-adv-x="292" 
d="M137 674h171l-128 -674h-170z" />
    <glyph glyph-name="afii10056" unicode="&#x407;" horiz-adv-x="292" 
d="M137 674h171l-128 -674h-170zM123 708h-1q-29 0 -50.5 19.5t-21.5 50.5q0 37 23.5 59.5t58.5 22.5q32 0 52 -20.5t20 -50.5q0 -36 -24 -58.5t-57 -22.5zM339 708h-1q-29 0 -50 19.5t-21 50.5q0 37 23.5 59.5t58.5 22.5q32 0 51.5 -20t19.5 -51q0 -36 -23.5 -58.5
t-57.5 -22.5z" />
    <glyph glyph-name="afii10057" unicode="&#x408;" horiz-adv-x="414" 
d="M188 259l78 415h171l-84 -436q-25 -133 -88.5 -191t-186.5 -58q-78 0 -115 16l32 145q39 -11 78 -11q47 0 75 27t40 93z" />
    <glyph glyph-name="afii10058" unicode="&#x409;" horiz-adv-x="942" 
d="M211 674h447l-46 -227q32 6 73 6q100 0 162 -51.5t62 -148.5q0 -99 -67 -166q-98 -95 -302 -95q-113 0 -177 12l98 525h-116l-29 -142q-10 -53 -19.5 -92t-26.5 -88t-41 -89t-55 -67q-73 -63 -189 -63l-16 143q64 2 102 43q28 28 51 90t33 112zM587 315l-35 -187
q16 -1 43 -1q51 0 91.5 28t40.5 76q0 42 -26.5 65t-67.5 23q-18 0 -46 -4z" />
    <glyph glyph-name="afii10059" unicode="&#x40a;" horiz-adv-x="953" 
d="M142 674h170l-47 -249h187l47 249h170l-47 -235q32 6 74 6q98 0 161 -50.5t63 -147.5q0 -93 -67 -160q-98 -95 -302 -95q-113 0 -177 12l52 281h-188l-53 -285h-171zM596 306l-33 -178q15 -1 43 -1q50 0 91 27.5t41 72.5q0 42 -27.5 63t-68.5 21q-24 0 -46 -5z" />
    <glyph glyph-name="afii10060" unicode="&#x40b;" horiz-adv-x="715" 
d="M98 674h541l-29 -147h-210l-23 -120h2q61 39 134 39q75 0 111 -40.5t35 -113.5q-1 -39 -13 -106l-31 -186h-171l32 177q8 38 8 71q0 24 -15 40.5t-45 16.5q-41 0 -73 -32l-51 -273h-168l99 527h-163z" />
    <glyph glyph-name="afii10061" unicode="&#x40c;" horiz-adv-x="612" 
d="M142 674h168l-54 -275h14l208 275h210l-271 -300q37 -24 57 -75.5t39 -139.5q27 -128 42 -159h-175q-15 33 -38 153q-12 63 -30.5 92.5t-60.5 29.5h-17l-52 -275h-169zM393 840h183l-131 -130h-143z" />
    <glyph glyph-name="afii10062" unicode="&#x40e;" horiz-adv-x="583" 
d="M70 674h189l48 -216q10 -43 29 -138h5q35 97 53 139l86 215h198l-189 -363q-37 -71 -58 -107.5t-56.5 -83.5t-72.5 -77q-64 -54 -158 -54q-65 0 -102 18l29 139q27 -9 59 -9q51 0 77 43q14 23 5 50zM240 840h117q-8 -60 32 -60q37 0 52 60h117q-30 -130 -179 -130
q-72 0 -106.5 33t-32.5 97z" />
    <glyph glyph-name="afii10145" unicode="&#x40f;" horiz-adv-x="665" 
d="M141 674h171l-100 -529h199l100 529h171l-127 -674h-191l-47 -191h-134l29 191h-198z" />
    <glyph glyph-name="afii10017" unicode="&#x410;" horiz-adv-x="640" 
d="M398 159h-177l-67 -159h-183l320 674h223l72 -674h-180zM269 287h123l-7 124q-1 15 -4 63.5t-5 72.5h-2q-7 -18 -25.5 -66.5t-27.5 -69.5z" />
    <glyph glyph-name="afii10018" unicode="&#x411;" horiz-adv-x="596" 
d="M141 674h440l-27 -147h-270l-18 -92q35 7 74 7q95 0 157 -50.5t62 -145.5q0 -112 -90 -181q-96 -73 -268 -73q-120 0 -186 12zM241 309l-34 -184q15 -3 45 -3q48 0 87.5 29t39.5 77q0 40 -25.5 63t-66.5 23q-24 0 -46 -5z" />
    <glyph glyph-name="afii10019" unicode="&#x412;" horiz-adv-x="615" 
d="M15 9l123 653q87 17 191 17q109 0 172 -31q40 -17 65.5 -51.5t25.5 -79.5q0 -60 -36.5 -99.5t-94.5 -57.5v-2q49 -16 76.5 -54.5t27.5 -91.5q0 -100 -97 -162q-85 -55 -270 -55q-115 0 -183 14zM285 543l-25 -129h42q54 0 85 19.5t31 54.5q0 29 -22.5 44t-59.5 15
q-31 0 -51 -4zM234 290l-30 -160q14 -2 50 -2q56 0 93 22.5t37 65.5q0 42 -30.5 58t-84.5 16h-35z" />
    <glyph glyph-name="afii10020" unicode="&#x413;" horiz-adv-x="485" 
d="M142 674h401l-28 -149h-231l-99 -525h-171z" />
    <glyph glyph-name="afii10021" unicode="&#x414;" horiz-adv-x="686" 
d="M233 674h446l-100 -535l67 -6l-72 -307h-136l24 174h-340l-48 -174h-134l53 307l56 6q59 88 93 169q40 97 57 188zM360 528l-14 -76q-17 -88 -54 -179q-29 -71 -67 -131h186l71 386h-122z" />
    <glyph glyph-name="afii10022" unicode="&#x415;" horiz-adv-x="538" 
d="M501 416l-28 -144h-237l-24 -127h266l-27 -145h-437l127 674h423l-28 -145h-251l-22 -113h238z" />
    <glyph glyph-name="afii10024" unicode="&#x416;" horiz-adv-x="877" 
d="M77 674h182l100 -279h13l51 279h162l-52 -280h13l199 280h192l-264 -301q27 -12 46.5 -35t32 -56t18.5 -59.5t13 -65.5q15 -104 37 -157h-171q-22 59 -35 159q-17 119 -87 119h-13l-52 -278h-165l54 280h-13q-70 0 -119 -112q-11 -23 -26.5 -58.5t-28 -62t-26.5 -47.5
h-179q12 18 24.5 41.5t21 42t22 49t20.5 46.5q43 93 82 134.5t106 60.5z" />
    <glyph glyph-name="afii10025" unicode="&#x417;" horiz-adv-x="532" 
d="M138 283l24 127h52q55 0 89 18.5t33 59.5q0 28 -21 43t-53 15q-65 0 -139 -38l-33 122q90 55 211 55q57 0 103 -15.5t78 -54.5t32 -97q0 -62 -42.5 -107t-105.5 -59l-1 -2q52 -11 85.5 -50t33.5 -96q0 -72 -44 -122.5t-106.5 -71.5t-136.5 -21q-123 0 -208 57l52 128
q71 -40 153 -40q46 0 80 19.5t34 57.5q0 37 -34.5 54.5t-75.5 17.5h-60z" />
    <glyph glyph-name="afii10026" unicode="&#x418;" horiz-adv-x="672" 
d="M142 674h161l-31 -164q-26 -131 -69 -307h3q32 54 151 240l145 231h186l-128 -674h-160l31 161q37 189 60 278h-2q-59 -112 -141 -236l-132 -203h-202z" />
    <glyph glyph-name="afii10027" unicode="&#x419;" horiz-adv-x="672" 
d="M142 674h161l-31 -164q-26 -131 -69 -307h3q32 54 151 240l145 231h186l-128 -674h-160l31 161q37 189 60 278h-2q-59 -112 -141 -236l-132 -203h-202zM280 836h117q-8 -60 32 -60q37 0 52 60h117q-30 -130 -179 -130q-72 0 -106.5 33t-32.5 97z" />
    <glyph glyph-name="afii10028" unicode="&#x41a;" horiz-adv-x="612" 
d="M142 674h168l-54 -275h14l208 275h210l-271 -300q37 -24 57 -75.5t39 -139.5q27 -128 42 -159h-175q-15 33 -38 153q-12 63 -30.5 92.5t-60.5 29.5h-17l-52 -275h-169z" />
    <glyph glyph-name="afii10029" unicode="&#x41b;" horiz-adv-x="657" 
d="M209 674h465l-128 -674h-171l101 529h-133l-28 -144q-25 -129 -55.5 -205t-81.5 -123q-72 -69 -193 -69l-16 143q67 6 105 48q52 59 79 195z" />
    <glyph glyph-name="afii10030" unicode="&#x41c;" horiz-adv-x="839" 
d="M742 0h-166l38 241q22 143 49 279h-3q-60 -144 -121 -271l-110 -235h-134l-13 234q-6 113 -11 272h-2q-10 -44 -30 -141t-29 -138l-56 -241h-156l167 674h231l7 -200q10 -217 10 -234h4q36 104 97 236l89 198h232z" />
    <glyph glyph-name="afii10031" unicode="&#x41d;" horiz-adv-x="683" 
d="M142 674h170l-48 -253h216l48 253h172l-128 -674h-171l51 268h-217l-50 -268h-171z" />
    <glyph glyph-name="afii10032" unicode="&#x41e;" horiz-adv-x="721" 
d="M330 -11h-1q-129 0 -205.5 79.5t-76.5 204.5q0 93 32.5 176t90.5 138q103 98 255 98q130 0 205 -77.5t75 -205.5q0 -94 -31.5 -177.5t-89.5 -138.5q-100 -97 -254 -97zM353 131h1q72 0 120.5 87t48.5 179q0 66 -28 106t-90 40q-75 0 -125.5 -85.5t-50.5 -180.5
q0 -68 31.5 -107t92.5 -39z" />
    <glyph glyph-name="afii10033" unicode="&#x41f;" horiz-adv-x="670" 
d="M142 674h544l-127 -674h-171l101 529h-203l-101 -529h-171z" />
    <glyph glyph-name="afii10034" unicode="&#x420;" horiz-adv-x="581" 
d="M14 0l124 660q73 19 189 19q118 0 185 -42q83 -50 83 -152q0 -125 -96 -196q-83 -62 -220 -62q-7 0 -55 4l-44 -231h-166zM283 540l-33 -171q24 -4 51 -4q54 0 88.5 30.5t34.5 73.5q0 75 -89 75q-32 0 -52 -4z" />
    <glyph glyph-name="afii10035" unicode="&#x421;" horiz-adv-x="594" 
d="M525 155l12 -138q-65 -28 -179 -28q-138 0 -223 78t-85 211q0 118 48.5 205.5t132.5 138.5q103 63 244 63q97 0 149 -27l-45 -138q-54 19 -118 19q-81 0 -137 -42q-89 -69 -89 -200q0 -76 45 -119t123 -43q73 0 122 20z" />
    <glyph glyph-name="afii10036" unicode="&#x422;" horiz-adv-x="550" 
d="M139 0l98 525h-169l29 149h512l-28 -149h-173l-99 -525h-170z" />
    <glyph glyph-name="afii10037" unicode="&#x423;" horiz-adv-x="583" 
d="M70 674h189l48 -216q10 -43 29 -138h5q35 97 53 139l86 215h198l-189 -363q-37 -71 -58 -107.5t-56.5 -83.5t-72.5 -77q-64 -54 -158 -54q-65 0 -102 18l29 139q27 -9 59 -9q51 0 77 43q14 23 5 50z" />
    <glyph glyph-name="afii10038" unicode="&#x424;" horiz-adv-x="805" 
d="M270 -30l12 67q-96 20 -163.5 87t-67.5 179q0 71 22.5 129.5t58.5 96.5t82.5 64.5t92.5 38.5t90 13l11 59h159l-11 -62q96 -19 162.5 -87t66.5 -183q0 -86 -32 -153.5t-83.5 -106t-110 -58.5t-118.5 -21l-12 -63h-159zM305 159l69 365q-59 -5 -104.5 -68.5t-45.5 -154.5
q0 -57 23 -94t58 -48zM533 521l-70 -366q57 5 103.5 64.5t46.5 164.5q0 56 -21.5 92t-58.5 45z" />
    <glyph glyph-name="afii10039" unicode="&#x425;" horiz-adv-x="590" 
d="M539 0h-182l-37 122q-4 16 -33 115h-2q-12 -21 -31.5 -59.5t-32.5 -62.5l-62 -115h-205l248 345l-115 329h180l31 -110q22 -84 30 -116h3q13 24 32.5 62t29.5 57l57 107h203l-240 -331z" />
    <glyph glyph-name="afii10040" unicode="&#x426;" horiz-adv-x="689" 
d="M142 674h170l-100 -529h199l101 529h170l-101 -535l66 -6l-71 -307h-136l24 174h-450z" />
    <glyph glyph-name="afii10041" unicode="&#x427;" horiz-adv-x="623" 
d="M129 674h170l-37 -189q-5 -23 -5 -47q0 -63 81 -63q47 0 78 17l54 282h170l-129 -674h-170l50 258l-3 1q-45 -22 -125 -22q-85 0 -133.5 41t-48.5 115q0 31 8 77z" />
    <glyph glyph-name="afii10042" unicode="&#x428;" horiz-adv-x="904" 
d="M142 674h166l-100 -529h140l100 529h167l-101 -529h140l100 529h166l-127 -674h-779z" />
    <glyph glyph-name="afii10043" unicode="&#x429;" horiz-adv-x="928" 
d="M143 674h166l-100 -529h140l100 529h166l-100 -529h139l101 529h166l-101 -535l66 -6l-71 -307h-136l24 174h-688z" />
    <glyph glyph-name="afii10044" unicode="&#x42a;" horiz-adv-x="714" 
d="M96 674h332l-46 -227q38 6 70 6q103 0 165 -52.5t62 -149.5q0 -94 -65 -161q-97 -98 -306 -98q-111 0 -177 12l99 523h-162zM356 314l-35 -184q16 -3 44 -3q50 0 90.5 27.5t40.5 75.5q0 41 -26.5 65t-67.5 24q-21 0 -46 -5z" />
    <glyph glyph-name="afii10045" unicode="&#x42b;" horiz-adv-x="857" 
d="M140 674h170l-46 -228q35 7 75 7q90 0 150.5 -52.5t60.5 -147.5q0 -99 -67 -166q-94 -95 -292 -95q-111 0 -177 12zM238 313l-34 -184q10 -2 43 -2q45 0 82.5 27t37.5 76q0 41 -23 65t-59 24q-19 0 -47 -6zM695 674h179l-129 -674h-179z" />
    <glyph glyph-name="afii10046" unicode="&#x42c;" horiz-adv-x="595" 
d="M140 674h170l-46 -228q33 7 74 7q100 0 162 -52t62 -150q0 -95 -65 -160q-99 -99 -306 -99q-111 0 -177 12zM238 314l-34 -184q15 -3 44 -3q50 0 90.5 27t40.5 76q0 41 -26.5 65t-68.5 24q-11 0 -46 -5z" />
    <glyph glyph-name="afii10047" unicode="&#x42d;" horiz-adv-x="589" 
d="M101 265l26 136h264v8q-2 55 -40.5 93.5t-106.5 38.5q-62 0 -126 -23l-33 129q86 38 182 38q139 0 220.5 -84.5t81.5 -223.5q0 -182 -110 -287q-103 -101 -287 -101q-55 0 -105.5 12t-75.5 26l41 134q55 -27 138 -27q77 0 129.5 36t69.5 95h-268z" />
    <glyph glyph-name="afii10048" unicode="&#x42e;" horiz-adv-x="973" 
d="M142 674h170l-48 -255h81q31 102 97 168q100 98 244 98q126 0 198 -77.5t72 -205.5q0 -94 -30.5 -177.5t-85.5 -139.5q-98 -96 -244 -96q-119 0 -193 76t-74 179q0 18 2 27h-96l-50 -271h-171zM617 129h1q47 0 85 44.5t56.5 105t18.5 118.5q0 66 -26 107t-85 41
q-72 0 -120 -86t-48 -182q0 -68 30 -108t88 -40z" />
    <glyph glyph-name="afii10049" unicode="&#x42f;" horiz-adv-x="595" 
d="M612 662l-122 -662h-171l49 258h-16q-31 0 -58.5 -23.5t-42.5 -48.5t-32 -59q-1 -3 -2 -5l-2 -4q-44 -88 -64 -118h-188q32 47 83 151q73 139 150 163v3q-42 11 -76.5 49.5t-34.5 100.5q0 104 90 160q77 52 228 52q133 0 209 -17zM392 383l29 162q-33 3 -45 3
q-51 0 -83 -23t-32 -68q0 -36 27.5 -56.5t66.5 -20.5q19 0 37 3z" />
    <glyph glyph-name="afii10065" unicode="&#x430;" horiz-adv-x="568" 
d="M486 0h-156q4 55 5 85h-3q-57 -96 -156 -96q-67 0 -109.5 48t-42.5 127q0 64 21 122.5t62 108t112 79t162 29.5q93 0 174 -27l-49 -258q-22 -105 -20 -218zM346 273l18 99q-16 3 -30 3q-55 0 -93.5 -59.5t-38.5 -119.5q0 -34 13.5 -52t35.5 -18q28 0 54.5 34t40.5 113z
" />
    <glyph glyph-name="afii10066" unicode="&#x431;" horiz-adv-x="576" 
d="M588 719l-26 -140q-23 -7 -93 -14q-48 -3 -69.5 -5t-60.5 -15t-67 -36q-23 -20 -42 -50t-25 -55h5q66 88 161 88q82 0 129.5 -55.5t46.5 -139.5q-1 -129 -83.5 -218.5t-209.5 -89.5q-97 0 -153 63.5t-56 181.5q0 232 130 359q63 61 133 83t175 28q71 4 105 15zM272 113h1
q48 0 73 56t25 116q0 33 -14.5 59.5t-44.5 26.5q-31 0 -56 -32q-44 -53 -44 -135q0 -38 15 -64.5t45 -26.5z" />
    <glyph glyph-name="afii10067" unicode="&#x432;" horiz-adv-x="558" 
d="M325 503h1q193 0 193 -124q0 -44 -34.5 -73.5t-78.5 -40.5v-3q42 -4 72 -30t30 -68q0 -48 -26.5 -84t-70 -55t-88 -27.5t-89.5 -8.5q-205 0 -205 156q0 81 33 174.5t94 136.5q68 47 169 47zM314 390h-1q-63 0 -90 -97q63 10 94 24q39 16 39 41q0 14 -11.5 23t-30.5 9z
M276 201h-1q-38 0 -72 -14q-5 -25 -5 -34q0 -48 55 -48q39 0 61 15.5t22 38.5q0 42 -60 42z" />
    <glyph glyph-name="afii10068" unicode="&#x433;" horiz-adv-x="444" 
d="M101 355l-15 113q74 35 170 35q85 0 130.5 -37.5t45.5 -104.5q0 -60 -44.5 -98t-128.5 -72q-43 -18 -62 -30t-19 -27q0 -21 40 -21q63 0 143 39l16 -120q-86 -43 -184 -43q-90 0 -140.5 35.5t-50.5 104.5q0 22 6 42t14 34t25 28.5t28.5 22.5t35.5 19.5t35.5 16t38.5 15.5
q82 32 82 50q0 23 -47 23q-54 0 -119 -25z" />
    <glyph glyph-name="afii10069" unicode="&#x434;" horiz-adv-x="576" 
d="M139 580l-2 139q29 -8 95.5 -11.5t70.5 -3.5q114 -13 171 -63q83 -64 83 -229q0 -62 -10.5 -120.5t-35.5 -114t-61 -97t-91.5 -66.5t-122.5 -25q-97 0 -153 55t-56 153q0 115 75 205t189 90q89 0 126 -72h4q0 19 1 23q0 53 -39 85q-39 34 -141 41q-64 4 -103 11zM261 114
h1q32 0 56.5 30.5t35 67t11.5 68.5q0 86 -59 86q-48 0 -76.5 -57t-26.5 -116q2 -79 58 -79z" />
    <glyph glyph-name="afii10070" unicode="&#x435;" horiz-adv-x="523" 
d="M433 151l9 -123q-80 -39 -193 -39q-108 0 -165.5 55t-57.5 158q0 120 80.5 210.5t213.5 90.5q79 0 130.5 -42t51.5 -115q1 -90 -79 -131t-236 -36q4 -20 18 -33q30 -25 88 -25q75 0 140 30zM343 347v1q0 13 -12 22.5t-32 9.5q-42 0 -66.5 -24.5t-29.5 -53.5q76 -1 108 10
t32 35z" />
    <glyph glyph-name="afii10072" unicode="&#x436;" horiz-adv-x="765" 
d="M49 492h183l60 -197h12l37 197h161l-40 -197h13l142 197h189l-195 -213q53 -23 74 -150q12 -81 27 -129h-165q-9 25 -21 102q-3 20 -6 33.5t-10 30.5t-18.5 25.5t-28.5 8.5h-17l-36 -200h-162l38 199h-12q-58 0 -95 -83q-6 -12 -17 -38t-20 -44.5t-18 -33.5h-167
q14 24 34.5 73t26.5 62q27 57 64 97t79 46z" />
    <glyph glyph-name="afii10073" unicode="&#x437;" horiz-adv-x="487" 
d="M99 198l17 108h67q86 0 86 37q0 19 -18.5 29.5t-47.5 10.5q-59 0 -123 -30l-27 102q90 46 192 46q35 0 67 -5.5t65 -18.5t52.5 -40.5t19.5 -66.5q0 -47 -36 -75.5t-88 -38.5v-1q46 -9 78 -37t32 -76q0 -42 -23.5 -73t-62.5 -47t-78 -23t-80 -7q-130 0 -210 53l42 112
q69 -42 146 -42q35 0 60 11t25 31q0 41 -87 41h-68z" />
    <glyph glyph-name="afii10074" unicode="&#x438;" horiz-adv-x="575" 
d="M98 492h171l-49 -259q-7 -35 -7 -62q0 -44 37 -44q33 0 60.5 39t40.5 108l41 218h171l-61 -324q-6 -29 -11 -59.5t-10 -62t-8 -46.5h-150l8 75h-2q-71 -86 -168 -86q-124 0 -124 136q0 44 10 94z" />
    <glyph glyph-name="afii10075" unicode="&#x439;" horiz-adv-x="575" 
d="M98 492h171l-49 -259q-7 -35 -7 -62q0 -44 37 -44q33 0 60.5 39t40.5 108l41 218h171l-61 -324q-6 -29 -11 -59.5t-10 -62t-8 -46.5h-150l8 75h-2q-71 -86 -168 -86q-124 0 -124 136q0 44 10 94zM229 696h104q-8 -63 30 -63q32 0 48 63h105q-14 -67 -56.5 -102
t-107.5 -35q-66 0 -97 35.5t-26 101.5z" />
    <glyph glyph-name="afii10076" unicode="&#x43a;" horiz-adv-x="530" 
d="M99 492h167l-37 -196h12l144 196h199l-205 -217q58 -28 72 -148q11 -80 28 -127h-169q-4 11 -7.5 28.5t-8.5 45.5t-7 41q-7 42 -21.5 62.5t-43.5 20.5h-12l-38 -198h-166z" />
    <glyph glyph-name="afii10077" unicode="&#x43b;" horiz-adv-x="560" 
d="M141 492h409l-93 -492h-170l68 362h-83l-16 -80q-33 -160 -98 -225q-63 -66 -175 -66l-10 135q49 4 76 34q36 41 52 127z" />
    <glyph glyph-name="afii10078" unicode="&#x43c;" horiz-adv-x="732" 
d="M123 492h216l10 -167q1 -14 5 -108h2q20 48 55 119l77 156h217l-66 -492h-157l29 181q4 22 14.5 86t12.5 75h-3q-47 -104 -70 -151l-88 -181h-129l-13 175q-5 74 -9 158h-4q-24 -114 -35 -165l-43 -178h-149z" />
    <glyph glyph-name="afii10079" unicode="&#x43d;" horiz-adv-x="569" 
d="M98 492h171l-33 -174h119l33 174h170l-93 -492h-170l35 187h-118l-35 -187h-171z" />
    <glyph glyph-name="afii10080" unicode="&#x43e;" horiz-adv-x="575" 
d="M243 -11h-1q-96 0 -156 55t-60 149q0 132 84.5 221t217.5 89q98 0 157 -57t59 -145q0 -141 -85 -226.5t-216 -85.5zM265 118h1q47 0 74 59t27 122q0 33 -15 54t-46 21q-34 0 -59 -33t-35 -72t-10 -73q0 -37 16.5 -57.5t46.5 -20.5z" />
    <glyph glyph-name="afii10081" unicode="&#x43f;" horiz-adv-x="576" 
d="M177 0h-171l61 325q13 70 28 167h150l-7 -75h2q65 86 167 86q65 0 96 -36t31 -98q0 -38 -8 -84l-54 -285h-171l50 267q5 28 5 52q0 48 -37 48q-32 0 -60 -41t-43 -116z" />
    <glyph glyph-name="afii10082" unicode="&#x440;" horiz-adv-x="581" 
d="M139 -198h-170l94 493q16 96 29 202h152l-7 -68h2q57 74 149 74q77 0 119.5 -53.5t42.5 -136.5q0 -133 -79 -228.5t-205 -95.5q-56 0 -85 20h-2zM220 232l-15 -93q22 -22 54 -22q46 0 79 58.5t33 124.5q0 27 -13 46t-38 19q-37 0 -64 -36.5t-36 -96.5z" />
    <glyph glyph-name="afii10083" unicode="&#x441;" horiz-adv-x="438" 
d="M379 143l-2 -129q-50 -25 -138 -25q-94 0 -154.5 54t-60.5 154q0 133 93 219.5t236 86.5q57 0 99 -15l-40 -129q-25 9 -60 9q-67 0 -108 -44.5t-41 -108.5q0 -44 25 -67t61 -23q45 0 90 18z" />
    <glyph glyph-name="afii10084" unicode="&#x442;" horiz-adv-x="842" 
d="M171 0h-165l60 325q13 73 26 167h146l-7 -75h1q62 86 166 86q54 0 83.5 -27t33.5 -59q63 86 165 86q61 0 90.5 -35.5t29.5 -97.5q0 -37 -8 -85l-53 -285h-165l48 263q7 33 7 57q0 21 -10 34t-28 13q-32 0 -58 -42.5t-40 -114.5l-39 -210h-164l49 263q6 38 6 54
q0 50 -35 50q-32 0 -60 -43.5t-41 -113.5z" />
    <glyph glyph-name="afii10085" unicode="&#x443;" horiz-adv-x="522" 
d="M41 492h180l23 -194q2 -17 5 -42t5 -41t4 -29h2q14 47 39 113l73 193h179q-14 -28 -48.5 -101t-67 -140t-56.5 -113q-100 -193 -196 -281q-40 -36 -86.5 -57.5t-77.5 -26.5l-38 147q44 11 81 35q49 31 73 74q6 8 3 24z" />
    <glyph glyph-name="afii10086" unicode="&#x444;" horiz-adv-x="759" 
d="M215 -198l43 226h-2q-36 -39 -100 -39q-56 0 -93.5 48t-37.5 139q0 132 69 229.5t172 97.5q51 0 75 -40h2l47 247h151l-49 -250h3q41 43 100 43q67 0 102 -53t35 -133q0 -135 -68.5 -231.5t-169.5 -96.5q-59 0 -80 38h-2l-40 -225h-157zM290 374h-1q-36 0 -64.5 -58.5
t-28.5 -119.5q0 -33 11.5 -51.5t30.5 -18.5q36 0 49 46l27 137q5 19 5 39q-3 26 -29 26zM521 365h-1q-26 0 -39 -25q-12 -32 -18 -64q-12 -61 -20 -109q-5 -30 6 -36q16 -11 35 -6q29 7 53.5 60.5t24.5 111.5q0 29 -11 48.5t-30 19.5z" />
    <glyph glyph-name="afii10087" unicode="&#x445;" horiz-adv-x="524" 
d="M43 492h187l21 -59q9 -24 31 -85h3q10 14 26.5 40.5t25.5 40.5l39 63h195l-207 -239l113 -253h-187l-23 65q-19 50 -30 90h-3q-41 -73 -49 -86l-42 -69h-196l212 255z" />
    <glyph glyph-name="afii10088" unicode="&#x446;" horiz-adv-x="592" 
d="M98 492h171l-49 -259q-7 -35 -7 -62q0 -44 37 -44q33 0 60.5 39t40.5 108l41 218h171l-51 -268q-11 -55 -11 -73q0 -59 71 -60l-82 -253h-121l43 163q-26 11 -41 32q-13 19 -18 48h-2q-74 -92 -179 -92q-65 0 -100 36t-35 100q0 44 10 94z" />
    <glyph glyph-name="afii10089" unicode="&#x447;" horiz-adv-x="555" 
d="M85 492h170l-23 -115q-7 -35 -7 -50q0 -20 14 -33.5t40 -13.5q36 0 60 18l36 194h170l-94 -492h-171l38 179h-2q-41 -22 -108 -22q-79 0 -119 35t-40 95q0 35 9 74z" />
    <glyph glyph-name="afii10090" unicode="&#x448;" horiz-adv-x="843" 
d="M98 492h165l-48 -262q-7 -35 -7 -58q0 -21 10 -34t28 -13q31 0 57.5 42.5t40.5 114.5l39 210h164l-49 -262q-6 -38 -6 -55q0 -50 35 -50q32 0 60 43.5t41 113.5l38 210h165l-60 -323q-11 -63 -16 -169h-152q1 13 2.5 38.5t1.5 37.5h-1q-64 -87 -167 -87q-54 0 -83.5 27
t-33.5 59q-64 -86 -165 -86q-61 0 -90.5 35.5t-29.5 98.5q0 37 8 85z" />
    <glyph glyph-name="afii10091" unicode="&#x449;" horiz-adv-x="862" 
d="M98 492h165l-48 -262q-7 -35 -7 -58q0 -21 10 -34t28 -13q31 0 57 42.5t40 114.5l40 210h164l-49 -262q-6 -38 -6 -55q0 -50 35 -50q32 0 60 43.5t41 113.5l38 210h165l-47 -257q-12 -76 -12 -87q0 -56 70 -57l-82 -253h-121l44 163q-21 5 -39.5 29.5t-23.5 50.5h-3
q-33 -45 -80 -68.5t-98 -23.5q-54 0 -83.5 27t-33.5 59q-64 -86 -165 -86q-61 0 -90.5 35.5t-29.5 98.5q0 37 8 85z" />
    <glyph glyph-name="afii10092" unicode="&#x44a;" horiz-adv-x="608" 
d="M56 492h345q-66 -93 -102 -174h1q46 36 124 36q62 0 103 -36.5t41 -101.5q0 -86 -74.5 -156.5t-203.5 -70.5q-39 0 -69 5.5t-59.5 20t-46 45.5t-16.5 77q0 98 87 225h-154zM313 110h1q35 0 61 21t26 55q0 48 -51 48q-26 0 -45.5 -14t-27.5 -31q-9 -17 -9 -35
q0 -19 11.5 -31.5t33.5 -12.5z" />
    <glyph glyph-name="afii10093" unicode="&#x44b;" horiz-adv-x="784" 
d="M108 492h167l-45 -174h1q48 36 125 36q61 0 98 -36t37 -100q0 -41 -17 -80t-49.5 -73t-88.5 -55t-126 -21q-178 0 -178 126q0 32 14 102zM245 110h1q29 0 54 21.5t25 55.5q0 23 -12.5 35t-33.5 12q-27 0 -47 -17t-26 -36q-5 -17 -5 -32q0 -17 11 -28t33 -11zM595 492h178
l-94 -492h-178z" />
    <glyph glyph-name="afii10094" unicode="&#x44c;" horiz-adv-x="541" 
d="M109 492h166l-45 -173l1 -1q47 36 125 36q62 0 103.5 -36.5t41.5 -100.5q0 -92 -74.5 -160t-213.5 -68q-182 0 -182 131q0 28 16 97zM247 110h1q32 0 59.5 21t27.5 55q0 24 -13.5 36t-35.5 12q-30 0 -50.5 -16.5t-28.5 -35.5q-6 -14 -6 -32q0 -40 46 -40z" />
    <glyph glyph-name="afii10095" unicode="&#x44d;" horiz-adv-x="485" 
d="M87 191l19 107h175v5q0 31 -26.5 51.5t-72.5 20.5q-59 0 -99 -16l-27 117q71 27 150 27q117 0 180 -63t63 -170q0 -129 -82.5 -205t-230.5 -76q-93 4 -151 34l39 118q49 -22 115 -22q99 0 127 72h-179z" />
    <glyph glyph-name="afii10096" unicode="&#x44e;" horiz-adv-x="791" 
d="M98 492h171l-33 -179h59q31 86 100.5 138t161.5 52q90 0 147 -58t57 -150q0 -137 -81 -221.5t-204 -84.5q-90 0 -144 51.5t-54 134.5v18h-65l-36 -193h-171zM496 118h1q40 0 65.5 60t25.5 121q0 33 -12.5 54t-37.5 21q-43 0 -69.5 -61t-26.5 -117q0 -78 54 -78z" />
    <glyph glyph-name="afii10097" unicode="&#x44f;" horiz-adv-x="556" 
d="M546 491l-93 -491h-168l34 176h-21q-55 0 -94 -75q-32 -66 -55 -101h-183q18 25 43.5 73t29.5 55q46 82 115 97v3q-34 5 -66 35t-32 73q0 37 13.5 65.5t38.5 46t53 29t64.5 16.5t64.5 7t62 2q112 0 194 -11zM339 283l19 103q-24 4 -45 4q-83 0 -83 -55q0 -52 76 -52h33z
" />
    <glyph glyph-name="afii10071" unicode="&#x451;" horiz-adv-x="523" 
d="M433 151l9 -123q-80 -39 -193 -39q-108 0 -165.5 55t-57.5 158q0 120 80.5 210.5t213.5 90.5q79 0 130.5 -42t51.5 -115q0 -176 -315 -167q4 -20 18 -33q30 -25 88 -25q75 0 140 30zM343 347v1q0 13 -12 22.5t-32 9.5q-42 0 -66.5 -24.5t-29.5 -53.5q76 -1 108 10t32 35z
M225 547h-1q-31 0 -52.5 20t-21.5 53q0 38 24.5 61.5t61.5 23.5q33 0 53 -20.5t20 -52.5q0 -39 -24 -62t-60 -23zM441 547h-1q-31 0 -53 20t-22 53q0 38 25 61.5t61 23.5q33 0 53 -20.5t20 -52.5q0 -39 -24 -62t-59 -23z" />
    <glyph glyph-name="afii10099" unicode="&#x452;" horiz-adv-x="577" 
d="M141 710h170l-11 -56h214l-21 -110h-214l-19 -102h2q54 52 124 52q78 0 116.5 -58t38.5 -145q0 -193 -105 -321q-38 -46 -97 -76t-113 -35l-25 140q51 8 95 56q28 32 47.5 87t19.5 117q0 95 -54 95q-63 0 -87 -120l-44 -234h-171l102 544h-52l22 110h52z" />
    <glyph glyph-name="afii10100" unicode="&#x453;" horiz-adv-x="444" 
d="M101 355l-15 113q74 35 170 35q85 0 130.5 -37.5t45.5 -104.5q0 -60 -44.5 -98t-128.5 -72q-43 -18 -62 -30t-19 -27q0 -21 40 -21q63 0 143 39l16 -120q-86 -43 -184 -43q-90 0 -140.5 35.5t-50.5 104.5q0 22 6 42t14 34t25 28.5t28.5 22.5t35.5 19.5t35.5 16t38.5 15.5
q82 32 82 50q0 23 -47 23q-54 0 -119 -25zM302 706h161l-129 -156h-124z" />
    <glyph glyph-name="afii10101" unicode="&#x454;" horiz-adv-x="452" 
d="M465 480l-38 -120q-34 16 -81 16q-46 0 -80 -20t-48 -58h173l-19 -106h-171q0 -1 1 -3v-2q14 -66 100 -66q51 0 96 18l6 -123q-57 -27 -148 -27q-100 0 -164 59t-64 163q0 127 80 205q87 87 234 87q81 0 123 -23z" />
    <glyph glyph-name="afii10102" unicode="&#x455;" horiz-adv-x="436" 
d="M-9 30l40 118q78 -36 138 -35q48 0 48 29q0 14 -13 25.5t-45 25.5q-110 53 -110 133q0 81 64.5 129t167.5 48q88 0 136 -26l-39 -118q-51 21 -104 21t-53 -30q0 -21 56 -45q24 -11 41.5 -22t36.5 -27.5t29.5 -39t10.5 -48.5q0 -86 -67 -133.5t-175 -45.5q-107 2 -162 41z
" />
    <glyph glyph-name="afii10103" unicode="&#x456;" horiz-adv-x="284" 
d="M177 0h-171l93 492h171zM202 545h-1q-37 0 -60.5 23t-23.5 61q0 43 30 71t72 28q39 0 63 -22.5t24 -61.5q0 -46 -30 -72.5t-74 -26.5z" />
    <glyph glyph-name="afii10104" unicode="&#x457;" horiz-adv-x="281" 
d="M177 0h-171l93 492h171zM99 547h-1q-31 0 -52.5 20t-21.5 53q0 38 24.5 61.5t61.5 23.5q33 0 53 -20.5t20 -52.5q0 -39 -24 -62t-60 -23zM315 547h-1q-31 0 -53 20t-22 53q0 38 25 61.5t61 23.5q33 0 53 -20.5t20 -52.5q0 -39 -24 -62t-59 -23z" />
    <glyph glyph-name="afii10105" unicode="&#x458;" horiz-adv-x="297" 
d="M118 492h170l-87 -469q-23 -124 -72 -177q-48 -55 -143 -55q-42 0 -75 8l19 129q11 -2 30 -2q25 0 42.5 19.5t27.5 75.5zM216 545h-1q-37 0 -60.5 23t-23.5 61q0 43 29.5 71t71.5 28q39 0 63.5 -23t24.5 -61q0 -46 -30 -72.5t-74 -26.5z" />
    <glyph glyph-name="afii10106" unicode="&#x459;" horiz-adv-x="806" 
d="M128 492h403l-36 -173h3q45 35 123 35q63 0 104.5 -36.5t41.5 -100.5q0 -40 -17 -79t-51 -73t-92.5 -55t-132.5 -21q-177 0 -177 129q0 25 15 100l30 144h-83l-16 -80q-32 -160 -98 -226q-62 -65 -162 -65l-10 135q38 5 63 34q35 38 53 127zM512 110h1q32 0 60 21t28 55
q0 24 -14.5 36t-37.5 12q-29 0 -49.5 -17.5t-27.5 -38.5q-5 -14 -5 -26q0 -42 45 -42z" />
    <glyph glyph-name="afii10107" unicode="&#x45a;" horiz-adv-x="813" 
d="M98 492h171l-33 -171h104l35 171h166l-37 -174h2q45 36 122 36q63 0 104.5 -36.5t41.5 -100.5q0 -88 -75 -158t-218 -70q-175 0 -175 122q0 24 5 54l5 27h-104l-35 -192h-171zM519 110h1q36 0 61.5 20.5t25.5 55.5q0 24 -13.5 36t-35.5 12q-30 0 -50.5 -17t-26.5 -36
q-6 -24 -6 -32q0 -17 12.5 -28t31.5 -11z" />
    <glyph glyph-name="afii10108" unicode="&#x45b;" horiz-adv-x="577" 
d="M142 710h171l-11 -59h195l-23 -107h-193l-20 -105h2q67 64 148 64q62 0 93.5 -36t31.5 -98q0 -42 -10 -90l-52 -279h-171l50 263q6 30 6 58q0 46 -38 46q-34 0 -61 -40t-40 -111l-41 -216h-171l103 544h-69l21 107h68z" />
    <glyph glyph-name="afii10109" unicode="&#x45c;" horiz-adv-x="530" 
d="M99 492h167l-37 -196h12l144 196h199l-205 -217q58 -28 72 -148q11 -80 28 -127h-169q-4 11 -7.5 28.5t-8.5 45.5t-7 41q-7 42 -21.5 62.5t-43.5 20.5h-12l-38 -198h-166zM334 706h161l-129 -156h-124z" />
    <glyph glyph-name="afii10110" unicode="&#x45e;" horiz-adv-x="522" 
d="M41 492h180l23 -194q2 -17 5 -42t5 -41t4 -29h2q14 47 39 113l73 193h179q-14 -28 -48.5 -101t-67 -140t-56.5 -113q-100 -193 -196 -281q-40 -36 -86.5 -57.5t-77.5 -26.5l-38 147q44 11 81 35q49 31 73 74q6 8 3 24zM187 696h105q-8 -63 29 -63q32 0 48 63h105
q-14 -67 -56.5 -102t-107.5 -35q-131 0 -123 137z" />
    <glyph glyph-name="afii10193" unicode="&#x45f;" horiz-adv-x="575" 
d="M98 492h171l-49 -259q-7 -35 -7 -62q0 -44 37 -44q33 0 60.5 39t40.5 108l41 218h171l-61 -324q-6 -29 -11 -59.5t-10 -62t-8 -46.5h-150l8 75h-2q-71 -86 -168 -86q-124 0 -124 136q0 44 10 94zM264 -194l-135 -19l37 165l148 10z" />
    <glyph glyph-name="afii10050" unicode="&#x490;" horiz-adv-x="467" 
d="M142 674h249l47 135h129l-70 -284h-213l-99 -525h-171z" />
    <glyph glyph-name="afii10098" unicode="&#x491;" horiz-adv-x="418" 
d="M99 492h202l41 117h125l-57 -250h-165l-68 -359h-171z" />
    <glyph glyph-name="afii10846" unicode="&#x4d9;" horiz-adv-x="520" 
d="M87 340l-16 120q83 43 195 43q109 0 166.5 -55t57.5 -159q0 -121 -79.5 -210.5t-211.5 -89.5q-81 0 -133.5 41.5t-52.5 115.5q0 177 315 168q-3 16 -16 31q-28 27 -88 27q-70 0 -137 -32zM217 113h1q41 0 65 24.5t29 53.5q-75 1 -107.5 -10t-32.5 -35q0 -14 12.5 -23.5
t32.5 -9.5z" />
    <glyph glyph-name="Wgrave" unicode="&#x1e80;" horiz-adv-x="879" 
d="M303 0h-190l-23 674h172l-5 -254q-5 -181 -7 -238h2q16 44 46 128t38 108l92 256h189l-9 -263q-5 -131 -10 -224h2q39 122 78 233l88 254h180l-290 -674h-188l1 230q2 142 8 237h-2q-69 -202 -88 -249zM337 840h181l78 -128h-141z" />
    <glyph glyph-name="wgrave" unicode="&#x1e81;" horiz-adv-x="745" 
d="M47 492h173l-6 -180q-2 -85 -7 -167h2q11 36 62 163l76 184h137l4 -176q2 -112 -1 -171h2q11 37 58 176l62 171h172l-237 -492h-161l-6 130q-3 54 -3 169h-2q-57 -157 -59 -160l-59 -139h-161zM266 706h159l79 -156h-122z" />
    <glyph glyph-name="Wacute" unicode="&#x1e82;" horiz-adv-x="879" 
d="M303 0h-190l-23 674h172l-5 -254q-5 -181 -7 -238h2q16 44 46 128t38 108l92 256h189l-9 -263q-5 -131 -10 -224h2q39 122 78 233l88 254h180l-290 -674h-188l1 230q2 142 8 237h-2q-69 -202 -88 -249zM534 840h183l-131 -130h-143z" />
    <glyph glyph-name="wacute" unicode="&#x1e83;" horiz-adv-x="745" 
d="M47 492h173l-6 -180q-2 -85 -7 -167h2q11 36 62 163l76 184h137l4 -176q2 -112 -1 -171h2q11 37 58 176l62 171h172l-237 -492h-161l-6 130q-3 54 -3 169h-2q-57 -157 -59 -160l-59 -139h-161zM434 706h160l-129 -156h-123z" />
    <glyph glyph-name="Wdieresis" unicode="&#x1e84;" horiz-adv-x="879" 
d="M303 0h-190l-23 674h172l-5 -254q-5 -181 -7 -238h2q16 44 46 128t38 108l92 256h189l-9 -263q-5 -131 -10 -224h2q39 122 78 233l88 254h180l-290 -674h-188l1 230q2 142 8 237h-2q-69 -202 -88 -249zM428 708h-1q-29 0 -50.5 19.5t-21.5 50.5q0 37 23.5 59.5t58.5 22.5
q32 0 52 -20.5t20 -50.5q0 -36 -24 -58.5t-57 -22.5zM644 708h-1q-29 0 -50 19.5t-21 50.5q0 37 23.5 59.5t58.5 22.5q32 0 51.5 -20t19.5 -51q0 -36 -23.5 -58.5t-57.5 -22.5z" />
    <glyph glyph-name="wdieresis" unicode="&#x1e85;" horiz-adv-x="745" 
d="M47 492h173l-6 -180q-2 -85 -7 -167h2q11 36 62 163l76 184h137l4 -176q2 -112 -1 -171h2q11 37 58 176l62 171h172l-237 -492h-161l-6 130q-3 54 -3 169h-2q-57 -157 -59 -160l-59 -139h-161zM326 547h-1q-31 0 -53 20t-22 53q0 38 25 61.5t61 23.5q33 0 53 -20.5
t20 -52.5q0 -39 -24 -62t-59 -23zM541 547h-1q-31 0 -53 20t-22 53q0 38 25 61.5t61 23.5q33 0 53.5 -20.5t20.5 -52.5q0 -38 -24.5 -61.5t-59.5 -23.5z" />
    <glyph glyph-name="uni1EA0" unicode="&#x1ea0;" horiz-adv-x="640" 
d="M398 159h-177l-67 -159h-183l320 674h223l72 -674h-180zM269 287h123l-7 124q-1 15 -4 63.5t-5 72.5h-2q-6 -14 -24.5 -64.5t-28.5 -71.5zM253 -233h-1q-33 0 -55.5 22.5t-22.5 53.5q0 33 22.5 55t56.5 22q32 0 53 -22t21 -55q0 -31 -21.5 -53.5t-52.5 -22.5z" />
    <glyph glyph-name="uni1EA1" unicode="&#x1ea1;" horiz-adv-x="568" 
d="M483 0h-156q1 14 2 42.5t2 42.5h-2q-55 -96 -155 -96q-67 0 -109.5 48t-42.5 127q0 64 20.5 122.5t62 108t112.5 79t162 29.5q90 0 175 -27l-52 -258q-22 -117 -19 -218zM343 273l20 99q-17 3 -31 3q-56 0 -94 -59t-38 -120q0 -70 49 -70q28 0 53.5 34t40.5 113z
M223 -238h-1q-34 0 -57 23t-23 56q0 34 23 56.5t58 22.5q32 0 54 -22.5t22 -56.5q0 -33 -22 -56t-54 -23z" />
    <glyph glyph-name="uni1EA2" unicode="&#x1ea2;" horiz-adv-x="640" 
d="M398 159h-177l-67 -159h-183l320 674h223l72 -674h-180zM269 287h123l-7 124q-1 15 -4 63.5t-5 72.5h-2q-6 -14 -24.5 -64.5t-28.5 -71.5zM442 701l-75 27q8 14 33 39t25 44q0 11 -7 18.5t-19 7.5q-18 0 -44 -28l-47 36q54 76 130 76q45 0 72.5 -24t27.5 -61
q0 -28 -16 -49.5t-42 -44.5t-38 -41z" />
    <glyph glyph-name="uni1EA3" unicode="&#x1ea3;" horiz-adv-x="568" 
d="M483 0h-156q1 14 2 42.5t2 42.5h-2q-55 -96 -155 -96q-67 0 -109.5 48t-42.5 127q0 64 20.5 122.5t62 108t112.5 79t162 29.5q90 0 175 -27l-52 -258q-22 -117 -19 -218zM343 273l20 99q-17 3 -31 3q-56 0 -94 -59t-38 -120q0 -70 49 -70q28 0 53.5 34t40.5 113zM379 528
l-83 22q8 21 37.5 50.5t29.5 50.5q0 27 -25 27t-48 -35l-52 37q55 83 136 83q45 0 71.5 -25t26.5 -63q0 -33 -17 -58t-42 -48.5t-34 -40.5z" />
    <glyph glyph-name="uni1EA4" unicode="&#x1ea4;" horiz-adv-x="640" 
d="M398 159h-177l-67 -159h-183l320 674h223l72 -674h-180zM269 287h123l-7 124q-1 15 -4 63.5t-5 72.5h-2q-6 -14 -24.5 -64.5t-28.5 -71.5zM377 836h121l65 -126h-111l-24 60h-2l-55 -60h-123zM623 921h134l-140 -118h-82z" />
    <glyph glyph-name="uni1EA5" unicode="&#x1ea5;" horiz-adv-x="568" 
d="M483 0h-156q1 14 2 42.5t2 42.5h-2q-55 -96 -155 -96q-67 0 -109.5 48t-42.5 127q0 64 20.5 122.5t62 108t112.5 79t162 29.5q90 0 175 -27l-52 -258q-22 -117 -19 -218zM343 273l20 99q-17 3 -31 3q-56 0 -94 -59t-38 -120q0 -70 49 -70q28 0 53.5 34t40.5 113zM319 706
h124l62 -156h-106l-27 84h-2l-56 -84h-114zM575 806h130l-137 -156h-84z" />
    <glyph glyph-name="uni1EA6" unicode="&#x1ea6;" horiz-adv-x="640" 
d="M398 159h-177l-67 -159h-183l320 674h223l72 -674h-180zM269 287h123l-7 124q-1 15 -4 63.5t-5 72.5h-2q-6 -14 -24.5 -64.5t-28.5 -71.5zM476 910h134l54 -117h-82zM376 836h121l65 -126h-111l-24 60h-2l-55 -60h-123z" />
    <glyph glyph-name="uni1EA7" unicode="&#x1ea7;" horiz-adv-x="568" 
d="M483 0h-156q1 14 2 42.5t2 42.5h-2q-55 -96 -155 -96q-67 0 -109.5 48t-42.5 127q0 64 20.5 122.5t62 108t112.5 79t162 29.5q90 0 175 -27l-52 -258q-22 -117 -19 -218zM343 273l20 99q-17 3 -31 3q-56 0 -94 -59t-38 -120q0 -70 49 -70q28 0 53.5 34t40.5 113zM411 807
h119l73 -155h-77zM309 706h124l62 -156h-106l-27 84h-2l-56 -84h-114z" />
    <glyph glyph-name="uni1EA8" unicode="&#x1ea8;" horiz-adv-x="640" 
d="M398 159h-177l-67 -159h-183l320 674h223l72 -674h-180zM269 287h123l-7 124q-1 15 -4 63.5t-5 72.5h-2q-6 -14 -24.5 -64.5t-28.5 -71.5zM624 756l-68 25q8 18 32 38t24 35q0 11 -8 18.5t-19 7.5q-20 0 -43 -25l-42 40q51 61 120 61q41 0 66 -22t25 -56q0 -27 -14.5 -46
t-38 -39t-34.5 -37zM377 836h121l65 -126h-111l-24 60h-2l-55 -60h-123z" />
    <glyph glyph-name="uni1EA9" unicode="&#x1ea9;" horiz-adv-x="568" 
d="M483 0h-156q1 14 2 42.5t2 42.5h-2q-55 -96 -155 -96q-67 0 -109.5 48t-42.5 127q0 64 20.5 122.5t62 108t112.5 79t162 29.5q90 0 175 -27l-52 -258q-22 -117 -19 -218zM343 273l20 99q-17 3 -31 3q-56 0 -94 -59t-38 -120q0 -70 49 -70q28 0 53.5 34t40.5 113zM309 706
h124l62 -156h-106l-27 84h-2l-56 -84h-114zM554 631l-68 25q8 18 32 38t24 35q0 11 -8 18.5t-20 7.5q-20 0 -43 -25l-42 40q51 61 120 61q41 0 66 -22t25 -56q0 -27 -14.5 -46t-37.5 -39t-34 -37z" />
    <glyph glyph-name="uni1EAA" unicode="&#x1eaa;" horiz-adv-x="640" 
d="M398 159h-177l-67 -159h-183l320 674h223l72 -674h-180zM269 287h123l-7 124q-1 15 -4 63.5t-5 72.5h-2q-6 -14 -24.5 -64.5t-28.5 -71.5zM371 855h-80q5 56 32 87t69 31q31 0 63 -19q30 -17 42 -17t18.5 8t11.5 31h79q-9 -120 -102 -120q-28 0 -68 22q-26 13 -36 13
q-21 0 -29 -36zM376 836h121l65 -126h-111l-24 60h-2l-55 -60h-123z" />
    <glyph glyph-name="uni1EAB" unicode="&#x1eab;" horiz-adv-x="568" 
d="M483 0h-156q1 14 2 42.5t2 42.5h-2q-55 -96 -155 -96q-67 0 -109.5 48t-42.5 127q0 64 20.5 122.5t62 108t112.5 79t162 29.5q90 0 175 -27l-52 -258q-22 -117 -19 -218zM343 273l20 99q-17 3 -31 3q-56 0 -94 -59t-38 -120q0 -70 49 -70q28 0 53.5 34t40.5 113zM303 716
h-80q5 56 32 87t69 31q29 0 63 -18q32 -18 42 -18q12 0 18.5 8t10.5 32h79q-8 -121 -102 -121q-9 0 -16.5 1t-15 4t-12 5t-12.5 6l-12 6q-23 13 -35 13q-22 0 -29 -36zM309 687h115l74 -137h-104l-31 66h-2l-45 -66h-116z" />
    <glyph glyph-name="uni1EAC" unicode="&#x1eac;" horiz-adv-x="640" 
d="M398 159h-177l-67 -159h-183l320 674h223l72 -674h-180zM269 287h123l-7 124q-1 15 -4 63.5t-5 72.5h-2q-6 -14 -24.5 -64.5t-28.5 -71.5zM364 840h128l80 -130h-115l-37 57h-2l-52 -57h-127zM256 -233h-1q-33 0 -55.5 22.5t-22.5 53.5q0 33 22.5 55t56.5 22q32 0 53 -22
t21 -55q0 -31 -21.5 -53.5t-52.5 -22.5z" />
    <glyph glyph-name="uni1EAD" unicode="&#x1ead;" horiz-adv-x="568" 
d="M483 0h-156q1 14 2 42.5t2 42.5h-2q-55 -96 -155 -96q-67 0 -109.5 48t-42.5 127q0 64 20.5 122.5t62 108t112.5 79t162 29.5q90 0 175 -27l-52 -258q-22 -117 -19 -218zM343 273l20 99q-17 3 -31 3q-56 0 -94 -59t-38 -120q0 -70 49 -70q28 0 53.5 34t40.5 113zM313 706
h116l78 -156h-107l-38 73h-2l-54 -73h-116zM233 -238h-1q-34 0 -57 23t-23 56q0 34 23 56.5t58 22.5q32 0 54 -22.5t22 -56.5q0 -33 -22 -56t-54 -23z" />
    <glyph glyph-name="uni1EAE" unicode="&#x1eae;" horiz-adv-x="640" 
d="M398 159h-177l-67 -159h-183l320 674h223l72 -674h-180zM269 287h123l-7 124q-1 15 -4 63.5t-5 72.5h-2q-6 -14 -24.5 -64.5t-28.5 -71.5zM444 936h143l-140 -117h-74zM277 828h86q-1 -20 13.5 -33.5t40.5 -13.5q58 0 67 47h86q-21 -128 -163 -128q-73 0 -104.5 35
t-25.5 93z" />
    <glyph glyph-name="uni1EAF" unicode="&#x1eaf;" horiz-adv-x="568" 
d="M483 0h-156q1 14 2 42.5t2 42.5h-2q-55 -96 -155 -96q-67 0 -109.5 48t-42.5 127q0 64 20.5 122.5t62 108t112.5 79t162 29.5q90 0 175 -27l-52 -258q-22 -117 -19 -218zM343 273l20 99q-17 3 -31 3q-56 0 -94 -59t-38 -120q0 -70 49 -70q28 0 53.5 34t40.5 113zM401 826
h132l-131 -155h-90zM218 666h81q3 -53 58 -53q29 0 47.5 15.5t22.5 37.5h85q-9 -62 -52 -98.5t-112 -36.5q-68 0 -101.5 38t-28.5 97z" />
    <glyph glyph-name="uni1EB0" unicode="&#x1eb0;" horiz-adv-x="640" 
d="M398 159h-177l-67 -159h-183l320 674h223l72 -674h-180zM269 287h123l-7 124q-1 15 -4 63.5t-5 72.5h-2q-6 -14 -24.5 -64.5t-28.5 -71.5zM277 936h143l53 -117h-73zM281 828h86q-1 -20 13.5 -33.5t40.5 -13.5q58 0 67 47h86q-21 -128 -163 -128q-73 0 -104.5 35
t-25.5 93z" />
    <glyph glyph-name="uni1EB1" unicode="&#x1eb1;" horiz-adv-x="568" 
d="M483 0h-156q1 14 2 42.5t2 42.5h-2q-55 -96 -155 -96q-67 0 -109.5 48t-42.5 127q0 64 20.5 122.5t62 108t112.5 79t162 29.5q90 0 175 -27l-52 -258q-22 -117 -19 -218zM343 273l20 99q-17 3 -31 3q-56 0 -94 -59t-38 -120q0 -70 49 -70q28 0 53.5 34t40.5 113zM206 826
h129l77 -155h-88zM218 666h81q3 -53 58 -53q29 0 47.5 15.5t22.5 37.5h85q-9 -62 -52 -98.5t-112 -36.5q-68 0 -101.5 38t-28.5 97z" />
    <glyph glyph-name="uni1EB2" unicode="&#x1eb2;" horiz-adv-x="640" 
d="M398 159h-177l-67 -159h-183l320 674h223l72 -674h-180zM269 287h123l-7 124q-1 15 -4 63.5t-5 72.5h-2q-6 -14 -24.5 -64.5t-28.5 -71.5zM443 802l-68 25q8 18 32 38t24 35q0 11 -8 18.5t-19 7.5q-20 0 -43 -25l-42 40q51 61 120 61q41 0 66 -22t25 -56q0 -27 -14.5 -46
t-38 -39t-34.5 -37zM279 828h86q-1 -20 13.5 -33.5t40.5 -13.5q58 0 67 47h86q-21 -128 -163 -128q-73 0 -104.5 35t-25.5 93z" />
    <glyph glyph-name="uni1EB3" unicode="&#x1eb3;" horiz-adv-x="568" 
d="M483 0h-156q1 14 2 42.5t2 42.5h-2q-55 -96 -155 -96q-67 0 -109.5 48t-42.5 127q0 64 20.5 122.5t62 108t112.5 79t162 29.5q90 0 175 -27l-52 -258q-22 -117 -19 -218zM343 273l20 99q-17 3 -31 3q-56 0 -94 -59t-38 -120q0 -70 49 -70q28 0 53.5 34t40.5 113zM218 670
h81q2 -24 16.5 -38t41.5 -14q29 0 47.5 15t22.5 37h85q-9 -62 -52 -98.5t-112 -36.5q-68 0 -101.5 38t-28.5 97zM383 656l-68 25q8 18 32 38t24 35q0 11 -8 18.5t-20 7.5q-20 0 -43 -25l-42 40q51 61 120 61q41 0 66 -22t25 -56q0 -27 -14.5 -46t-37.5 -39t-34 -37z" />
    <glyph glyph-name="uni1EB4" unicode="&#x1eb4;" horiz-adv-x="640" 
d="M398 159h-177l-67 -159h-183l320 674h223l72 -674h-180zM269 287h123l-7 124q-1 15 -4 63.5t-5 72.5h-2q-6 -14 -24.5 -64.5t-28.5 -71.5zM280 828h91q0 -47 49 -47q52 0 61 47h92q-21 -128 -163 -128q-73 0 -104.5 35t-25.5 93zM363 856h-82q10 62 37.5 94t66.5 32
q32 0 64 -20q27 -20 39 -20q13 0 20.5 9.5t14.5 35.5h79q-20 -135 -108 -135q-34 0 -65 18q-30 19 -39 19q-18 0 -27 -33z" />
    <glyph glyph-name="uni1EB5" unicode="&#x1eb5;" horiz-adv-x="568" 
d="M483 0h-156q1 14 2 42.5t2 42.5h-2q-55 -96 -155 -96q-67 0 -109.5 48t-42.5 127q0 64 20.5 122.5t62 108t112.5 79t162 29.5q90 0 175 -27l-52 -258q-22 -117 -19 -218zM343 273l20 99q-17 3 -31 3q-56 0 -94 -59t-38 -120q0 -70 49 -70q28 0 53.5 34t40.5 113zM231 669
h83q3 -25 11.5 -38.5t31.5 -13.5q47 0 59 52h85q-22 -135 -153 -135q-68 0 -96.5 36.5t-20.5 98.5zM307 706h-81q10 61 37 93t66 32q32 0 64 -20q30 -20 40 -20q12 0 19 9.5t15 35.5h79q-20 -135 -108 -135q-33 0 -65 19q-27 18 -39 18q-18 0 -27 -32z" />
    <glyph glyph-name="uni1EB6" unicode="&#x1eb6;" horiz-adv-x="640" 
d="M398 159h-177l-67 -159h-183l320 674h223l72 -674h-180zM269 287h123l-7 124q-1 15 -4 63.5t-5 72.5h-2q-6 -14 -24.5 -64.5t-28.5 -71.5zM281 850h92q-1 -20 11.5 -34t37.5 -14q53 0 62 48h94q-23 -130 -166 -130q-74 0 -106 36t-25 94zM252 -233h-1q-33 0 -55.5 22.5
t-22.5 53.5q0 33 22.5 55t56.5 22q32 0 53 -22t21 -55q0 -31 -21.5 -53.5t-52.5 -22.5z" />
    <glyph glyph-name="uni1EB7" unicode="&#x1eb7;" horiz-adv-x="568" 
d="M483 0h-156q1 14 2 42.5t2 42.5h-2q-55 -96 -155 -96q-67 0 -109.5 48t-42.5 127q0 64 20.5 122.5t62 108t112.5 79t162 29.5q90 0 175 -27l-52 -258q-22 -117 -19 -218zM343 273l20 99q-17 3 -31 3q-56 0 -94 -59t-38 -120q0 -70 49 -70q28 0 53.5 34t40.5 113zM239 694
h83q3 -25 11.5 -38.5t31.5 -13.5q47 0 59 52h85q-22 -135 -152 -135q-68 0 -96.5 36t-21.5 99zM223 -238h-1q-34 0 -57 23t-23 56q0 34 23 56.5t58 22.5q32 0 54 -22.5t22 -56.5q0 -33 -22 -56t-54 -23z" />
    <glyph glyph-name="uni1EB8" unicode="&#x1eb8;" horiz-adv-x="538" 
d="M501 416l-28 -144h-237l-24 -127h266l-27 -145h-437l127 674h423l-28 -145h-251l-22 -113h238zM221 -233h-1q-33 0 -55.5 22.5t-22.5 53.5q0 33 22.5 55t56.5 22q32 0 53 -22t21 -55q0 -31 -21.5 -53.5t-52.5 -22.5z" />
    <glyph glyph-name="uni1EB9" unicode="&#x1eb9;" horiz-adv-x="523" 
d="M433 151l9 -123q-80 -39 -193 -39q-108 0 -165.5 55t-57.5 158q0 120 80.5 210.5t213.5 90.5q79 0 130.5 -42t51.5 -115q0 -176 -315 -167q4 -20 18 -33q30 -25 88 -25q75 0 140 30zM343 347v1q0 13 -12 22.5t-32 9.5q-42 0 -66.5 -24.5t-29.5 -53.5q76 -1 108 10t32 35z
M218 -238h-1q-33 0 -56.5 23t-23.5 56q0 34 23 56.5t58 22.5q32 0 54 -22.5t22 -56.5q0 -33 -22 -56t-54 -23z" />
    <glyph glyph-name="uni1EBA" unicode="&#x1eba;" horiz-adv-x="538" 
d="M501 416l-28 -144h-237l-24 -127h266l-27 -145h-437l127 674h423l-28 -145h-251l-22 -113h238zM391 701l-75 27q8 14 33 39t25 44q0 11 -7 18.5t-19 7.5q-18 0 -44 -28l-47 36q54 76 130 76q45 0 72.5 -24t27.5 -61q0 -28 -16 -49.5t-42 -44.5t-38 -41z" />
    <glyph glyph-name="uni1EBB" unicode="&#x1ebb;" horiz-adv-x="523" 
d="M433 151l9 -123q-80 -39 -193 -39q-108 0 -165.5 55t-57.5 158q0 120 80.5 210.5t213.5 90.5q79 0 130.5 -42t51.5 -115q0 -176 -315 -167q4 -20 18 -33q30 -25 88 -25q75 0 140 30zM343 347v1q0 13 -12 22.5t-32 9.5q-42 0 -66.5 -24.5t-29.5 -53.5q76 -1 108 10t32 35z
M357 528l-83 22q8 21 37.5 50.5t29.5 50.5q0 27 -25 27t-48 -35l-52 37q55 83 136 83q45 0 71.5 -25t26.5 -63q0 -33 -17 -58t-42 -48.5t-34 -40.5z" />
    <glyph glyph-name="uni1EBC" unicode="&#x1ebc;" horiz-adv-x="538" 
d="M501 416l-28 -144h-237l-24 -127h266l-27 -145h-437l127 674h423l-28 -145h-251l-22 -113h238zM297 715h-82q11 69 39.5 103t67.5 34q31 0 63 -20q29 -20 40 -20q12 0 19.5 9.5t14.5 35.5h80q-20 -135 -109 -135q-31 0 -65 18q-29 19 -38 19q-21 0 -30 -44z" />
    <glyph glyph-name="uni1EBD" unicode="&#x1ebd;" horiz-adv-x="523" 
d="M259 554h-80q10 67 37 102.5t68 35.5q32 0 62 -20t39 -20q11 0 18 9t15 35h78q-11 -71 -37.5 -102.5t-69.5 -31.5q-39 0 -66 20q-22 17 -36 17q-18 0 -28 -45zM433 151l9 -123q-80 -39 -193 -39q-108 0 -165.5 55t-57.5 158q0 120 80.5 210.5t213.5 90.5q79 0 130.5 -42
t51.5 -115q0 -176 -315 -167q4 -20 18 -33q30 -25 88 -25q75 0 140 30zM343 347v1q0 13 -12 22.5t-32 9.5q-42 0 -66.5 -24.5t-29.5 -53.5q76 -1 108 10t32 35z" />
    <glyph glyph-name="uni1EBE" unicode="&#x1ebe;" horiz-adv-x="538" 
d="M501 416l-28 -144h-237l-24 -127h266l-27 -145h-437l127 674h423l-28 -145h-251l-22 -113h238zM330 836h121l65 -126h-111l-24 60h-2l-55 -60h-123zM576 921h134l-140 -118h-82z" />
    <glyph glyph-name="uni1EBF" unicode="&#x1ebf;" horiz-adv-x="523" 
d="M433 151l9 -123q-80 -39 -193 -39q-108 0 -165.5 55t-57.5 158q0 120 80.5 210.5t213.5 90.5q79 0 130.5 -42t51.5 -115q0 -176 -315 -167q4 -20 18 -33q30 -25 88 -25q75 0 140 30zM343 347v1q0 13 -12 22.5t-32 9.5q-42 0 -66.5 -24.5t-29.5 -53.5q76 -1 108 10t32 35z
M279 706h124l62 -156h-106l-27 84h-2l-56 -84h-114zM535 806h130l-137 -156h-84z" />
    <glyph glyph-name="uni1EC0" unicode="&#x1ec0;" horiz-adv-x="538" 
d="M501 416l-28 -144h-237l-24 -127h266l-27 -145h-437l127 674h423l-28 -145h-251l-22 -113h238zM427 910h134l54 -117h-82zM327 836h121l65 -126h-111l-24 60h-2l-55 -60h-123z" />
    <glyph glyph-name="uni1EC1" unicode="&#x1ec1;" horiz-adv-x="523" 
d="M433 151l9 -123q-80 -39 -193 -39q-108 0 -165.5 55t-57.5 158q0 120 80.5 210.5t213.5 90.5q79 0 130.5 -42t51.5 -115q0 -176 -315 -167q4 -20 18 -33q30 -25 88 -25q75 0 140 30zM343 347v1q0 13 -12 22.5t-32 9.5q-42 0 -66.5 -24.5t-29.5 -53.5q76 -1 108 10t32 35z
M381 807h119l73 -155h-77zM279 706h124l62 -156h-106l-27 84h-2l-56 -84h-114z" />
    <glyph glyph-name="uni1EC2" unicode="&#x1ec2;" horiz-adv-x="538" 
d="M501 416l-28 -144h-237l-24 -127h266l-27 -145h-437l127 674h423l-28 -145h-251l-22 -113h238zM581 756l-68 25q8 18 32 38t24 35q0 11 -8 18.5t-19 7.5q-20 0 -43 -25l-42 40q51 61 120 61q41 0 66 -22t25 -56q0 -27 -14.5 -46t-38 -39t-34.5 -37zM334 836h121l65 -126
h-111l-24 60h-2l-55 -60h-123z" />
    <glyph glyph-name="uni1EC3" unicode="&#x1ec3;" horiz-adv-x="523" 
d="M433 151l9 -123q-80 -39 -193 -39q-108 0 -165.5 55t-57.5 158q0 120 80.5 210.5t213.5 90.5q79 0 130.5 -42t51.5 -115q0 -176 -315 -167q4 -20 18 -33q30 -25 88 -25q75 0 140 30zM343 347v1q0 13 -12 22.5t-32 9.5q-42 0 -66.5 -24.5t-29.5 -53.5q76 -1 108 10t32 35z
M279 706h124l62 -156h-106l-27 84h-2l-56 -84h-114zM524 631l-68 25q8 18 32 38t24 35q0 11 -8 18.5t-20 7.5q-20 0 -43 -25l-42 40q51 61 120 61q41 0 66 -22t25 -56q0 -27 -14.5 -46t-37.5 -39t-34 -37z" />
    <glyph glyph-name="uni1EC4" unicode="&#x1ec4;" horiz-adv-x="538" 
d="M501 416l-28 -144h-237l-24 -127h266l-27 -145h-437l127 674h423l-28 -145h-251l-22 -113h238zM323 855h-80q5 56 32 87t69 31q31 0 63 -19q30 -17 42 -17t18.5 8t11.5 31h79q-9 -120 -102 -120q-28 0 -68 22q-26 13 -36 13q-21 0 -29 -36zM328 836h121l65 -126h-111
l-24 60h-2l-55 -60h-123z" />
    <glyph glyph-name="uni1EC5" unicode="&#x1ec5;" horiz-adv-x="523" 
d="M433 151l9 -123q-80 -39 -193 -39q-108 0 -165.5 55t-57.5 158q0 120 80.5 210.5t213.5 90.5q79 0 130.5 -42t51.5 -115q0 -176 -315 -167q4 -20 18 -33q30 -25 88 -25q75 0 140 30zM343 347v1q0 13 -12 22.5t-32 9.5q-42 0 -66.5 -24.5t-29.5 -53.5q76 -1 108 10t32 35z
M273 716h-80q5 56 32 87t69 31q29 0 63 -18q32 -18 42 -18q12 0 18.5 8t10.5 32h79q-8 -121 -102 -121q-9 0 -16.5 1t-15 4t-12 5t-12.5 6l-12 6q-23 13 -35 13q-22 0 -29 -36zM279 687h115l74 -137h-104l-31 66h-2l-45 -66h-116z" />
    <glyph glyph-name="uni1EC6" unicode="&#x1ec6;" horiz-adv-x="538" 
d="M501 416l-28 -144h-237l-24 -127h266l-27 -145h-437l127 674h423l-28 -145h-251l-22 -113h238zM313 840h128l80 -130h-115l-37 57h-2l-52 -57h-127zM219 -233h-1q-33 0 -55.5 22.5t-22.5 53.5q0 33 22.5 55t56.5 22q32 0 53 -22t21 -55q0 -31 -21.5 -53.5t-52.5 -22.5z
" />
    <glyph glyph-name="uni1EC7" unicode="&#x1ec7;" horiz-adv-x="523" 
d="M433 151l9 -123q-80 -39 -193 -39q-108 0 -165.5 55t-57.5 158q0 120 80.5 210.5t213.5 90.5q79 0 130.5 -42t51.5 -115q0 -176 -315 -167q4 -20 18 -33q30 -25 88 -25q75 0 140 30zM343 347v1q0 13 -12 22.5t-32 9.5q-42 0 -66.5 -24.5t-29.5 -53.5q76 -1 108 10t32 35z
M283 706h116l78 -156h-107l-38 73h-2l-54 -73h-116zM218 -238h-1q-33 0 -56.5 23t-23.5 56q0 34 23 56.5t58 22.5q32 0 54 -22.5t22 -56.5q0 -33 -22 -56t-54 -23z" />
    <glyph glyph-name="uni1EC8" unicode="&#x1ec8;" horiz-adv-x="292" 
d="M137 674h171l-128 -674h-170zM263 701l-75 27q8 14 33 39t25 44q0 11 -7 18.5t-19 7.5q-18 0 -44 -28l-47 36q54 76 130 76q45 0 72.5 -24t27.5 -61q0 -28 -16 -49.5t-42 -44.5t-38 -41z" />
    <glyph glyph-name="uni1EC9" unicode="&#x1ec9;" horiz-adv-x="281" 
d="M177 0h-171l93 492h171zM233 528l-83 22q8 21 37.5 50.5t29.5 50.5q0 27 -25 27t-48 -35l-52 37q55 83 136 83q45 0 71.5 -25t26.5 -63q0 -33 -17 -58t-42 -48.5t-34 -40.5z" />
    <glyph glyph-name="uni1ECA" unicode="&#x1eca;" horiz-adv-x="292" 
d="M137 674h171l-128 -674h-170zM75 -233h-1q-33 0 -55.5 22.5t-22.5 53.5q0 33 22.5 55t56.5 22q32 0 53 -22t21 -55q0 -31 -21.5 -53.5t-52.5 -22.5z" />
    <glyph glyph-name="uni1ECB" unicode="&#x1ecb;" horiz-adv-x="281" 
d="M177 0h-171l93 492h171zM202 542h-1q-34 0 -56.5 21.5t-22.5 57.5q0 41 28 66.5t67 25.5q37 0 59.5 -21.5t22.5 -57.5q0 -43 -28 -67.5t-69 -24.5zM84 -238h-1q-33 0 -56.5 23t-23.5 56q0 34 23 56.5t58 22.5q32 0 54 -22.5t22 -56.5q0 -33 -22 -56t-54 -23z" />
    <glyph glyph-name="uni1ECC" unicode="&#x1ecc;" horiz-adv-x="721" 
d="M425 685q130 0 205 -77.5t75 -205.5q0 -94 -31.5 -177t-88.5 -138q-101 -98 -256 -98q-129 0 -205.5 79.5t-76.5 204.5q0 93 32.5 176t90.5 138q103 98 255 98zM405 543q-56 0 -99 -43q-35 -35 -56 -99t-21 -124q0 -68 32 -107t93 -39q51 0 94 41q34 35 54.5 101
t20.5 124q0 66 -28 106t-90 40zM278 -233h-1q-33 0 -55.5 22.5t-22.5 53.5q0 33 22.5 55t56.5 22q32 0 53 -22t21 -55q0 -31 -21.5 -53.5t-52.5 -22.5z" />
    <glyph glyph-name="uni1ECD" unicode="&#x1ecd;" horiz-adv-x="575" 
d="M330 503q98 0 156.5 -57t58.5 -145q0 -141 -85.5 -226.5t-216.5 -85.5q-96 0 -156 55t-60 149q0 132 84.5 221t218.5 89zM307 374q-34 0 -58.5 -33t-34.5 -72t-10 -73q0 -37 16.5 -57.5t46.5 -20.5q33 0 57 31.5t34.5 71.5t10.5 78q0 75 -62 75zM224 -238h-1
q-33 0 -56.5 23t-23.5 56q0 34 23 56.5t58 22.5q32 0 54 -22.5t22 -56.5q0 -33 -22 -56t-54 -23z" />
    <glyph glyph-name="uni1ECE" unicode="&#x1ece;" horiz-adv-x="721" 
d="M425 685q130 0 205 -77.5t75 -205.5q0 -94 -31.5 -177t-88.5 -138q-101 -98 -256 -98q-129 0 -205.5 79.5t-76.5 204.5q0 93 32.5 176t90.5 138q103 98 255 98zM405 543q-56 0 -99 -43q-35 -35 -56 -99t-21 -124q0 -68 32 -107t93 -39q51 0 94 41q34 35 54.5 101
t20.5 124q0 66 -28 106t-90 40zM473 701l-75 27q8 14 33 39t25 44q0 11 -7 18.5t-19 7.5q-18 0 -44 -28l-47 36q54 76 130 76q45 0 72.5 -24t27.5 -61q0 -28 -16 -49.5t-42 -44.5t-38 -41z" />
    <glyph glyph-name="uni1ECF" unicode="&#x1ecf;" horiz-adv-x="575" 
d="M330 503q98 0 156.5 -57t58.5 -145q0 -141 -85.5 -226.5t-216.5 -85.5q-96 0 -156 55t-60 149q0 132 84.5 221t218.5 89zM307 374q-34 0 -58.5 -33t-34.5 -72t-10 -73q0 -37 16.5 -57.5t46.5 -20.5q33 0 57 31.5t34.5 71.5t10.5 78q0 75 -62 75zM383 528l-83 22
q8 21 37.5 50.5t29.5 50.5q0 27 -25 27t-48 -35l-52 37q55 83 136 83q45 0 71.5 -25t26.5 -63q0 -33 -17 -58t-42 -48.5t-34 -40.5z" />
    <glyph glyph-name="uni1ED0" unicode="&#x1ed0;" horiz-adv-x="721" 
d="M425 685q130 0 205 -77.5t75 -205.5q0 -94 -31.5 -177t-88.5 -138q-101 -98 -256 -98q-129 0 -205.5 79.5t-76.5 204.5q0 93 32.5 176t90.5 138q103 98 255 98zM405 543q-56 0 -99 -43q-35 -35 -56 -99t-21 -124q0 -68 32 -107t93 -39q51 0 94 41q34 35 54.5 101
t20.5 124q0 66 -28 106t-90 40zM400 836h121l65 -126h-111l-24 60h-2l-55 -60h-123zM646 921h134l-140 -118h-82z" />
    <glyph glyph-name="uni1ED1" unicode="&#x1ed1;" horiz-adv-x="575" 
d="M330 503q98 0 156.5 -57t58.5 -145q0 -141 -85.5 -226.5t-216.5 -85.5q-96 0 -156 55t-60 149q0 132 84.5 221t218.5 89zM307 374q-34 0 -58.5 -33t-34.5 -72t-10 -73q0 -37 16.5 -57.5t46.5 -20.5q33 0 57 31.5t34.5 71.5t10.5 78q0 75 -62 75zM305 706h124l62 -156
h-106l-27 84h-2l-56 -84h-114zM561 806h130l-137 -156h-84z" />
    <glyph glyph-name="uni1ED2" unicode="&#x1ed2;" horiz-adv-x="721" 
d="M425 685q130 0 205 -77.5t75 -205.5q0 -94 -31.5 -177t-88.5 -138q-101 -98 -256 -98q-129 0 -205.5 79.5t-76.5 204.5q0 93 32.5 176t90.5 138q103 98 255 98zM405 543q-56 0 -99 -43q-35 -35 -56 -99t-21 -124q0 -68 32 -107t93 -39q51 0 94 41q34 35 54.5 101
t20.5 124q0 66 -28 106t-90 40zM497 910h134l54 -117h-82zM397 836h121l65 -126h-111l-24 60h-2l-55 -60h-123z" />
    <glyph glyph-name="uni1ED3" unicode="&#x1ed3;" horiz-adv-x="575" 
d="M330 503q98 0 156.5 -57t58.5 -145q0 -141 -85.5 -226.5t-216.5 -85.5q-96 0 -156 55t-60 149q0 132 84.5 221t218.5 89zM307 374q-34 0 -58.5 -33t-34.5 -72t-10 -73q0 -37 16.5 -57.5t46.5 -20.5q33 0 57 31.5t34.5 71.5t10.5 78q0 75 -62 75zM407 807h119l73 -155h-77
zM305 706h124l62 -156h-106l-27 84h-2l-56 -84h-114z" />
    <glyph glyph-name="uni1ED4" unicode="&#x1ed4;" horiz-adv-x="721" 
d="M425 685q130 0 205 -77.5t75 -205.5q0 -94 -31.5 -177t-88.5 -138q-101 -98 -256 -98q-129 0 -205.5 79.5t-76.5 204.5q0 93 32.5 176t90.5 138q103 98 255 98zM405 543q-56 0 -99 -43q-35 -35 -56 -99t-21 -124q0 -68 32 -107t93 -39q51 0 94 41q34 35 54.5 101
t20.5 124q0 66 -28 106t-90 40zM647 756l-68 25q8 18 32 38t24 35q0 11 -8 18.5t-19 7.5q-20 0 -43 -25l-42 40q51 61 120 61q41 0 66 -22t25 -56q0 -27 -14.5 -46t-38 -39t-34.5 -37zM400 836h121l65 -126h-111l-24 60h-2l-55 -60h-123z" />
    <glyph glyph-name="uni1ED5" unicode="&#x1ed5;" horiz-adv-x="575" 
d="M330 503q98 0 156.5 -57t58.5 -145q0 -141 -85.5 -226.5t-216.5 -85.5q-96 0 -156 55t-60 149q0 132 84.5 221t218.5 89zM307 374q-34 0 -58.5 -33t-34.5 -72t-10 -73q0 -37 16.5 -57.5t46.5 -20.5q33 0 57 31.5t34.5 71.5t10.5 78q0 75 -62 75zM305 706h124l62 -156
h-106l-27 84h-2l-56 -84h-114zM550 631l-68 25q8 18 32 38t24 35q0 11 -8 18.5t-20 7.5q-20 0 -43 -25l-42 40q51 61 120 61q41 0 66 -22t25 -56q0 -27 -14.5 -46t-37.5 -39t-34 -37z" />
    <glyph glyph-name="uni1ED6" unicode="&#x1ed6;" horiz-adv-x="721" 
d="M425 685q130 0 205 -77.5t75 -205.5q0 -94 -31.5 -177t-88.5 -138q-101 -98 -256 -98q-129 0 -205.5 79.5t-76.5 204.5q0 93 32.5 176t90.5 138q103 98 255 98zM405 543q-56 0 -99 -43q-35 -35 -56 -99t-21 -124q0 -68 32 -107t93 -39q51 0 94 41q34 35 54.5 101
t20.5 124q0 66 -28 106t-90 40zM394 855h-80q5 56 32 87t69 31q31 0 63 -19q30 -17 42 -17t18.5 8t11.5 31h79q-9 -120 -102 -120q-28 0 -68 22q-26 13 -36 13q-21 0 -29 -36zM399 836h121l65 -126h-111l-24 60h-2l-55 -60h-123z" />
    <glyph glyph-name="uni1ED7" unicode="&#x1ed7;" horiz-adv-x="575" 
d="M330 503q98 0 156.5 -57t58.5 -145q0 -141 -85.5 -226.5t-216.5 -85.5q-96 0 -156 55t-60 149q0 132 84.5 221t218.5 89zM307 374q-34 0 -58.5 -33t-34.5 -72t-10 -73q0 -37 16.5 -57.5t46.5 -20.5q33 0 57 31.5t34.5 71.5t10.5 78q0 75 -62 75zM299 716h-80q5 56 32 87
t69 31q29 0 63 -18q32 -18 42 -18q12 0 18.5 8t10.5 32h79q-8 -121 -102 -121q-9 0 -16.5 1t-15 4t-12 5t-12.5 6l-12 6q-23 13 -35 13q-22 0 -29 -36zM305 687h115l74 -137h-104l-31 66h-2l-45 -66h-116z" />
    <glyph glyph-name="uni1ED8" unicode="&#x1ed8;" horiz-adv-x="721" 
d="M425 685q130 0 205 -77.5t75 -205.5q0 -94 -31.5 -177t-88.5 -138q-101 -98 -256 -98q-129 0 -205.5 79.5t-76.5 204.5q0 93 32.5 176t90.5 138q103 98 255 98zM405 543q-56 0 -99 -43q-35 -35 -56 -99t-21 -124q0 -68 32 -107t93 -39q51 0 94 41q34 35 54.5 101
t20.5 124q0 66 -28 106t-90 40zM392 840h128l80 -130h-115l-37 57h-2l-52 -57h-127zM274 -233h-1q-33 0 -55.5 22.5t-22.5 53.5q0 33 22.5 55t56.5 22q32 0 53 -22t21 -55q0 -31 -21.5 -53.5t-52.5 -22.5z" />
    <glyph glyph-name="uni1ED9" unicode="&#x1ed9;" horiz-adv-x="575" 
d="M330 503q98 0 156.5 -57t58.5 -145q0 -141 -85.5 -226.5t-216.5 -85.5q-96 0 -156 55t-60 149q0 132 84.5 221t218.5 89zM307 374q-34 0 -58.5 -33t-34.5 -72t-10 -73q0 -37 16.5 -57.5t46.5 -20.5q33 0 57 31.5t34.5 71.5t10.5 78q0 75 -62 75zM309 706h116l78 -156
h-107l-38 73h-2l-54 -73h-116zM224 -238h-1q-33 0 -56.5 23t-23.5 56q0 34 23 56.5t58 22.5q32 0 54 -22.5t22 -56.5q0 -33 -22 -56t-54 -23z" />
    <glyph glyph-name="uni1EDA" unicode="&#x1eda;" horiz-adv-x="721" 
d="M655 745l126 20q18 -38 18 -89q0 -59 -32.5 -97t-89.5 -43q28 -56 28 -134q0 -94 -31.5 -177t-88.5 -138q-101 -98 -256 -98q-129 0 -205.5 79.5t-76.5 204.5q0 93 32.5 176t90.5 138q103 98 255 98q71 0 128 -25q4 -2 23 -12t32 -14.5t24 -4.5q39 0 39 50q0 28 -16 66z
M405 543q-56 0 -99 -43q-35 -35 -56 -99t-21 -124q0 -68 32 -107t93 -39q51 0 94 41q34 35 54.5 101t20.5 124q0 66 -28 106t-90 40zM420 848h183l-131 -130h-143z" />
    <glyph glyph-name="uni1EDB" unicode="&#x1edb;" horiz-adv-x="575" 
d="M307 374q-34 0 -58.5 -33t-34.5 -72t-10 -73q0 -37 16.5 -57.5t46.5 -20.5q33 0 57 31.5t34.5 71.5t10.5 78q0 75 -62 75zM514 571l123 20q13 -37 13 -77q0 -60 -31 -96t-86 -44q12 -33 12 -73q0 -141 -85.5 -226.5t-216.5 -85.5q-96 0 -156 55t-60 149q0 132 84.5 221
t218.5 89q51 0 90 -15q8 -3 22.5 -10.5t25.5 -11.5t20 -4q40 0 40 47q0 27 -14 62zM328 706h161l-129 -156h-124z" />
    <glyph glyph-name="uni1EDC" unicode="&#x1edc;" horiz-adv-x="721" 
d="M655 745l126 20q18 -38 18 -89q0 -59 -32.5 -97t-89.5 -43q28 -56 28 -134q0 -94 -31.5 -177t-88.5 -138q-101 -98 -256 -98q-129 0 -205.5 79.5t-76.5 204.5q0 93 32.5 176t90.5 138q103 98 255 98q71 0 128 -25q4 -2 23 -12t32 -14.5t24 -4.5q39 0 39 50q0 28 -16 66z
M405 543q-56 0 -99 -43q-35 -35 -56 -99t-21 -124q0 -68 32 -107t93 -39q51 0 94 41q34 35 54.5 101t20.5 124q0 66 -28 106t-90 40zM264 848h181l78 -128h-141z" />
    <glyph glyph-name="uni1EDD" unicode="&#x1edd;" horiz-adv-x="575" 
d="M307 374q-34 0 -58.5 -33t-34.5 -72t-10 -73q0 -37 16.5 -57.5t46.5 -20.5q33 0 57 31.5t34.5 71.5t10.5 78q0 75 -62 75zM514 571l123 20q13 -37 13 -77q0 -60 -31 -96t-86 -44q12 -33 12 -73q0 -141 -85.5 -226.5t-216.5 -85.5q-96 0 -156 55t-60 149q0 132 84.5 221
t218.5 89q51 0 90 -15q8 -3 22.5 -10.5t25.5 -11.5t20 -4q40 0 40 47q0 27 -14 62zM186 706h159l78 -156h-122z" />
    <glyph glyph-name="uni1EDE" unicode="&#x1ede;" horiz-adv-x="721" 
d="M655 745l126 20q18 -38 18 -89q0 -59 -32.5 -97t-89.5 -43q28 -56 28 -134q0 -94 -31.5 -177t-88.5 -138q-101 -98 -256 -98q-129 0 -205.5 79.5t-76.5 204.5q0 93 32.5 176t90.5 138q103 98 255 98q71 0 128 -25q4 -2 23 -12t32 -14.5t24 -4.5q39 0 39 50q0 28 -16 66z
M405 543q-56 0 -99 -43q-35 -35 -56 -99t-21 -124q0 -68 32 -107t93 -39q51 0 94 41q34 35 54.5 101t20.5 124q0 66 -28 106t-90 40zM473 709l-75 27q8 14 33 39t25 44q0 11 -7 18.5t-19 7.5q-18 0 -44 -28l-47 36q54 76 130 76q45 0 72.5 -24t27.5 -61q0 -28 -16 -49.5
t-42 -44.5t-38 -41z" />
    <glyph glyph-name="uni1EDF" unicode="&#x1edf;" horiz-adv-x="575" 
d="M307 374q-34 0 -58.5 -33t-34.5 -72t-10 -73q0 -37 16.5 -57.5t46.5 -20.5q33 0 57 31.5t34.5 71.5t10.5 78q0 75 -62 75zM514 571l123 20q13 -37 13 -77q0 -60 -31 -96t-86 -44q12 -33 12 -73q0 -141 -85.5 -226.5t-216.5 -85.5q-96 0 -156 55t-60 149q0 132 84.5 221
t218.5 89q51 0 90 -15q8 -3 22.5 -10.5t25.5 -11.5t20 -4q40 0 40 47q0 27 -14 62zM358 528l-83 22q8 21 37.5 50.5t29.5 50.5q0 27 -25 27t-48 -35l-52 37q55 83 136 83q45 0 71.5 -25t26.5 -63q0 -33 -17 -58t-42 -48.5t-34 -40.5z" />
    <glyph glyph-name="uni1EE0" unicode="&#x1ee0;" horiz-adv-x="721" 
d="M655 745l126 20q18 -38 18 -89q0 -59 -32.5 -97t-89.5 -43q28 -56 28 -134q0 -94 -31.5 -177t-88.5 -138q-101 -98 -256 -98q-129 0 -205.5 79.5t-76.5 204.5q0 93 32.5 176t90.5 138q103 98 255 98q71 0 128 -25q4 -2 23 -12t32 -14.5t24 -4.5q39 0 39 50q0 28 -16 66z
M405 543q-56 0 -99 -43q-35 -35 -56 -99t-21 -124q0 -68 32 -107t93 -39q51 0 94 41q34 35 54.5 101t20.5 124q0 66 -28 106t-90 40zM378 723h-82q11 69 39.5 103t67.5 34q31 0 63 -20q29 -20 40 -20q12 0 19.5 9.5t14.5 35.5h80q-20 -135 -109 -135q-31 0 -65 18
q-29 19 -38 19q-21 0 -30 -44z" />
    <glyph glyph-name="uni1EE1" unicode="&#x1ee1;" horiz-adv-x="575" 
d="M307 374q-34 0 -58.5 -33t-34.5 -72t-10 -73q0 -37 16.5 -57.5t46.5 -20.5q33 0 57 31.5t34.5 71.5t10.5 78q0 75 -62 75zM514 571l123 20q13 -37 13 -77q0 -60 -31 -96t-86 -44q12 -33 12 -73q0 -141 -85.5 -226.5t-216.5 -85.5q-96 0 -156 55t-60 149q0 132 84.5 221
t218.5 89q51 0 90 -15q8 -3 22.5 -10.5t25.5 -11.5t20 -4q40 0 40 47q0 27 -14 62zM262 554h-80q10 67 37 102.5t68 35.5q32 0 62 -20t39 -20q11 0 18 9t15 35h78q-11 -71 -37.5 -102.5t-69.5 -31.5q-39 0 -66 20q-22 17 -36 17q-18 0 -28 -45z" />
    <glyph glyph-name="uni1EE2" unicode="&#x1ee2;" horiz-adv-x="721" 
d="M655 745l126 20q18 -38 18 -89q0 -59 -32.5 -97t-89.5 -43q28 -56 28 -134q0 -94 -31.5 -177t-88.5 -138q-101 -98 -256 -98q-129 0 -205.5 79.5t-76.5 204.5q0 93 32.5 176t90.5 138q103 98 255 98q71 0 128 -25q4 -2 23 -12t32 -14.5t24 -4.5q39 0 39 50q0 28 -16 66z
M405 543q-56 0 -99 -43q-35 -35 -56 -99t-21 -124q0 -68 32 -107t93 -39q51 0 94 41q34 35 54.5 101t20.5 124q0 66 -28 106t-90 40zM277 -233h-1q-33 0 -55.5 22.5t-22.5 53.5q0 33 22.5 55t56.5 22q32 0 53 -22t21 -55q0 -31 -21.5 -53.5t-52.5 -22.5z" />
    <glyph glyph-name="uni1EE3" unicode="&#x1ee3;" horiz-adv-x="575" 
d="M307 374q-34 0 -58.5 -33t-34.5 -72t-10 -73q0 -37 16.5 -57.5t46.5 -20.5q33 0 57 31.5t34.5 71.5t10.5 78q0 75 -62 75zM514 571l123 20q13 -37 13 -77q0 -60 -31 -96t-86 -44q12 -33 12 -73q0 -141 -85.5 -226.5t-216.5 -85.5q-96 0 -156 55t-60 149q0 132 84.5 221
t218.5 89q51 0 90 -15q8 -3 22.5 -10.5t25.5 -11.5t20 -4q40 0 40 47q0 27 -14 62zM224 -238h-1q-33 0 -56.5 23t-23.5 56q0 34 23 56.5t58 22.5q32 0 54 -22.5t22 -56.5q0 -33 -22 -56t-54 -23z" />
    <glyph glyph-name="uni1EE4" unicode="&#x1ee4;" horiz-adv-x="670" 
d="M138 674h170l-72 -382q-8 -35 -8 -78q1 -34 23 -58.5t64 -24.5q52 0 84 37.5t48 121.5l72 384h171l-71 -374q-30 -160 -104.5 -235.5t-220.5 -75.5q-114 -2 -175 55.5t-61 166.5q0 42 10 95zM257 -233h-1q-33 0 -55.5 22.5t-22.5 53.5q0 33 22.5 55t56.5 22q32 0 53 -22
t21 -55q0 -31 -21.5 -53.5t-52.5 -22.5z" />
    <glyph glyph-name="uni1EE5" unicode="&#x1ee5;" horiz-adv-x="575" 
d="M392 492h171l-61 -324q-6 -29 -11 -59.5t-10 -62t-8 -46.5h-150l8 75h-2q-71 -86 -168 -86q-124 0 -124 136q0 44 10 94l51 273h171l-49 -259q-7 -35 -7 -62q0 -44 37 -44q33 0 60.5 39t40.5 108zM224 -238h-1q-33 0 -56.5 23t-23.5 56q0 34 23 56.5t58 22.5
q32 0 54 -22.5t22 -56.5q0 -33 -22 -56t-54 -23z" />
    <glyph glyph-name="uni1EE6" unicode="&#x1ee6;" horiz-adv-x="670" 
d="M138 674h170l-72 -382q-8 -35 -8 -78q1 -34 23 -58.5t64 -24.5q52 0 84 37.5t48 121.5l72 384h171l-71 -374q-30 -160 -104.5 -235.5t-220.5 -75.5q-114 -2 -175 55.5t-61 166.5q0 42 10 95zM438 701l-75 27q8 14 33 39t25 44q0 11 -7 18.5t-19 7.5q-18 0 -44 -28l-47 36
q54 76 130 76q45 0 72.5 -24t27.5 -61q0 -28 -16 -49.5t-42 -44.5t-38 -41z" />
    <glyph glyph-name="uni1EE7" unicode="&#x1ee7;" horiz-adv-x="575" 
d="M392 492h171l-61 -324q-6 -29 -11 -59.5t-10 -62t-8 -46.5h-150l8 75h-2q-71 -86 -168 -86q-124 0 -124 136q0 44 10 94l51 273h171l-49 -259q-7 -35 -7 -62q0 -44 37 -44q33 0 60.5 39t40.5 108zM380 528l-83 22q8 21 37.5 50.5t29.5 50.5q0 27 -25 27t-48 -35l-52 37
q55 83 136 83q45 0 71.5 -25t26.5 -63q0 -33 -17 -58t-42 -48.5t-34 -40.5z" />
    <glyph glyph-name="uni1EE8" unicode="&#x1ee8;" horiz-adv-x="692" 
d="M673 587l-54 -287q-30 -160 -104.5 -235.5t-220.5 -75.5q-114 -2 -175 55.5t-61 166.5q0 42 10 95l70 368h170l-72 -382q-8 -35 -8 -78q1 -34 23 -58.5t64 -24.5q52 0 84 37.5t48 121.5l72 384h123q64 0 64 57q0 30 -11 56l122 21q10 -30 10 -63q0 -71 -41 -112.5
t-113 -45.5zM416 840h183l-131 -130h-143z" />
    <glyph glyph-name="uni1EE9" unicode="&#x1ee9;" horiz-adv-x="604" 
d="M566 605l123 21q10 -30 10 -65q0 -65 -39.5 -108.5t-112.5 -46.5l-45 -238q-6 -29 -11 -59.5t-10 -62t-8 -46.5h-150l8 75h-2q-71 -86 -168 -86q-124 0 -124 136q0 44 10 94l51 273h171l-49 -259q-7 -35 -7 -62q0 -44 37 -44q33 0 60.5 39t40.5 108l41 218h122
q65 0 65 57q0 23 -13 56zM358 706h161l-129 -156h-124z" />
    <glyph glyph-name="uni1EEA" unicode="&#x1eea;" horiz-adv-x="692" 
d="M673 587l-54 -287q-30 -160 -104.5 -235.5t-220.5 -75.5q-114 -2 -175 55.5t-61 166.5q0 42 10 95l70 368h170l-72 -382q-8 -35 -8 -78q1 -34 23 -58.5t64 -24.5q52 0 84 37.5t48 121.5l72 384h123q64 0 64 57q0 30 -11 56l122 21q10 -30 10 -63q0 -71 -41 -112.5
t-113 -45.5zM266 840h181l78 -128h-141z" />
    <glyph glyph-name="uni1EEB" unicode="&#x1eeb;" horiz-adv-x="604" 
d="M566 605l123 21q10 -30 10 -65q0 -65 -39.5 -108.5t-112.5 -46.5l-45 -238q-6 -29 -11 -59.5t-10 -62t-8 -46.5h-150l8 75h-2q-71 -86 -168 -86q-124 0 -124 136q0 44 10 94l51 273h171l-49 -259q-7 -35 -7 -62q0 -44 37 -44q33 0 60.5 39t40.5 108l41 218h122
q65 0 65 57q0 23 -13 56zM208 706h159l78 -156h-122z" />
    <glyph glyph-name="uni1EEC" unicode="&#x1eec;" horiz-adv-x="692" 
d="M673 587l-54 -287q-30 -160 -104.5 -235.5t-220.5 -75.5q-114 -2 -175 55.5t-61 166.5q0 42 10 95l70 368h170l-72 -382q-8 -35 -8 -78q1 -34 23 -58.5t64 -24.5q52 0 84 37.5t48 121.5l72 384h123q64 0 64 57q0 30 -11 56l122 21q10 -30 10 -63q0 -71 -41 -112.5
t-113 -45.5zM449 701l-75 27q8 14 33 39t25 44q0 11 -7 18.5t-19 7.5q-18 0 -44 -28l-47 36q54 76 130 76q45 0 72.5 -24t27.5 -61q0 -28 -16 -49.5t-42 -44.5t-38 -41z" />
    <glyph glyph-name="uni1EED" unicode="&#x1eed;" horiz-adv-x="604" 
d="M566 605l123 21q10 -30 10 -65q0 -65 -39.5 -108.5t-112.5 -46.5l-45 -238q-6 -29 -11 -59.5t-10 -62t-8 -46.5h-150l8 75h-2q-71 -86 -168 -86q-124 0 -124 136q0 44 10 94l51 273h171l-49 -259q-7 -35 -7 -62q0 -44 37 -44q33 0 60.5 39t40.5 108l41 218h122
q65 0 65 57q0 23 -13 56zM381 528l-83 22q8 21 37.5 50.5t29.5 50.5q0 27 -25 27t-48 -35l-52 37q55 83 136 83q45 0 71.5 -25t26.5 -63q0 -33 -17 -58t-42 -48.5t-34 -40.5z" />
    <glyph glyph-name="uni1EEE" unicode="&#x1eee;" horiz-adv-x="692" 
d="M673 587l-54 -287q-30 -160 -104.5 -235.5t-220.5 -75.5q-114 -2 -175 55.5t-61 166.5q0 42 10 95l70 368h170l-72 -382q-8 -35 -8 -78q1 -34 23 -58.5t64 -24.5q52 0 84 37.5t48 121.5l72 384h123q64 0 64 57q0 30 -11 56l122 21q10 -30 10 -63q0 -71 -41 -112.5
t-113 -45.5zM358 715h-82q11 69 39.5 103t67.5 34q31 0 63 -20q29 -20 40 -20q12 0 19.5 9.5t14.5 35.5h80q-20 -135 -109 -135q-31 0 -65 18q-28 19 -38 19q-21 0 -30 -44z" />
    <glyph glyph-name="uni1EEF" unicode="&#x1eef;" horiz-adv-x="604" 
d="M566 605l123 21q10 -30 10 -65q0 -65 -39.5 -108.5t-112.5 -46.5l-45 -238q-6 -29 -11 -59.5t-10 -62t-8 -46.5h-150l8 75h-2q-71 -86 -168 -86q-124 0 -124 136q0 44 10 94l51 273h171l-49 -259q-7 -35 -7 -62q0 -44 37 -44q33 0 60.5 39t40.5 108l41 218h122
q65 0 65 57q0 23 -13 56zM270 554h-80q10 67 37 102.5t68 35.5q32 0 62 -20t39 -20q11 0 18 9t15 35h78q-11 -71 -37.5 -102.5t-69.5 -31.5q-39 0 -66 20q-22 17 -36 17q-18 0 -28 -45z" />
    <glyph glyph-name="uni1EF0" unicode="&#x1ef0;" horiz-adv-x="692" 
d="M673 587l-54 -287q-30 -160 -104.5 -235.5t-220.5 -75.5q-114 -2 -175 55.5t-61 166.5q0 42 10 95l70 368h170l-72 -382q-8 -35 -8 -78q1 -34 23 -58.5t64 -24.5q52 0 84 37.5t48 121.5l72 384h123q64 0 64 57q0 30 -11 56l122 21q10 -30 10 -63q0 -71 -41 -112.5
t-113 -45.5zM262 -233h-1q-33 0 -55.5 22.5t-22.5 53.5q0 33 22.5 55t56.5 22q32 0 53 -22t21 -55q0 -31 -21.5 -53.5t-52.5 -22.5z" />
    <glyph glyph-name="uni1EF1" unicode="&#x1ef1;" horiz-adv-x="604" 
d="M566 605l123 21q10 -30 10 -65q0 -65 -39.5 -108.5t-112.5 -46.5l-45 -238q-6 -29 -11 -59.5t-10 -62t-8 -46.5h-150l8 75h-2q-71 -86 -168 -86q-124 0 -124 136q0 44 10 94l51 273h171l-49 -259q-7 -35 -7 -62q0 -44 37 -44q33 0 60.5 39t40.5 108l41 218h122
q65 0 65 57q0 23 -13 56zM229 -238h-1q-34 0 -57 23t-23 56q0 34 23 56.5t58 22.5q32 0 54 -22.5t22 -56.5q0 -33 -22 -56t-54 -23z" />
    <glyph glyph-name="Ygrave" unicode="&#x1ef2;" horiz-adv-x="593" 
d="M317 0h-171l52 272l-133 402h183l33 -151q23 -113 25 -126h2q12 23 35 66t32 60l83 151h204l-293 -397zM192 840h182l78 -128h-142z" />
    <glyph glyph-name="ygrave" unicode="&#x1ef3;" horiz-adv-x="522" 
d="M41 492h180l22 -193q2 -17 5.5 -42t5.5 -41t3 -29h2q28 83 39 113l74 192h179l-171 -344q-101 -203 -198 -291q-39 -36 -85.5 -57.5t-77.5 -26.5l-38 147q44 11 81 35q49 31 73 73q6 9 3 25zM148 706h159l78 -156h-122z" />
    <glyph glyph-name="uni1EF4" unicode="&#x1ef4;" horiz-adv-x="593" 
d="M317 0h-171l52 272l-133 402h183l33 -151q23 -113 25 -126h2q12 23 35 66t32 60l83 151h204l-293 -397zM215 -233h-1q-33 0 -55.5 22.5t-22.5 53.5q0 33 22.5 55t56.5 22q32 0 53 -22t21 -55q0 -31 -21.5 -53.5t-52.5 -22.5z" />
    <glyph glyph-name="uni1EF5" unicode="&#x1ef5;" horiz-adv-x="522" 
d="M41 492h180l22 -193q2 -17 5.5 -42t5.5 -41t3 -29h2q28 83 39 113l74 192h179l-171 -344q-101 -203 -198 -291q-39 -36 -85.5 -57.5t-77.5 -26.5l-38 147q44 11 81 35q49 31 73 73q6 9 3 25zM362 -238h-1q-33 0 -56.5 23t-23.5 56q0 34 23 56.5t58 22.5q32 0 54 -22.5
t22 -56.5q0 -33 -22 -56t-54 -23z" />
    <glyph glyph-name="uni1EF6" unicode="&#x1ef6;" horiz-adv-x="593" 
d="M317 0h-171l52 272l-133 402h183l33 -151q23 -113 25 -126h2q12 23 35 66t32 60l83 151h204l-293 -397zM399 701l-75 27q8 14 33 39t25 44q0 11 -7 18.5t-19 7.5q-18 0 -44 -28l-47 36q54 76 130 76q45 0 72.5 -24t27.5 -61q0 -28 -16 -49.5t-42 -44.5t-38 -41z" />
    <glyph glyph-name="uni1EF7" unicode="&#x1ef7;" horiz-adv-x="522" 
d="M41 492h180l22 -193q2 -17 5.5 -42t5.5 -41t3 -29h2q28 83 39 113l74 192h179l-171 -344q-101 -203 -198 -291q-39 -36 -85.5 -57.5t-77.5 -26.5l-38 147q44 11 81 35q49 31 73 73q6 9 3 25zM354 528l-83 22q8 21 37.5 50.5t29.5 50.5q0 27 -25 27t-48 -35l-52 37
q55 83 136 83q45 0 71.5 -25t26.5 -63q0 -33 -17 -58t-42 -48.5t-34 -40.5z" />
    <glyph glyph-name="uni1EF8" unicode="&#x1ef8;" horiz-adv-x="593" 
d="M317 0h-171l52 272l-133 402h183l33 -151q23 -113 25 -126h2q12 23 35 66t32 60l83 151h204l-293 -397zM301 715h-82q11 69 39.5 103t67.5 34q31 0 63 -20q29 -20 40 -20q12 0 19.5 9.5t14.5 35.5h80q-20 -135 -109 -135q-31 0 -65 18q-29 19 -38 19q-21 0 -30 -44z" />
    <glyph glyph-name="uni1EF9" unicode="&#x1ef9;" horiz-adv-x="522" 
d="M251 554h-80q10 67 37 102.5t68 35.5q32 0 62 -20t39 -20q11 0 18 9t15 35h78q-11 -71 -37.5 -102.5t-69.5 -31.5q-39 0 -66 20q-22 17 -36 17q-18 0 -28 -45zM41 492h180l22 -193q2 -17 5.5 -42t5.5 -41t3 -29h2q28 83 39 113l74 192h179l-171 -344q-101 -203 -198 -291
q-39 -36 -85.5 -57.5t-77.5 -26.5l-38 147q44 11 81 35q49 31 73 73q6 9 3 25z" />
    <glyph glyph-name="endash" unicode="&#x2013;" horiz-adv-x="500" 
d="M41 308h440l-21 -108h-440z" />
    <glyph glyph-name="emdash" unicode="&#x2014;" horiz-adv-x="1000" 
d="M41 308h940l-21 -108h-940z" />
    <glyph glyph-name="quoteleft" unicode="&#x2018;" horiz-adv-x="281" 
d="M225 407l-166 -9q73 159 168 285l111 9q-77 -160 -113 -285z" />
    <glyph glyph-name="quoteright" unicode="&#x2019;" horiz-adv-x="281" 
d="M172 683l165 9q-79 -167 -168 -285l-111 -9q73 148 114 285z" />
    <glyph glyph-name="quotesinglbase" unicode="&#x201a;" horiz-adv-x="281" 
d="M63 -103l-118 -10q81 166 119 299l175 10q-76 -166 -176 -299z" />
    <glyph glyph-name="quotedblleft" unicode="&#x201c;" horiz-adv-x="495" 
d="M224 407l-166 -9q73 159 168 285l111 9q-75 -152 -113 -285zM440 407l-166 -9q73 159 168 285l111 9q-75 -152 -113 -285z" />
    <glyph glyph-name="quotedblright" unicode="&#x201d;" horiz-adv-x="495" 
d="M170 683l166 9q-79 -167 -168 -285l-111 -9q71 143 113 285zM386 683l166 9q-79 -167 -168 -285l-111 -9q71 143 113 285z" />
    <glyph glyph-name="quotedblbase" unicode="&#x201e;" horiz-adv-x="495" 
d="M53 -103l-117 -10q81 166 119 299l174 10q-76 -166 -176 -299zM289 -103l-117 -10q81 166 119 299l174 10q-76 -166 -176 -299z" />
    <glyph glyph-name="dagger" unicode="&#x2020;" horiz-adv-x="535" 
d="M268 674h159l-54 -196l174 13l-26 -135l-167 15l-66 -421h-159l97 421l-175 -15l26 135l168 -13z" />
    <glyph glyph-name="daggerdbl" unicode="&#x2021;" horiz-adv-x="535" 
d="M270 674h155l-47 -178l171 13l-25 -135l-167 14l-27 -143l172 14l-26 -135l-166 14l-24 -188h-155l49 188l-171 -14l25 135l166 -14l27 143l-171 -14l26 135l166 -13z" />
    <glyph glyph-name="bullet" unicode="&#x2022;" horiz-adv-x="362" 
d="M181 121h-1q-58 0 -99 40.5t-41 100.5q-1 60 40.5 101.5t100.5 41.5t100 -41t41 -101t-41 -101t-100 -41z" />
    <glyph glyph-name="ellipsis" unicode="&#x2026;" horiz-adv-x="1000" 
d="M125 -10h-1q-41 0 -66.5 26.5t-25.5 67.5q0 48 31.5 82.5t80.5 34.5q42 0 68.5 -27t26.5 -70q0 -50 -32 -82t-82 -32zM459 -10h-1q-41 0 -66.5 26.5t-25.5 67.5q0 48 31.5 82.5t80.5 34.5q42 0 68.5 -27t26.5 -70q0 -50 -32 -82t-82 -32zM793 -10h-1q-41 0 -66.5 26.5
t-25.5 67.5q0 48 31.5 82.5t80.5 34.5q42 0 68.5 -27t26.5 -70q0 -50 -32 -82t-82 -32z" />
    <glyph glyph-name="perthousand" unicode="&#x2030;" horiz-adv-x="1320" 
d="M283 661h1q70 0 112 -42t42 -112q0 -106 -64 -176.5t-156 -70.5q-70 0 -114.5 41.5t-44.5 115.5q0 102 63 173t161 71zM268 565h-1q-36 0 -58 -52t-22 -99q0 -27 11.5 -43t31.5 -16q37 0 58.5 55t21.5 101q0 54 -42 54zM275 -11h-97l479 671h95zM721 391h1
q70 0 111.5 -42t41.5 -112q0 -106 -63.5 -176.5t-156.5 -70.5q-70 0 -114 42t-44 116q0 101 63 172t161 71zM705 296h-1q-24 0 -43.5 -28.5t-27.5 -62t-8 -60.5t11.5 -43t31.5 -16q37 0 58 54.5t21 100.5q0 55 -42 55zM1129 391h1q70 0 112 -42t42 -112q0 -106 -63.5 -176.5
t-156.5 -70.5q-70 0 -114 42t-44 116q0 101 62.5 172t160.5 71zM1114 296h-1q-36 0 -57.5 -52t-21.5 -99q0 -59 42 -59q26 0 45.5 30.5t27 64.5t7.5 60q0 55 -42 55z" />
    <glyph glyph-name="guilsinglleft" unicode="&#x2039;" horiz-adv-x="278" 
d="M273 446l-140 -196l93 -191h-115l-93 193l129 194h126z" />
    <glyph glyph-name="guilsinglright" unicode="&#x203a;" horiz-adv-x="277" 
d="M144 256l-92 190h114l94 -194l-129 -193h-127z" />
    <glyph glyph-name="fraction" unicode="&#x2044;" horiz-adv-x="144" 
d="M-111 -11h-97l492 672h97z" />
    <glyph glyph-name="zero.superior" unicode="&#x2070;" horiz-adv-x="384" 
d="M228 401h-1q-67 0 -106.5 41.5t-39.5 109.5q0 103 58.5 176t156.5 73q67 0 105.5 -40.5t38.5 -102.5q0 -111 -58.5 -184t-153.5 -73zM240 498h1q31 0 49.5 52t18.5 98q0 56 -29 56q-31 0 -49.5 -57t-18.5 -94q0 -55 28 -55z" />
    <glyph glyph-name="four.superior" unicode="&#x2074;" horiz-adv-x="385" 
d="M356 406h-125l16 85h-190l14 74l200 235h160l-42 -223h49l-17 -86h-49zM264 577l9 51q4 19 21 81h-3q-16 -26 -51 -73l-45 -57v-2h69z" />
    <glyph glyph-name="five.superior" unicode="&#x2075;" horiz-adv-x="355" 
d="M410 796l-20 -101h-155l-8 -29q11 1 27 1q42 0 73 -16q69 -25 69 -92q0 -75 -62.5 -116.5t-160.5 -41.5q-76 0 -120 21l29 93q39 -17 91 -17q80 0 80 45q0 41 -97 41q-10 0 -58 -3l59 215h253z" />
    <glyph glyph-name="six.superior" unicode="&#x2076;" horiz-adv-x="374" 
d="M416 798l-18 -95q-18 5 -44 3q-89 -4 -117 -53l1 -1q32 20 71 20q54 0 84.5 -32t30.5 -82q0 -68 -52 -112.5t-129 -44.5q-72 0 -117.5 42.5t-45.5 104.5q0 64 31.5 118t83.5 86q72 44 169 47q35 2 52 -1zM247 490h1q21 0 34 17t13 44q0 16 -11 27.5t-30 11.5
q-21 0 -33 -16q-8 -9 -9 -13q-5 -14 -5 -30q0 -17 11 -29t29 -12z" />
    <glyph glyph-name="seven.superior" unicode="&#x2077;" horiz-adv-x="331" 
d="M115 796h307l-15 -76q-19 -28 -104 -152t-110 -162h-140q34 47 115.5 158t95.5 130v1h-169z" />
    <glyph glyph-name="eight.superior" unicode="&#x2078;" horiz-adv-x="381" 
d="M292 801h1q57 0 98.5 -25t41.5 -74q0 -54 -78 -85v-1q30 -14 48 -36.5t18 -46.5q0 -65 -58 -98.5t-133 -33.5q-70 0 -112 28.5t-42 73.5q0 35 26.5 62.5t65.5 41.5v1q-51 27 -51 70q0 57 51.5 90t123.5 33zM246 487h1q16 0 27.5 10.5t11.5 26.5q0 30 -39 44
q-39 -13 -39 -47q0 -15 11 -24.5t27 -9.5zM275 718h-1q-13 0 -22 -8.5t-9 -20.5q0 -23 40 -40q30 9 30 37q0 32 -38 32z" />
    <glyph glyph-name="nine.superior" unicode="&#x2079;" horiz-adv-x="375" 
d="M87 402l15 96q38 -4 56 -3q31 0 64 11q44 16 61 45l-2 2q-23 -17 -69 -17q-51 0 -87 29t-36 85q0 65 55 109t131 44q72 0 114.5 -41.5t42.5 -108.5q0 -120 -103 -199q-72 -55 -185 -55q-20 -1 -57 3zM264 711h-1q-18 0 -31 -16.5t-13 -38.5q0 -18 11.5 -28.5t28.5 -10.5
q22 0 35 11q5 5 10 21q2 10 2 20q0 18 -11.5 30t-30.5 12z" />
    <glyph glyph-name="parenleft.superior" unicode="&#x207d;" horiz-adv-x="214" 
d="M217 834h83q-48 -68 -76.5 -152t-28.5 -166q0 -97 19 -163h-83q-30 74 -30 154q0 201 116 327z" />
    <glyph glyph-name="parenright.superior" unicode="&#x207e;" horiz-adv-x="214" 
d="M128 353h-84q106 148 106 318q0 95 -19 163h83q30 -74 30 -155q0 -200 -116 -326z" />
    <glyph glyph-name="zero.inferior" unicode="&#x2080;" horiz-adv-x="384" 
d="M122 -149h-1q-68 0 -107 41.5t-39 109.5q0 103 58.5 176t156.5 73q67 0 105.5 -40.5t38.5 -102.5q0 -111 -58.5 -184t-153.5 -73zM134 -52h1q31 0 49.5 52t18.5 98q0 56 -29 56q-31 0 -49.5 -57t-18.5 -94q0 -55 28 -55z" />
    <glyph glyph-name="one.inferior" unicode="&#x2081;" horiz-adv-x="294" 
d="M167 -144h-136l53 280h-1l-81 -31l-10 92l131 49h119z" />
    <glyph glyph-name="two.inferior" unicode="&#x2082;" horiz-adv-x="359" 
d="M259 -144h-322l13 65l76 57q68 48 101 79t33 57q0 34 -46 34q-44 0 -90 -28l-18 84q65 47 156 47q60 0 101.5 -27t41.5 -82q0 -28 -10.5 -52.5t-34.5 -47t-40 -34.5t-49 -35l-23 -15v-2h130z" />
    <glyph glyph-name="three.inferior" unicode="&#x2083;" horiz-adv-x="354" 
d="M22 131l-10 83q59 37 150 37q57 0 99.5 -25.5t42.5 -67.5q0 -69 -100 -94v-2q33 -5 58 -26.5t25 -56.5q0 -61 -57 -94.5t-139 -33.5q-98 0 -150 35l41 87q42 -30 98 -30q27 0 46 10.5t19 28.5t-22 29t-59 11h-17l15 77h15q84 0 84 35q0 25 -42 25q-53 0 -97 -28z" />
    <glyph glyph-name="four.inferior" unicode="&#x2084;" horiz-adv-x="385" 
d="M250 -144h-125l16 85h-190l14 74l200 235h160l-42 -223h49l-17 -86h-49zM158 27l9 51q4 19 21 81h-3q-16 -26 -51 -73l-45 -57v-2h69z" />
    </font>
</defs>
</svg>
