<?xml version="1.0" standalone="no"?>
<!DOCTYPE svg PUBLIC "-//W3C//DTD SVG 1.1//EN" "http://www.w3.org/Graphics/SVG/1.1/DTD/svg11.dtd" >
<svg xmlns="http://www.w3.org/2000/svg" xmlns:xlink="http://www.w3.org/1999/xlink" version="1.1">
<metadata>
Created by FontForge 20150824 at Wed Jun  8 07:33:29 2016
 By Everything Fonts
Copyright (c) Mark Simonson, 2005. All rights reserved.
</metadata>
<defs>
<font id="ProximaNovaLightItalic" horiz-adv-x="384" >
  <font-face 
    font-family="ProximaNovaLightItalic"
    font-weight="300"
    font-style="italic"
    font-stretch="normal"
    units-per-em="1000"
    panose-1="2 0 5 6 3 0 0 2 0 4"
    ascent="790"
    descent="-210"
    x-height="483"
    cap-height="667"
    bbox="-225 -259 1148 886"
    underline-thickness="20"
    underline-position="-153"
    unicode-range="U+0020-FB04"
  />
<missing-glyph horiz-adv-x="517" 
d="M454 -90h-351v842h351v-842zM422 -60v782h-288v-782h288z" />
    <glyph glyph-name="f_f_j" unicode="ffj" horiz-adv-x="743" 
d="M97 0h-53l97 437h-80l10 46h80l9 44q14 70 51.5 110t98.5 40q59 0 96 -37l-32 -37q-24 27 -63 27q-76 0 -98 -103l-10 -44h99l-11 -46h-98zM362 0h-53l97 437h-80l10 46h80l9 44q33 150 150 150q45 0 76 -21l-23 -42q-20 16 -52 16q-76 0 -98 -103l-10 -44h99l-11 -46
h-98zM456 -196q-73 0 -107 43l31 40q27 -36 70 -36q73 0 93 88l121 544h52l-121 -544q-15 -69 -48.5 -102t-90.5 -33zM710 559q-15 0 -25.5 10.5t-10.5 24.5q0 19 14.5 31.5t30.5 12.5t26.5 -10.5t10.5 -24.5q0 -19 -14.5 -31.5t-31.5 -12.5z" />
    <glyph glyph-name="f_j" unicode="fj" horiz-adv-x="478" 
d="M97 0h-53l97 437h-80l10 46h80l9 44q33 150 150 150q44 0 76 -21l-23 -42q-20 16 -52 16q-76 0 -98 -103l-10 -44h99l-11 -46h-98zM191 -196q-73 0 -107 43l31 40q27 -36 70 -36q73 0 93 88l121 544h52l-121 -544q-15 -69 -48.5 -102t-90.5 -33zM445 559
q-15 0 -25.5 10.5t-10.5 24.5q0 19 14.5 31.5t30.5 12.5t26.5 -10.5t10.5 -24.5q0 -19 -14.5 -31.5t-31.5 -12.5z" />
    <glyph glyph-name="f_f" unicode="ff" horiz-adv-x="530" 
d="M97 0h-53l97 437h-80l10 46h80l9 44q35 150 150 150q59 0 96 -37l-32 -37q-24 27 -63 27q-76 0 -98 -103l-10 -44h99l-11 -46h-98zM362 0h-53l97 437h-80l10 46h80l9 44q35 150 150 150q59 0 96 -37l-32 -37q-24 27 -63 27q-76 0 -98 -103l-10 -44h99l-11 -46h-98z" />
    <glyph glyph-name="fi" unicode="fi" horiz-adv-x="478" 
d="M97 0h-53l97 437h-80l10 46h80l9 44q33 150 150 150q44 0 76 -21l-23 -42q-20 16 -52 16q-76 0 -98 -103l-10 -44h99l-11 -46h-98zM445 559q-15 0 -25.5 10.5t-10.5 24.5q0 19 14.5 31.5t30.5 12.5t26.5 -10.5t10.5 -24.5q0 -19 -14.5 -31.5t-31.5 -12.5zM344 0h-52
l107 483h52z" />
    <glyph glyph-name="fl" unicode="fl" horiz-adv-x="478" 
d="M97 0h-53l97 437h-80l10 46h80l9 44q33 150 150 150q44 0 76 -21l-23 -42q-20 16 -52 16q-76 0 -98 -103l-10 -44h99l-11 -46h-98zM344 0h-52l147 667h52z" />
    <glyph glyph-name="f_f_i" unicode="ffi" horiz-adv-x="743" 
d="M97 0h-53l97 437h-80l10 46h80l9 44q35 150 150 150q59 0 96 -37l-32 -37q-24 27 -63 27q-76 0 -98 -103l-10 -44h99l-11 -46h-98zM362 0h-53l97 437h-80l10 46h80l9 44q33 150 150 150q45 0 76 -21l-23 -42q-20 16 -52 16q-76 0 -98 -103l-10 -44h99l-11 -46h-98z
M710 559q-15 0 -25.5 10.5t-10.5 24.5q0 19 14.5 31.5t30.5 12.5t26.5 -10.5t10.5 -24.5q0 -19 -14.5 -31.5t-31.5 -12.5zM609 0h-52l107 483h52z" />
    <glyph glyph-name="f_f_l" unicode="ffl" horiz-adv-x="743" 
d="M97 0h-53l97 437h-80l10 46h80l9 44q35 150 150 150q59 0 96 -37l-32 -37q-24 27 -63 27q-76 0 -98 -103l-10 -44h99l-11 -46h-98zM362 0h-53l97 437h-80l10 46h80l9 44q33 150 150 150q45 0 76 -21l-23 -42q-20 16 -52 16q-76 0 -98 -103l-10 -44h99l-11 -46h-98zM609 0
h-52l147 667h52z" />
    <glyph glyph-name="f_b" unicode="fb" horiz-adv-x="835" 
d="M97 0h-53l97 437h-80l10 46h80l9 44q33 150 150 150q44 0 76 -21l-23 -42q-20 16 -52 16q-76 0 -98 -103l-10 -44h99l-11 -46h-98zM536 -12q-58 0 -103 25.5t-71 68.5l-18 -82h-52l147 667h52l-56 -257q65 85 166 85q84 0 136 -53t52 -145q0 -126 -71 -217.5t-182 -91.5z
M531 35q88 0 144.5 76t56.5 176q0 74 -40 117.5t-106 43.5q-49 0 -93 -26.5t-71 -66.5l-51 -232q19 -38 61.5 -63t98.5 -25z" />
    <glyph glyph-name="f_h" unicode="fh" horiz-adv-x="805" 
d="M97 0h-53l97 437h-80l10 46h80l9 44q33 150 150 150q44 0 76 -21l-23 -42q-20 16 -52 16q-76 0 -98 -103l-10 -44h99l-11 -46h-98zM670 0h-52l72 328q6 27 6 35q0 43 -29.5 64t-78.5 21q-82 0 -163 -85l-81 -363h-52l147 667h52l-56 -257q87 85 174 85q64 0 102.5 -30.5
t38.5 -87.5q0 -19 -6 -41z" />
    <glyph glyph-name="f_k" unicode="fk" horiz-adv-x="770" 
d="M97 0h-53l97 437h-80l10 46h80l9 44q33 150 150 150q44 0 76 -21l-23 -42q-20 16 -52 16q-76 0 -98 -103l-10 -44h99l-11 -46h-98zM697 0h-64l-145 233l-112 -88l-32 -145h-52l147 667h52l-101 -456l342 272h73l-274 -218z" />
    <glyph glyph-name=".notdef" horiz-adv-x="517" 
d="M454 -90h-351v842h351v-842zM422 -60v782h-288v-782h288z" />
    <glyph glyph-name=".null" horiz-adv-x="0" 
 />
    <glyph glyph-name="nonmarkingreturn" horiz-adv-x="333" 
 />
    <glyph glyph-name="space" unicode=" " horiz-adv-x="259" 
 />
    <glyph glyph-name="exclam" unicode="!" horiz-adv-x="219" 
d="M114 174h-41l96 493h67zM59 -10q-17 0 -28.5 12t-11.5 29q0 19 14 33t34 14q17 0 28.5 -11.5t11.5 -28.5q0 -20 -14 -34t-34 -14z" />
    <glyph glyph-name="quotedbl" unicode="&#x22;" horiz-adv-x="317" 
d="M147 427h-29q23 192 25 206q2 20 13 32t29 12q13 0 22.5 -9.5t9.5 -23.5l-5 -20zM278 427h-29q23 192 25 206q5 44 42 44q14 0 23 -9.5t9 -23.5l-5 -20z" />
    <glyph glyph-name="numbersign" unicode="#" horiz-adv-x="579" 
d="M229 0h-47l105 186h-119l-103 -186h-47l103 186h-110l21 41h112l119 213h-112l20 41h115l102 186h47l-102 -186h117l102 186h48l-104 -186h111l-20 -41h-113l-119 -213h115l-21 -41h-116zM307 227l120 213h-117l-119 -213h116z" />
    <glyph glyph-name="dollar" unicode="$" horiz-adv-x="584" 
d="M281 -12q-13 0 -20 1l-19 -89h-46l21 94q-65 10 -115.5 40t-75.5 71l42 41q57 -81 160 -101l62 277q-31 13 -50.5 22.5t-44.5 25.5t-39.5 32t-24.5 39.5t-10 50.5q0 76 65.5 131t159.5 55q15 0 23 -1l20 91h46l-22 -97q112 -22 163 -97l-43 -40q-45 65 -131 85l-56 -251
q39 -17 63.5 -30.5t52.5 -34.5t41.5 -49t13.5 -62q0 -81 -63 -142.5t-173 -61.5zM454 185q0 41 -31 67.5t-91 52.5l-59 -265h13q82 0 125 44.5t43 100.5zM183 498q0 -37 30.5 -62t90.5 -51l53 240q-5 1 -16 1q-65 0 -111.5 -38.5t-46.5 -89.5z" />
    <glyph glyph-name="percent" unicode="%" horiz-adv-x="720" 
d="M119 0h-45l573 667h46zM494 -12q-62 0 -103.5 37.5t-41.5 96.5q0 84 52 139t123 55q62 0 103.5 -37.5t41.5 -96.5q0 -84 -52 -139t-123 -55zM495 27q51 0 89 43.5t38 107.5q0 43 -28 71t-71 28q-51 0 -89.5 -44t-38.5 -107q0 -43 28.5 -71t71.5 -28zM234 349
q-61 0 -102.5 37.5t-41.5 96.5q0 85 52 139.5t123 54.5q61 0 102.5 -37.5t41.5 -95.5q0 -85 -52 -140t-123 -55zM236 388q51 0 89 44t38 107q0 43 -28.5 71t-71.5 28q-51 0 -89 -43.5t-38 -107.5q0 -43 28.5 -71t71.5 -28z" />
    <glyph glyph-name="ampersand" unicode="&#x26;" horiz-adv-x="639" 
d="M526 0h-72q-12 15 -50 65q-92 -77 -189 -77q-84 0 -139 43t-55 120q0 47 15.5 84t46 63.5t61.5 44t75 36.5q-25 64 -25 119q0 73 53 126t123 53q60 0 98.5 -29.5t38.5 -83.5q0 -33 -12.5 -61t-29.5 -46t-49 -37t-54.5 -29t-62.5 -26q-3 -1 -5.5 -2t-4.5 -2
q20 -44 58 -106q35 -58 70 -112q70 75 113 157l43 -25q-67 -108 -128 -171q32 -43 81 -104zM220 34q74 0 156 70q-54 78 -76 118q-42 71 -64 117q-74 -34 -114.5 -74.5t-40.5 -106.5q0 -59 40 -91.5t99 -32.5zM250 499q0 -44 22 -99q45 17 70 29t54.5 31.5t43 43.5t13.5 55
q0 35 -23.5 54.5t-58.5 19.5q-45 0 -83 -36.5t-38 -97.5z" />
    <glyph glyph-name="quotesingle" unicode="'" horiz-adv-x="187" 
d="M147 427h-29q23 192 25 206q2 20 13 32t29 12q13 0 22.5 -9.5t9.5 -23.5l-5 -20z" />
    <glyph glyph-name="parenleft" unicode="(" horiz-adv-x="227" 
d="M117 -179l-36 -20q-56 132 -56 283q0 316 251 601l26 -26q-221 -297 -221 -599q0 -104 36 -239z" />
    <glyph glyph-name="parenright" unicode=")" horiz-adv-x="227" 
d="M109 665l36 20q56 -132 56 -283q0 -316 -251 -601l-26 26q221 297 221 599q0 104 -36 239z" />
    <glyph glyph-name="asterisk" unicode="*" horiz-adv-x="335" 
d="M220 399h-39l33 119l-112 -52l-11 34l115 41l-91 63l25 30l84 -73l20 116h38l-32 -118l112 51l11 -34l-115 -41l91 -63l-26 -30l-83 73z" />
    <glyph glyph-name="plus" unicode="+" horiz-adv-x="496" 
d="M483 316h-197l-48 -217h-44l48 217h-197l9 42h197l46 211h45l-46 -211h197z" />
    <glyph glyph-name="comma" unicode="," horiz-adv-x="219" 
d="M109 30q0 -41 -30.5 -83t-72.5 -63l-24 26q28 14 49.5 37.5t28.5 46.5h-7q-14 0 -24 10.5t-10 25.5q0 20 14 34t33 14t31 -12.5t12 -35.5z" />
    <glyph glyph-name="hyphen" unicode="-" horiz-adv-x="300" 
d="M264 218h-240l10 48h240z" />
    <glyph glyph-name="period" unicode="." horiz-adv-x="219" 
d="M59 -10q-17 0 -28.5 12t-11.5 29q0 19 14 33t34 14q17 0 28.5 -11.5t11.5 -28.5q0 -20 -14 -34t-34 -14z" />
    <glyph glyph-name="slash" unicode="/" horiz-adv-x="282" 
d="M-13 -20h-46l393 707h47z" />
    <glyph glyph-name="zero" unicode="0" horiz-adv-x="608" 
d="M276 -12q-102 0 -156.5 69t-54.5 187q0 101 35.5 198.5t108 166t164.5 68.5q102 0 155 -68t53 -187q0 -101 -35 -198.5t-107 -166.5t-163 -69zM280 40q54 0 101 36.5t77 94t47 124.5t17 131q0 91 -37.5 145t-117.5 54q-54 0 -101 -36.5t-77 -93.5t-47 -124t-17 -131
q0 -91 37.5 -145.5t117.5 -54.5z" />
    <glyph glyph-name="one" unicode="1" horiz-adv-x="308" 
d="M171 0h-57l129 589l-131 -114l-27 37l181 155h52z" />
    <glyph glyph-name="two" unicode="2" horiz-adv-x="582" 
d="M442 0h-440l14 60q78 50 127.5 82.5t111 76.5t99 77t72 71t50.5 73t16 69q0 54 -42.5 85t-111.5 31q-106 0 -173 -67l-31 40q36 36 91 57.5t115 21.5q89 0 151 -42.5t62 -123.5q0 -46 -26 -95.5t-64.5 -92t-103.5 -93.5t-120 -88.5t-137 -89.5h351z" />
    <glyph glyph-name="three" unicode="3" horiz-adv-x="544" 
d="M241 -12q-82 0 -149.5 39t-90.5 100l46 30q22 -54 75 -85.5t118 -31.5q80 0 128 45t48 115q0 53 -43.5 85.5t-115.5 32.5q-35 0 -57 -2l13 54q9 -1 89 -1q72 0 122.5 36t50.5 101q0 51 -44.5 85t-117.5 34q-97 0 -171 -70l-28 40q37 38 91.5 60t110.5 22q96 0 156.5 -44
t60.5 -122q0 -74 -55.5 -121t-125.5 -52q52 -12 86.5 -49t34.5 -92q0 -87 -65 -148t-167 -61z" />
    <glyph glyph-name="four" unicode="4" horiz-adv-x="541" 
d="M354 0h-57l40 182h-316l13 55l386 430h81l-96 -433h98l-11 -52h-98zM348 234l83 376l-340 -376h257z" />
    <glyph glyph-name="five" unicode="5" horiz-adv-x="582" 
d="M271 -12q-166 0 -229 135l46 33q51 -116 188 -116q76 0 130 52.5t54 129.5q0 67 -45 104.5t-116 37.5q-76 0 -146 -50l-38 22l73 331h385l-11 -52h-328l-55 -247q60 46 143 46t140.5 -49.5t57.5 -137.5q0 -98 -70.5 -168.5t-178.5 -70.5z" />
    <glyph glyph-name="six" unicode="6" horiz-adv-x="584" 
d="M275 -12q-103 0 -158.5 62.5t-55.5 177.5q0 55 11 114.5t36.5 119.5t61 107.5t89.5 77.5t118 30q138 0 192 -104l-43 -37q-40 89 -152 89q-51 0 -94 -25.5t-71.5 -69t-47.5 -90.5t-31 -102q-1 -3 -5 -19q31 36 86.5 64.5t113.5 28.5q89 0 144 -46.5t55 -126.5
q0 -102 -72 -176.5t-177 -74.5zM277 40q80 0 133.5 57.5t53.5 133.5q0 60 -43 95.5t-114 35.5q-103 0 -189 -96q-2 -18 -2 -53q0 -78 42 -125.5t119 -47.5z" />
    <glyph glyph-name="seven" unicode="7" horiz-adv-x="502" 
d="M133 0h-66l414 615h-366l11 52h437l-9 -40z" />
    <glyph glyph-name="eight" unicode="8" horiz-adv-x="571" 
d="M266 -12q-101 0 -165 44t-64 123q0 76 57.5 127.5t151.5 68.5q-50 19 -86 56t-36 87q0 87 68.5 135t156.5 48q89 0 152 -43.5t63 -117.5q0 -73 -54 -119.5t-142 -58.5q52 -22 91.5 -62t39.5 -98q0 -82 -68 -136t-165 -54zM313 368q85 7 137.5 43.5t52.5 98.5
q0 48 -45.5 81t-110.5 33q-68 0 -116.5 -36t-48.5 -97q0 -43 41.5 -77.5t89.5 -45.5zM267 40q68 0 121 39t53 103q0 50 -44 86.5t-95 50.5q-89 -6 -146.5 -48.5t-57.5 -105.5q0 -59 48.5 -92t120.5 -33z" />
    <glyph glyph-name="nine" unicode="9" horiz-adv-x="584" 
d="M347 678q103 0 158.5 -62.5t55.5 -177.5q0 -55 -11 -114.5t-36 -119.5t-61 -107.5t-90 -77.5t-118 -30q-137 0 -191 104l42 37q40 -89 153 -89q51 0 93.5 25.5t71 69t47.5 90.5t32 102q4 18 4 19q-31 -36 -86.5 -64.5t-113.5 -28.5q-89 0 -144 46.5t-55 126.5
q0 102 72 176.5t177 74.5zM345 626q-79 0 -133 -57.5t-54 -133.5q0 -60 43 -95.5t114 -35.5q105 0 189 96q2 18 2 53q0 78 -42 125.5t-119 47.5z" />
    <glyph glyph-name="colon" unicode=":" horiz-adv-x="217" 
d="M59 -10q-17 0 -28.5 12t-11.5 29q0 19 14 33t34 14q17 0 28.5 -11.5t11.5 -28.5q0 -20 -14 -34t-34 -14zM150 403q-17 0 -28.5 11.5t-11.5 28.5q0 19 14 33t34 14q17 0 28.5 -11.5t11.5 -28.5q0 -20 -14 -33.5t-34 -13.5z" />
    <glyph glyph-name="semicolon" unicode=";" horiz-adv-x="219" 
d="M109 30q0 -41 -30.5 -83t-72.5 -63l-24 26q28 14 49.5 37.5t28.5 46.5h-7q-14 0 -24 10.5t-10 25.5q0 20 14 34t33 14t31 -12.5t12 -35.5zM150 403q-17 0 -28.5 11.5t-11.5 28.5q0 19 14 33t34 14q17 0 28.5 -11.5t11.5 -28.5q0 -20 -14 -33.5t-34 -13.5z" />
    <glyph glyph-name="less" unicode="&#x3c;" horiz-adv-x="496" 
d="M432 90l-388 226l9 37l488 227l-12 -52l-428 -196l341 -195z" />
    <glyph glyph-name="equal" unicode="=" horiz-adv-x="496" 
d="M504 411h-438l9 42h438zM461 216h-439l10 41h438z" />
    <glyph glyph-name="greater" unicode="&#x3e;" horiz-adv-x="496" 
d="M483 316l-489 -226l12 52l430 194l-343 197l10 47l388 -227z" />
    <glyph glyph-name="question" unicode="?" horiz-adv-x="464" 
d="M244 201l-45 -25q-26 33 -26 72q0 40 26.5 69.5t63.5 49t74.5 39t64 49t26.5 69.5q0 46 -37 73.5t-101 27.5q-98 0 -168 -72l-27 39q85 85 199 85q88 0 142.5 -40.5t54.5 -105.5q0 -49 -27.5 -86t-66.5 -59t-78 -41t-66.5 -43.5t-27.5 -55.5q0 -26 19 -45zM172 -10
q-17 0 -28.5 12t-11.5 29q0 19 14 33t34 14q17 0 28.5 -11.5t11.5 -28.5q0 -20 -14 -34t-34 -14z" />
    <glyph glyph-name="at" unicode="@" horiz-adv-x="783" 
d="M372 -70q-136 0 -226.5 90.5t-90.5 223.5q0 106 55.5 197.5t147 144t194.5 52.5q139 0 227 -92.5t88 -229.5q0 -108 -47.5 -169.5t-114.5 -61.5q-39 0 -63 25t-25 60l-1 6q-28 -39 -72 -65t-92 -26q-69 0 -111 43.5t-42 116.5q0 105 73.5 180t165.5 75q47 0 80.5 -23.5
t49.5 -59.5l13 65h49l-59 -282q-2 -12 -2 -19q0 -25 14.5 -40t35.5 -15q40 0 78 46.5t38 144.5q0 125 -80 207t-206 82q-145 0 -253.5 -109.5t-108.5 -251.5q0 -121 82 -202.5t207 -81.5q96 0 187 57l17 -25q-98 -63 -208 -63zM362 127q96 0 164 100l32 148q-11 32 -40 57.5
t-74 25.5q-79 0 -136 -64.5t-57 -146.5q0 -53 30 -86.5t81 -33.5z" />
    <glyph glyph-name="A" unicode="A" horiz-adv-x="647" 
d="M578 0h-63l-30 164h-353l-102 -164h-69l420 667h71zM478 216l-72 390l-244 -390h316z" />
    <glyph glyph-name="B" unicode="B" horiz-adv-x="615" 
d="M314 0h-285l147 667h257q69 0 117 -42t48 -109q0 -70 -45.5 -121t-109.5 -59q41 -10 69 -50.5t28 -87.5q0 -82 -58.5 -140t-167.5 -58zM386 368q77 0 113 42t36 100q0 45 -33.5 75t-81.5 30h-198l-54 -247h218zM317 52q76 0 120 44.5t44 104.5q0 50 -33 82.5t-89 32.5
h-203l-59 -264h220z" />
    <glyph glyph-name="C" unicode="C" horiz-adv-x="671" 
d="M367 -12q-132 0 -216 79.5t-84 209.5q0 88 31.5 164.5t83.5 127.5t118.5 80t136.5 29q88 0 156 -37t106 -106l-55 -25q-64 116 -211 116q-120 0 -212 -97t-92 -250q0 -108 65.5 -173.5t175.5 -65.5q101 0 189 76l40 -34q-97 -94 -232 -94z" />
    <glyph glyph-name="D" unicode="D" horiz-adv-x="692" 
d="M241 0h-212l147 667h208q113 0 192 -81t79 -203q0 -56 -16 -110.5t-50 -104t-81.5 -87t-116.5 -59.5t-150 -22zM253 52h-2q154 0 249 96t95 233q0 101 -63.5 167.5t-158.5 66.5h-151l-125 -563h156z" />
    <glyph glyph-name="E" unicode="E" horiz-adv-x="564" 
d="M452 0h-423l147 667h423l-11 -52h-366l-54 -247h358l-12 -52h-358l-59 -264h366z" />
    <glyph glyph-name="F" unicode="F" horiz-adv-x="542" 
d="M86 0h-57l147 667h423l-11 -52h-366l-54 -247h358l-12 -52h-358z" />
    <glyph glyph-name="G" unicode="G" horiz-adv-x="711" 
d="M367 -12q-136 0 -218 81t-82 208q0 172 109.5 286.5t263.5 114.5q87 0 153 -36.5t104 -100.5l-51 -26q-30 54 -86.5 82.5t-126.5 28.5q-121 0 -212.5 -99.5t-91.5 -247.5q0 -109 66 -174t175 -65q108 0 194 80l35 160h-252l11 52h310l-53 -239q-108 -105 -248 -105z" />
    <glyph glyph-name="H" unicode="H" horiz-adv-x="703" 
d="M567 0h-58l70 317h-423l-70 -317h-57l147 667h57l-65 -298h422l66 298h58z" />
    <glyph glyph-name="I" unicode="I" horiz-adv-x="223" 
d="M86 0h-57l147 667h57z" />
    <glyph glyph-name="J" unicode="J" horiz-adv-x="470" 
d="M156 -12q-58 0 -104.5 22.5t-70.5 65.5l39 40q40 -76 133 -76q66 0 107.5 41t57.5 112l105 474h57l-104 -474q-46 -205 -220 -205z" />
    <glyph glyph-name="K" unicode="K" horiz-adv-x="586" 
d="M508 0h-68l-208 317l-94 -84l-52 -233h-57l147 667h57l-79 -358l397 358h77l-354 -318z" />
    <glyph glyph-name="L" unicode="L" horiz-adv-x="484" 
d="M396 0h-381l147 667h58l-136 -615h322z" />
    <glyph glyph-name="M" unicode="M" horiz-adv-x="790" 
d="M653 0h-58l131 595l-374 -595h-22l-112 595l-132 -595h-57l147 667h82l104 -555l350 555h88z" />
    <glyph glyph-name="N" unicode="N" horiz-adv-x="699" 
d="M562 0h-56l-292 578l-128 -578h-57l147 667h58l291 -570l127 570h57z" />
    <glyph glyph-name="O" unicode="O" horiz-adv-x="764" 
d="M367 -12q-129 0 -214.5 77t-85.5 212q0 168 108.5 284.5t261.5 116.5q129 0 214 -77t85 -212q0 -168 -108 -284.5t-261 -116.5zM370 40q124 0 214 99.5t90 247.5q0 113 -69 176t-173 63q-124 0 -213.5 -99t-89.5 -248q0 -113 68.5 -176t172.5 -63z" />
    <glyph glyph-name="P" unicode="P" horiz-adv-x="571" 
d="M86 0h-57l147 667h239q72 0 121 -49.5t49 -117.5q0 -40 -14 -78.5t-42.5 -71.5t-78 -53t-112.5 -20h-190zM345 329h-1q86 0 133 48.5t47 118.5q0 48 -35.5 83.5t-87.5 35.5h-179l-63 -286h186z" />
    <glyph glyph-name="Q" unicode="Q" horiz-adv-x="764" 
d="M367 -12q-129 0 -214.5 77t-85.5 212q0 168 108.5 284.5t261.5 116.5q129 0 214 -77t85 -212q0 -100 -41.5 -186t-112.5 -141l45 -60l-46 -29l-44 59q-80 -44 -170 -44zM370 40q70 0 134 36l-86 117l46 29l85 -116q58 48 91.5 120.5t33.5 160.5q0 113 -69 176t-173 63
q-124 0 -213.5 -99t-89.5 -248q0 -113 68.5 -176t172.5 -63z" />
    <glyph glyph-name="R" unicode="R" horiz-adv-x="594" 
d="M489 0h-65l-126 276h-151l-61 -276h-57l147 667h229q72 0 126.5 -46t54.5 -122q0 -94 -62.5 -155.5t-165.5 -64.5zM343 328h2q84 0 131.5 48.5t47.5 119.5q0 51 -38 85t-87 34h-177l-63 -287h184z" />
    <glyph glyph-name="S" unicode="S" horiz-adv-x="581" 
d="M279 -12q-84 0 -153.5 33t-101.5 84l42 41q75 -106 218 -106q82 0 125 44.5t43 100.5q0 40 -34.5 69.5t-83 49.5t-97.5 41.5t-83.5 58.5t-34.5 88q0 76 65.5 131t159.5 55q75 0 137 -28.5t93 -75.5l-43 -40q-30 45 -81.5 68.5t-110.5 23.5q-65 0 -111.5 -38.5
t-46.5 -89.5q0 -37 34.5 -64.5t83.5 -47.5t98 -42t83.5 -60.5t34.5 -91.5q0 -81 -63 -142.5t-173 -61.5z" />
    <glyph glyph-name="T" unicode="T" horiz-adv-x="564" 
d="M257 0h-58l136 615h-218l11 52h494l-11 -52h-218z" />
    <glyph glyph-name="U" unicode="U" horiz-adv-x="686" 
d="M328 -12q-115 0 -181 58.5t-66 158.5q0 23 5 51l90 411h58l-90 -410q-6 -24 -6 -45q0 -77 50.5 -124.5t139.5 -47.5q94 0 145 55t75 162l90 410h58l-90 -411q-30 -132 -94 -200t-184 -68z" />
    <glyph glyph-name="V" unicode="V" horiz-adv-x="647" 
d="M305 0h-71l-126 667h63l109 -603l376 603h69z" />
    <glyph glyph-name="W" unicode="W" horiz-adv-x="867" 
d="M604 0h-64l-34 573l-286 -573h-64l-44 667h63l30 -587l294 587h52l34 -587l290 587h66z" />
    <glyph glyph-name="X" unicode="X" horiz-adv-x="645" 
d="M572 0h-65l-170 302l-295 -302h-77l342 346l-180 321h66l157 -283l276 283h78l-323 -328z" />
    <glyph glyph-name="Y" unicode="Y" horiz-adv-x="618" 
d="M284 0h-58l64 285l-182 382h64l153 -328l297 328h74l-349 -382z" />
    <glyph glyph-name="Z" unicode="Z" horiz-adv-x="581" 
d="M477 0h-481l11 50l522 565h-396l10 52h474l-10 -49l-523 -566h404z" />
    <glyph glyph-name="bracketleft" unicode="[" horiz-adv-x="228" 
d="M114 -190h-173l192 868h174l-10 -43h-129l-174 -782h129z" />
    <glyph glyph-name="backslash" unicode="\" horiz-adv-x="282" 
d="M178 -20l-80 707h45l80 -707h-45z" />
    <glyph glyph-name="bracketright" unicode="]" horiz-adv-x="228" 
d="M94 -190h-173l10 43h128l174 782h-130l10 43h174z" />
    <glyph glyph-name="asciicircum" unicode="^" horiz-adv-x="428" 
d="M428 333h-45l-82 293l-212 -293h-51l248 334h42z" />
    <glyph glyph-name="underscore" unicode="_" horiz-adv-x="564" 
d="M494 -83h-569l10 43h569z" />
    <glyph glyph-name="grave" unicode="`" horiz-adv-x="216" 
d="M285 556h-44l-140 144h62z" />
    <glyph glyph-name="grave" unicode="&#x2cb;" horiz-adv-x="216" 
d="M285 556h-44l-140 144h62z" />
    <glyph glyph-name="a" unicode="a" horiz-adv-x="571" 
d="M299 495q57 0 102.5 -25.5t71.5 -68.5l17 82h53l-107 -483h-53l17 73q-67 -85 -166 -85q-85 0 -137 53t-52 145q0 126 71 217.5t183 91.5zM303 448q-87 0 -144 -76t-57 -176q0 -74 40 -117.5t106 -43.5q49 0 93.5 26.5t70.5 66.5l51 232q-19 38 -61.5 63t-98.5 25z" />
    <glyph glyph-name="b" unicode="b" horiz-adv-x="571" 
d="M271 -12q-58 0 -103 25.5t-71 68.5l-18 -82h-52l147 667h52l-56 -257q65 85 166 85q84 0 136 -53t52 -145q0 -126 -71 -217.5t-182 -91.5zM266 35q88 0 144.5 76t56.5 176q0 74 -40 117.5t-106 43.5q-49 0 -93 -26.5t-71 -66.5l-51 -232q19 -38 61.5 -63t98.5 -25z" />
    <glyph glyph-name="c" unicode="c" horiz-adv-x="494" 
d="M261 -12q-96 0 -155.5 57t-59.5 157q0 120 78 206.5t190 86.5q121 0 173 -88l-40 -30q-41 71 -131 71q-96 0 -155.5 -73.5t-59.5 -173.5q0 -80 46 -123t119 -43q79 0 131 62l30 -36q-71 -73 -166 -73z" />
    <glyph glyph-name="d" unicode="d" horiz-adv-x="571" 
d="M299 495q57 0 102.5 -25.5t71.5 -68.5l58 266h53l-148 -667h-53l17 73q-67 -85 -166 -85q-85 0 -137 53t-52 145q0 126 71 217.5t183 91.5zM303 448q-87 0 -144 -76t-57 -176q0 -74 40 -117.5t106 -43.5q49 0 93.5 26.5t70.5 66.5l51 232q-19 38 -61.5 63t-98.5 25z" />
    <glyph glyph-name="e" unicode="e" horiz-adv-x="567" 
d="M276 -12q-107 0 -168.5 58.5t-61.5 154.5q0 121 78 207.5t190 86.5q94 0 149.5 -59t55.5 -150q0 -29 -8 -61h-408q-2 -12 -2 -28q0 -71 46 -117.5t131 -46.5q84 0 146 52l20 -38q-77 -59 -168 -59zM465 266h3q1 5 1 22q0 72 -42.5 117t-118.5 45q-72 0 -129.5 -54.5
t-70.5 -129.5h357z" />
    <glyph glyph-name="f" unicode="f" horiz-adv-x="265" 
d="M97 0h-53l97 437h-80l10 46h80l9 44q14 70 51.5 110t98.5 40q59 0 96 -37l-32 -37q-24 27 -63 27q-76 0 -98 -103l-10 -44h99l-11 -46h-98z" />
    <glyph glyph-name="g" unicode="g" horiz-adv-x="570" 
d="M212 -196q-72 0 -122.5 18t-85.5 64l37 39q48 -74 171 -74q63 0 109.5 37t62.5 116l15 73q-66 -85 -171 -85q-81 0 -132 51.5t-51 149.5q0 122 70 212t181 90q51 0 99.5 -26.5t75.5 -67.5l19 82h53l-107 -479q-45 -200 -224 -200zM247 39q44 0 89 24.5t74 61.5l53 234
q-22 40 -67.5 64.5t-97.5 24.5q-87 0 -142 -76t-55 -172q0 -75 39.5 -118t106.5 -43z" />
    <glyph glyph-name="h" unicode="h" horiz-adv-x="540" 
d="M405 0h-52l72 328q6 27 6 35q0 43 -29.5 64t-78.5 21q-82 0 -163 -85l-81 -363h-52l147 667h52l-56 -257q87 85 174 85q64 0 102.5 -30.5t38.5 -87.5q0 -19 -6 -41z" />
    <glyph glyph-name="i" unicode="i" horiz-adv-x="214" 
d="M180 559q-15 0 -25.5 10.5t-10.5 24.5q0 19 14.5 31.5t30.5 12.5t26.5 -10.5t10.5 -24.5q0 -19 -14.5 -31.5t-31.5 -12.5zM79 0h-52l107 483h52z" />
    <glyph glyph-name="j" unicode="j" horiz-adv-x="214" 
d="M-74 -196q-73 0 -107 43l31 40q27 -36 70 -36q73 0 93 88l121 544h52l-121 -544q-15 -69 -48.5 -102t-90.5 -33zM180 559q-15 0 -25.5 10.5t-10.5 24.5q0 19 14.5 31.5t30.5 12.5t26.5 -10.5t10.5 -24.5q0 -19 -14.5 -31.5t-31.5 -12.5z" />
    <glyph glyph-name="k" unicode="k" horiz-adv-x="505" 
d="M432 0h-64l-145 233l-112 -88l-32 -145h-52l147 667h52l-101 -456l342 272h73l-274 -218z" />
    <glyph glyph-name="l" unicode="l" horiz-adv-x="214" 
d="M79 0h-52l147 667h52z" />
    <glyph glyph-name="m" unicode="m" horiz-adv-x="789" 
d="M654 0h-52l74 336q4 16 4 27q0 40 -25.5 62.5t-62.5 22.5q-36 0 -75.5 -24t-69.5 -60l-80 -364h-53l75 336q4 30 4 33q-1 35 -24.5 57t-65.5 22q-70 0 -143 -84l-81 -364h-52l107 483h52l-16 -73q74 85 154 85q56 0 89 -31.5t33 -64.5v-2q80 98 166 98q51 0 86.5 -31.5
t35.5 -86.5q0 -13 -6 -41z" />
    <glyph glyph-name="n" unicode="n" horiz-adv-x="540" 
d="M405 0h-52l72 328q6 27 6 35q0 43 -29.5 64t-78.5 21q-83 0 -163 -84l-81 -364h-52l107 483h52l-16 -73q87 85 174 85q64 0 102.5 -30.5t38.5 -87.5q0 -19 -6 -41z" />
    <glyph glyph-name="o" unicode="o" horiz-adv-x="571" 
d="M258 -12q-97 0 -155 58t-58 154q0 118 77 206.5t189 88.5q97 0 155 -58t58 -154q0 -118 -77 -206.5t-189 -88.5zM259 35q88 0 148 74.5t60 171.5q0 77 -41.5 122t-115.5 45q-88 0 -148 -74.5t-60 -171.5q0 -77 41.5 -122t115.5 -45z" />
    <glyph glyph-name="p" unicode="p" horiz-adv-x="567" 
d="M271 -12q-58 0 -103 25.5t-71 68.5l-59 -266h-52l148 667h52l-16 -73q65 85 166 85q84 0 136 -53t52 -145q0 -126 -71 -217.5t-182 -91.5zM266 35q88 0 144.5 76t56.5 176q0 74 -40 117.5t-106 43.5q-49 0 -93 -26.5t-71 -66.5l-51 -232q19 -38 61.5 -63t98.5 -25z" />
    <glyph glyph-name="q" unicode="q" horiz-adv-x="567" 
d="M299 495q57 0 102.5 -25.5t71.5 -68.5l17 82h53l-148 -667h-53l58 257q-67 -85 -166 -85q-85 0 -137 53t-52 145q0 126 71 217.5t183 91.5zM303 448q-87 0 -144 -76t-57 -176q0 -74 40 -117.5t106 -43.5q49 0 93.5 26.5t70.5 66.5l51 232q-19 38 -61.5 63t-98.5 25z" />
    <glyph glyph-name="r" unicode="r" horiz-adv-x="317" 
d="M79 0h-52l107 483h52l-18 -78q40 46 81 67t103 21l-13 -56q-18 3 -35 3q-42 0 -81.5 -26t-65.5 -62z" />
    <glyph glyph-name="s" unicode="s" horiz-adv-x="459" 
d="M202 -12q-133 0 -194 85l37 36q20 -32 62.5 -54.5t95.5 -22.5q58 0 93 29.5t35 70.5q0 28 -26.5 49.5t-64.5 36t-76 30t-64.5 42t-26.5 62.5q0 61 47.5 102t128.5 41q59 0 107 -23t69 -56l-34 -34q-16 29 -57.5 49t-88.5 20q-54 0 -86.5 -24.5t-32.5 -62.5
q0 -27 26.5 -47t64.5 -34t76 -30t64.5 -44t26.5 -66q0 -64 -49 -109.5t-133 -45.5z" />
    <glyph glyph-name="t" unicode="t" horiz-adv-x="275" 
d="M151 -12q-97 0 -97 80q0 14 4 26l76 343h-80l10 46h80l29 132h53l-29 -132h98l-11 -46h-98l-74 -335q-2 -12 -2 -21q0 -46 49 -46q27 0 51 18l10 -42q-32 -23 -69 -23z" />
    <glyph glyph-name="u" unicode="u" horiz-adv-x="540" 
d="M133 483h53l-73 -327q-5 -23 -5 -36q0 -43 29 -64t78 -21q43 0 86.5 24.5t77.5 60.5l81 363h52l-107 -483h-52l16 73q-87 -85 -174 -85q-64 0 -102.5 30.5t-38.5 87.5q0 19 6 41z" />
    <glyph glyph-name="v" unicode="v" horiz-adv-x="481" 
d="M216 0h-59l-97 483h56l81 -422l269 422h61z" />
    <glyph glyph-name="w" unicode="w" horiz-adv-x="719" 
d="M491 0h-50l-44 413l-227 -413h-50l-50 483h53l38 -410l227 410h44l45 -410l220 410h58z" />
    <glyph glyph-name="x" unicode="x" horiz-adv-x="479" 
d="M408 0h-59l-113 213l-207 -213h-66l245 248l-127 235h59l105 -199l193 199h66l-233 -235z" />
    <glyph glyph-name="y" unicode="y" horiz-adv-x="481" 
d="M-46 -186l20 50q18 -9 47 -9q39 0 76 55l58 87l-95 486h56l81 -422l269 422h61l-381 -589q-57 -90 -135 -90q-30 0 -57 10z" />
    <glyph glyph-name="z" unicode="z" horiz-adv-x="469" 
d="M359 0h-357l9 43l370 394h-282l10 46h353l-9 -42l-373 -395h288z" />
    <glyph glyph-name="braceleft" unicode="{" horiz-adv-x="249" 
d="M135 -190h-49q-40 0 -70.5 27t-30.5 70q0 16 4 27l49 219q2 12 2 18q0 22 -10.5 37.5t-28.5 15.5l9 40q53 0 68 71l49 219q14 61 50.5 92.5t88.5 31.5h62l-10 -43h-62q-33 0 -55 -21t-30 -60l-51 -227q-15 -69 -64 -87q29 -15 29 -54q0 -18 -4 -34l-48 -218
q-2 -12 -2 -21q0 -26 16.5 -43t41.5 -17h56z" />
    <glyph glyph-name="bar" unicode="|" horiz-adv-x="208" 
d="M146 -20h-43v707h43v-707z" />
    <glyph glyph-name="braceright" unicode="}" horiz-adv-x="249" 
d="M113 678h49q40 0 70 -27t30 -70q0 -18 -3 -27l-49 -219q-2 -12 -2 -18q0 -22 10.5 -37.5t28.5 -15.5l-9 -40q-53 0 -68 -71l-49 -219q-14 -61 -50.5 -92.5t-88.5 -31.5h-62l10 43h61q69 0 86 81l50 227q16 69 65 88q-29 14 -29 53q0 18 4 34l48 218q2 12 2 21
q0 26 -16.5 43t-41.5 17h-56z" />
    <glyph glyph-name="asciitilde" unicode="~" horiz-adv-x="499" 
d="M522 667l42 -5q-54 -234 -174 -234q-45 0 -66.5 30.5t-24 67.5t-15.5 67.5t-44 30.5q-40 0 -73.5 -52t-55.5 -146l-42 7q24 103 66.5 167.5t106.5 64.5q37 0 58 -20.5t27.5 -49.5t10.5 -57.5t17 -49t38 -20.5q39 0 72.5 52.5t56.5 146.5z" />
    <glyph glyph-name="nbspace" unicode="&#xa0;" horiz-adv-x="259" 
 />
    <glyph glyph-name="exclamdown" unicode="&#xa1;" horiz-adv-x="219" 
d="M103 309h41l-96 -493h-67zM158 493q17 0 28.5 -12t11.5 -29q0 -19 -14 -33t-34 -14q-17 0 -28.5 11.5t-11.5 28.5q0 20 14 34t34 14z" />
    <glyph glyph-name="cent" unicode="&#xa2;" horiz-adv-x="494" 
d="M261 -12q-12 0 -18 1l-19 -89h-44l21 95q-71 15 -113 69t-42 138q0 120 77 206t189 87l16 70h44l-17 -73q90 -13 132 -85l-40 -30q-33 58 -102 69l-91 -411h12q79 0 131 62l30 -36q-71 -73 -166 -73zM101 201q0 -64 29.5 -104.5t80.5 -54.5l91 405q-90 -6 -145.5 -78
t-55.5 -168z" />
    <glyph glyph-name="sterling" unicode="&#xa3;" horiz-adv-x="504" 
d="M23 267l9 42h132q-5 10 -26 41.5t-30.5 56.5t-9.5 55q0 84 69 149.5t166 65.5q67 0 122.5 -32t70.5 -81l-53 -24q-10 38 -48.5 62.5t-89.5 24.5q-72 0 -123.5 -46t-51.5 -121q0 -30 10 -55t28.5 -53.5t25.5 -42.5h147l-9 -42h-126q2 -14 2 -20q0 -50 -36 -97t-81 -75
q27 8 48 8q34 0 86 -22t81 -22q53 0 96 41l16 -47q-56 -47 -114 -47q-46 0 -103.5 23.5t-101.5 23.5q-48 0 -116 -40l-12 48q77 30 129.5 86t52.5 113q0 14 -3 27h-157z" />
    <glyph glyph-name="currency" unicode="&#xa4;" horiz-adv-x="522" 
d="M461 136l-34 -27l-37 49q-61 -44 -132 -44q-83 0 -145 59l-79 -66l-23 31l77 63q-31 56 -31 108q0 95 80 173l-37 49l32 26l39 -48q60 43 133 43q81 0 143 -57l78 64l25 -30l-78 -64q31 -51 31 -108q0 -91 -80 -173zM454 351q0 68 -43.5 110.5t-111.5 42.5
q-77 0 -135 -56.5t-58 -132.5q0 -68 43.5 -110.5t111.5 -42.5q77 0 135 56.5t58 132.5z" />
    <glyph glyph-name="yen" unicode="&#xa5;" horiz-adv-x="618" 
d="M287 0h-58l28 126h-262l9 41h262l27 118h-262l8 42h234l-162 340h64l153 -328l297 328h74l-311 -340h227l-9 -42h-256l-26 -118h255l-9 -41h-255z" />
    <glyph glyph-name="brokenbar" unicode="&#xa6;" horiz-adv-x="208" 
d="M146 -20h-43v316h43v-316zM146 371h-43v316h43v-316z" />
    <glyph glyph-name="section" unicode="&#xa7;" horiz-adv-x="461" 
d="M423 317q0 -47 -32 -85t-96 -56q73 -38 73 -105q0 -61 -49 -106.5t-130 -45.5q-138 0 -205 80l38 33q23 -34 67.5 -53t97.5 -19q55 0 91 30.5t36 74.5q0 30 -26.5 51t-63.5 35t-74.5 29.5t-64 43.5t-26.5 67q0 50 40 88t113 47q-99 36 -99 111q0 55 46.5 97.5t125.5 42.5
q127 0 189 -75l-36 -30q-47 64 -150 64q-53 0 -88 -26.5t-35 -64.5q0 -30 26.5 -51t64.5 -34.5t76 -28.5t64.5 -44t26.5 -70zM369 307q0 36 -27 57t-78 40q-76 -10 -114 -38.5t-38 -66.5q0 -37 31.5 -57.5t105.5 -46.5q62 18 91 48t29 64z" />
    <glyph glyph-name="dieresis" unicode="&#xa8;" horiz-adv-x="262" 
d="M349 605q0 -17 -12.5 -29t-28.5 -12q-14 0 -24 9.5t-10 23.5q0 16 12.5 28.5t29.5 12.5q14 0 23.5 -9.5t9.5 -23.5zM145 605q0 -17 -12.5 -29t-29.5 -12q-14 0 -23.5 9.5t-9.5 23.5q0 16 12.5 28.5t29.5 12.5q14 0 23.5 -9.5t9.5 -23.5z" />
    <glyph glyph-name="copyright" unicode="&#xa9;" horiz-adv-x="778" 
d="M754 334q0 -143 -101.5 -244t-244.5 -101q-142 0 -243 101t-101 244t100.5 244t243.5 101t244.5 -101t101.5 -244zM726 334q0 131 -93.5 224t-224.5 93t-223.5 -93t-92.5 -224t93 -224t223 -93q131 0 224.5 93t93.5 224zM505 197l17 -25q-62 -52 -133 -52
q-88 0 -140 53.5t-52 133.5q0 101 72 171.5t164 70.5q108 0 155 -80l-27 -19q-37 69 -128 69q-77 0 -140 -61.5t-63 -150.5q0 -65 44.5 -111t114.5 -46q67 0 116 47z" />
    <glyph glyph-name="ordfeminine" unicode="&#xaa;" horiz-adv-x="409" 
d="M267 613q-55 0 -93 -46.5t-38 -110.5q0 -49 26 -76t68 -27q59 0 108 57l34 152q-13 23 -41.5 37t-63.5 14zM389 640h43l-70 -314h-43l11 50q-47 -58 -113 -58q-53 0 -89.5 35t-36.5 100q0 78 49 136.5t121 58.5q80 0 117 -57z" />
    <glyph glyph-name="guillemotleft" unicode="&#xab;" horiz-adv-x="402" 
d="M202 63h-53l-120 180l200 177h61l-204 -182zM327 63h-53l-120 180l200 177h61l-204 -182z" />
    <glyph glyph-name="logicalnot" unicode="&#xac;" horiz-adv-x="499" 
d="M513 453l-52 -237h-44l43 195h-394l9 42h438z" />
    <glyph glyph-name="registered" unicode="&#xae;" horiz-adv-x="494" 
d="M508 465q0 -88 -62.5 -150t-150.5 -62t-149.5 62t-61.5 150t62 150t150 62t150 -61.5t62 -150.5zM481 465q0 77 -54.5 131t-131.5 54t-130.5 -54t-53.5 -131q0 -76 54 -130.5t130 -54.5t131 54.5t55 130.5zM366 343h-36l-42 96h-48l-21 -96h-30l53 243h91q28 0 48.5 -17
t20.5 -47q0 -35 -25 -58.5t-55 -23.5zM370 518q0 19 -12 29.5t-30 10.5h-62l-20 -90h69q23 0 39 14.5t16 35.5z" />
    <glyph glyph-name="macron" unicode="&#xaf;" horiz-adv-x="363" 
d="M439 591h-362l8 38h362z" />
    <glyph glyph-name="macron" unicode="&#x203e;" horiz-adv-x="363" 
d="M439 591h-362l8 38h362z" />
    <glyph glyph-name="degree" unicode="&#xb0;" horiz-adv-x="282" 
d="M327 560q0 -48 -34.5 -81.5t-82.5 -33.5t-82 33.5t-34 81.5t34 82.5t82 34.5t82.5 -34.5t34.5 -82.5zM288 560q0 32 -23 55t-55 23q-31 0 -53.5 -23t-22.5 -55t22 -54t53 -22q32 0 55.5 22.5t23.5 53.5z" />
    <glyph glyph-name="plusminus" unicode="&#xb1;" horiz-adv-x="496" 
d="M485 323h-197l-48 -218h-45l48 218h-197l10 41h196l47 212h44l-46 -212h197zM413 0h-438l9 41h438z" />
    <glyph glyph-name="twosuperior" unicode="&#xb2;" 
d="M372 421h-281l9 39q63 38 96 59t76.5 51.5t65 52t37 47.5t15.5 50q0 34 -27 51.5t-64 17.5q-71 0 -113 -47l-22 30q52 55 135 55q55 0 96 -26t41 -79q0 -28 -16 -57t-37.5 -52.5t-62 -53t-71 -49.5t-82.5 -51h213z" />
    <glyph glyph-name="threesuperior" unicode="&#xb3;" 
d="M399 536q0 -47 -39.5 -84.5t-103.5 -37.5q-110 0 -152 72l32 25q38 -59 119 -59q45 0 71.5 25.5t26.5 64.5q0 29 -29 48t-75 19q-21 0 -28 -1l8 38q30 -2 59 -2q45 0 72.5 20.5t27.5 56.5q0 31 -28.5 49.5t-69.5 18.5q-59 0 -109 -44l-20 29q59 53 131 53q60 0 100.5 -26
t40.5 -74q0 -45 -31.5 -73t-79.5 -32q31 -6 54 -29.5t23 -56.5z" />
    <glyph glyph-name="acute" unicode="&#xb4;" horiz-adv-x="216" 
d="M316 700l-204 -144h-45l186 144h63z" />
    <glyph glyph-name="mu" unicode="&#xb5;" horiz-adv-x="540" 
d="M38 -184h-52l148 667h52l-75 -340q-3 -15 -3 -33q0 -77 94 -77q45 0 94.5 24t80.5 58l83 368h52l-107 -483h-52l15 71q-40 -36 -91 -59.5t-101 -23.5q-63 0 -94 25z" />
    <glyph glyph-name="mu" unicode="&#x3bc;" horiz-adv-x="540" 
d="M38 -184h-52l148 667h52l-75 -340q-3 -15 -3 -33q0 -77 94 -77q45 0 94.5 24t80.5 58l83 368h52l-107 -483h-52l15 71q-40 -36 -91 -59.5t-101 -23.5q-63 0 -94 25z" />
    <glyph glyph-name="paragraph" unicode="&#xb6;" horiz-adv-x="449" 
d="M291 -100h-38l162 729h-93l-162 -729h-38l94 423q-57 0 -97 44.5t-40 111.5q0 73 56.5 130.5t137.5 57.5h188z" />
    <glyph glyph-name="periodcentered" unicode="&#xb7;" horiz-adv-x="219" 
d="M106 201q-17 0 -29 11.5t-12 28.5q0 20 14.5 33.5t34.5 13.5q17 0 28.5 -11.5t11.5 -28.5q0 -19 -14 -33t-34 -14z" />
    <glyph glyph-name="periodcentered" unicode="&#x2219;" horiz-adv-x="219" 
d="M106 201q-17 0 -29 11.5t-12 28.5q0 20 14.5 33.5t34.5 13.5q17 0 28.5 -11.5t11.5 -28.5q0 -19 -14 -33t-34 -14z" />
    <glyph glyph-name="cedilla" unicode="&#xb8;" horiz-adv-x="198" 
d="M15 -189q-65 0 -104 37l23 30q33 -34 83 -34q32 0 49 14.5t17 36.5q0 15 -11 24.5t-29 9.5q-22 0 -37 -18l-24 16l49 84h38l-41 -67q15 11 34 11q26 0 42 -15t16 -42q0 -38 -29 -62.5t-76 -24.5z" />
    <glyph glyph-name="onesuperior" unicode="&#xb9;" horiz-adv-x="214" 
d="M193 421h-46l74 337l-77 -66l-22 30l119 99h40z" />
    <glyph glyph-name="ordmasculine" unicode="&#xba;" horiz-adv-x="405" 
d="M238 318q-66 0 -105.5 39t-39.5 102q0 77 52 133t127 56q66 0 105.5 -39t39.5 -102q0 -77 -52 -133t-127 -56zM239 355q59 0 96.5 45t37.5 107q0 46 -28 74.5t-73 28.5q-59 0 -96.5 -45t-37.5 -106q0 -46 28 -75t73 -29z" />
    <glyph glyph-name="guillemotright" unicode="&#xbb;" horiz-adv-x="402" 
d="M77 420h53l120 -180l-200 -177h-61l204 182zM202 420h53l120 -180l-200 -177h-62l205 182z" />
    <glyph glyph-name="onequarter" unicode="&#xbc;" horiz-adv-x="742" 
d="M661 667l-574 -667h-45l573 667h46zM671 107h-60l-24 -107h-44l23 107h-196l8 35l236 258h61l-57 -256h60zM574 144l47 211l-196 -211h149zM159 267h-46l74 337l-77 -66l-22 30l119 99h40z" />
    <glyph glyph-name="onehalf" unicode="&#xbd;" horiz-adv-x="781" 
d="M661 667l-574 -667h-45l573 667h46zM676 0h-281l9 39q63 38 96 59t76.5 51.5t65 52t37 47.5t15.5 50q0 34 -27 51.5t-64 17.5q-71 0 -113 -47l-22 30q52 55 135 55q55 0 96 -26t41 -79q0 -28 -16 -57t-37.5 -52.5t-62 -53t-71 -49.5t-82.5 -51h213zM159 267h-46l74 337
l-77 -66l-22 30l119 99h40z" />
    <glyph glyph-name="threequarters" unicode="&#xbe;" horiz-adv-x="859" 
d="M778 667l-574 -667h-45l573 667h46zM788 107h-60l-24 -107h-44l23 107h-196l8 35l236 258h61l-57 -256h60zM691 144l47 211l-196 -211h149zM365 382q0 -47 -39.5 -84.5t-103.5 -37.5q-110 0 -152 72l32 25q38 -59 119 -59q45 0 71.5 25.5t26.5 64.5q0 29 -29 48t-75 19
q-21 0 -28 -1l8 38q30 -2 59 -2q45 0 72.5 20.5t27.5 56.5q0 31 -28.5 49.5t-69.5 18.5q-59 0 -109 -44l-20 29q59 53 131 53q60 0 100.5 -26t40.5 -74q0 -45 -31.5 -73t-79.5 -32q31 -6 54 -29.5t23 -56.5z" />
    <glyph glyph-name="questiondown" unicode="&#xbf;" horiz-adv-x="392" 
d="M218 282l46 24q26 -32 26 -71q0 -40 -26.5 -69.5t-64 -49l-75 -39t-64 -49.5t-26.5 -70q0 -45 37 -72.5t102 -27.5q98 0 167 72l28 -39q-86 -85 -200 -85q-88 0 -142 40t-54 105q0 50 27.5 87t66.5 59t78 41t66.5 43.5t27.5 55.5q0 25 -20 45zM290 492q17 0 28.5 -11.5
t11.5 -28.5q0 -20 -14 -33.5t-34 -13.5q-16 0 -28 11.5t-12 28.5q0 20 14 33.5t34 13.5z" />
    <glyph glyph-name="Agrave" unicode="&#xc0;" horiz-adv-x="647" 
d="M491 728h-44l-140 144h62zM578 0h-63l-30 164h-353l-102 -164h-69l420 667h71zM478 216l-72 390l-244 -390h316z" />
    <glyph glyph-name="Aacute" unicode="&#xc1;" horiz-adv-x="647" 
d="M619 872l-204 -144h-45l186 144h63zM578 0h-63l-30 164h-353l-102 -164h-69l420 667h71zM478 216l-72 390l-244 -390h316z" />
    <glyph glyph-name="Acircumflex" unicode="&#xc2;" horiz-adv-x="647" 
d="M557 728h-38l-62 113l-108 -113h-42l129 144h54zM578 0h-63l-30 164h-353l-102 -164h-69l420 667h71zM478 216l-72 390l-244 -390h316z" />
    <glyph glyph-name="Atilde" unicode="&#xc3;" horiz-adv-x="647" 
d="M501 726q-25 0 -41.5 16t-23 35t-19.5 35t-33 16q-46 0 -69 -96h-36q12 60 40.5 97t71.5 37q25 0 41.5 -16t23.5 -35t20 -35t32 -16q46 0 70 96h36q-13 -60 -41.5 -97t-71.5 -37zM578 0h-63l-30 164h-353l-102 -164h-69l420 667h71zM478 216l-72 390l-244 -390h316z" />
    <glyph glyph-name="Adieresis" unicode="&#xc4;" horiz-adv-x="647" 
d="M580 773q0 -17 -12 -29t-29 -12q-14 0 -24 9.5t-10 23.5q0 16 12.5 28.5t29.5 12.5q14 0 23.5 -9.5t9.5 -23.5zM376 773q0 -17 -12.5 -29t-29.5 -12q-14 0 -23.5 9.5t-9.5 23.5q0 16 12.5 28.5t29.5 12.5q14 0 23.5 -9.5t9.5 -23.5zM578 0h-63l-30 164h-353l-102 -164
h-69l420 667h71zM478 216l-72 390l-244 -390h316z" />
    <glyph glyph-name="Aring" unicode="&#xc5;" horiz-adv-x="647" 
d="M434 692q-38 0 -62.5 24.5t-24.5 62.5q0 42 31 73.5t74 31.5q38 0 62.5 -24.5t24.5 -62.5q0 -43 -31.5 -74t-73.5 -31zM435 724q29 0 50.5 21t21.5 49q0 26 -15.5 42t-40.5 16q-29 0 -50.5 -21t-21.5 -49q0 -26 15.5 -42t40.5 -16zM578 0h-63l-30 164h-353l-102 -164h-69
l420 667h71zM478 216l-72 390l-244 -390h316z" />
    <glyph glyph-name="AE" unicode="&#xc6;" horiz-adv-x="939" 
d="M825 0h-423l36 164h-271l-138 -164h-69l568 667h444l-11 -52h-365l-55 -247h358l-11 -52h-359l-58 -264h365zM450 216l85 385l-327 -385h242z" />
    <glyph glyph-name="Ccedilla" unicode="&#xc7;" horiz-adv-x="671" 
d="M367 -12q-13 0 -19 1l-27 -45q15 11 34 11q26 0 42 -15t16 -42q0 -38 -29 -62.5t-76 -24.5q-65 0 -104 37l23 30q33 -34 83 -34q32 0 49 14.5t17 36.5q0 15 -11 24.5t-29 9.5q-22 0 -37 -18l-24 16l38 65q-111 16 -178.5 92.5t-67.5 192.5q0 88 31.5 164.5t83.5 127.5
t118.5 80t136.5 29q88 0 156 -37t106 -106l-55 -25q-64 116 -211 116q-120 0 -212 -97t-92 -250q0 -108 65.5 -173.5t175.5 -65.5q101 0 189 76l40 -34q-97 -94 -232 -94z" />
    <glyph glyph-name="Egrave" unicode="&#xc8;" horiz-adv-x="564" 
d="M461 728h-44l-140 144h62zM452 0h-423l147 667h423l-11 -52h-366l-54 -247h358l-12 -52h-358l-59 -264h366z" />
    <glyph glyph-name="Eacute" unicode="&#xc9;" horiz-adv-x="564" 
d="M589 872l-204 -144h-45l186 144h63zM452 0h-423l147 667h423l-11 -52h-366l-54 -247h358l-12 -52h-358l-59 -264h366z" />
    <glyph glyph-name="Ecircumflex" unicode="&#xca;" horiz-adv-x="564" 
d="M525 728h-38l-62 113l-108 -113h-42l129 144h54zM452 0h-423l147 667h423l-11 -52h-366l-54 -247h358l-12 -52h-358l-59 -264h366z" />
    <glyph glyph-name="Edieresis" unicode="&#xcb;" horiz-adv-x="564" 
d="M548 773q0 -17 -12 -29t-29 -12q-14 0 -24 9.5t-10 23.5q0 16 12.5 28.5t29.5 12.5q14 0 23.5 -9.5t9.5 -23.5zM344 773q0 -17 -12.5 -29t-29.5 -12q-14 0 -23.5 9.5t-9.5 23.5q0 16 12.5 28.5t29.5 12.5q14 0 23.5 -9.5t9.5 -23.5zM452 0h-423l147 667h423l-11 -52h-366
l-54 -247h358l-12 -52h-358l-59 -264h366z" />
    <glyph glyph-name="Igrave" unicode="&#xcc;" horiz-adv-x="223" 
d="M279 728h-44l-140 144h62zM86 0h-57l147 667h57z" />
    <glyph glyph-name="Iacute" unicode="&#xcd;" horiz-adv-x="223" 
d="M407 872l-204 -144h-45l186 144h63zM86 0h-57l147 667h57z" />
    <glyph glyph-name="Icircumflex" unicode="&#xce;" horiz-adv-x="223" 
d="M345 728h-38l-62 113l-108 -113h-42l129 144h54zM86 0h-57l147 667h57z" />
    <glyph glyph-name="Idieresis" unicode="&#xcf;" horiz-adv-x="223" 
d="M367 773q0 -17 -12.5 -29t-28.5 -12q-14 0 -24 9.5t-10 23.5q0 16 12.5 28.5t29.5 12.5q14 0 23.5 -9.5t9.5 -23.5zM163 773q0 -17 -12.5 -29t-29.5 -12q-14 0 -23.5 9.5t-9.5 23.5q0 16 12.5 28.5t29.5 12.5q14 0 23.5 -9.5t9.5 -23.5zM86 0h-57l147 667h57z" />
    <glyph glyph-name="Eth" unicode="&#xd0;" horiz-adv-x="721" 
d="M270 0h-212l68 309h-101l11 50h101l68 308h208q113 0 192 -81t79 -203q0 -56 -16 -110.5t-50 -104t-81.5 -87t-116.5 -59.5t-150 -22zM362 309h-179l-57 -257h154q154 0 249 96t95 233q0 101 -63.5 167.5t-158.5 66.5h-151l-57 -256h179z" />
    <glyph glyph-name="Ntilde" unicode="&#xd1;" horiz-adv-x="699" 
d="M525 726q-25 0 -41.5 16t-23 35t-20 35t-32.5 16q-46 0 -69 -96h-36q12 60 40.5 97t71.5 37q25 0 41.5 -16t23.5 -35t20 -35t32 -16q46 0 70 96h36q-13 -60 -41.5 -97t-71.5 -37zM562 0h-56l-292 578l-128 -578h-57l147 667h58l291 -570l127 570h57z" />
    <glyph glyph-name="Ograve" unicode="&#xd2;" horiz-adv-x="764" 
d="M553 728h-44l-140 144h62zM367 -12q-129 0 -214.5 77t-85.5 212q0 168 108.5 284.5t261.5 116.5q129 0 214 -77t85 -212q0 -168 -108 -284.5t-261 -116.5zM370 40q124 0 214 99.5t90 247.5q0 113 -69 176t-173 63q-124 0 -213.5 -99t-89.5 -248q0 -113 68.5 -176
t172.5 -63z" />
    <glyph glyph-name="Oacute" unicode="&#xd3;" horiz-adv-x="764" 
d="M678 872l-204 -144h-45l186 144h63zM367 -12q-129 0 -214.5 77t-85.5 212q0 168 108.5 284.5t261.5 116.5q129 0 214 -77t85 -212q0 -168 -108 -284.5t-261 -116.5zM370 40q124 0 214 99.5t90 247.5q0 113 -69 176t-173 63q-124 0 -213.5 -99t-89.5 -248
q0 -113 68.5 -176t172.5 -63z" />
    <glyph glyph-name="Ocircumflex" unicode="&#xd4;" horiz-adv-x="764" 
d="M616 728h-38l-62 113l-108 -113h-42l129 144h54zM367 -12q-129 0 -214.5 77t-85.5 212q0 168 108.5 284.5t261.5 116.5q129 0 214 -77t85 -212q0 -168 -108 -284.5t-261 -116.5zM370 40q124 0 214 99.5t90 247.5q0 113 -69 176t-173 63q-124 0 -213.5 -99t-89.5 -248
q0 -113 68.5 -176t172.5 -63z" />
    <glyph glyph-name="Otilde" unicode="&#xd5;" horiz-adv-x="764" 
d="M559 726q-25 0 -41.5 16t-23 35t-19.5 35t-33 16q-46 0 -69 -96h-36q12 60 40.5 97t71.5 37q25 0 41.5 -16t23.5 -35t20 -35t32 -16q46 0 70 96h36q-13 -60 -41.5 -97t-71.5 -37zM367 -12q-129 0 -214.5 77t-85.5 212q0 168 108.5 284.5t261.5 116.5q129 0 214 -77
t85 -212q0 -168 -108 -284.5t-261 -116.5zM370 40q124 0 214 99.5t90 247.5q0 113 -69 176t-173 63q-124 0 -213.5 -99t-89.5 -248q0 -113 68.5 -176t172.5 -63z" />
    <glyph glyph-name="Odieresis" unicode="&#xd6;" horiz-adv-x="764" 
d="M636 773q0 -17 -12 -29t-29 -12q-14 0 -24 9.5t-10 23.5q0 16 12.5 28.5t29.5 12.5q14 0 23.5 -9.5t9.5 -23.5zM432 773q0 -17 -12.5 -29t-29.5 -12q-14 0 -23.5 9.5t-9.5 23.5q0 16 12.5 28.5t29.5 12.5q14 0 23.5 -9.5t9.5 -23.5zM367 -12q-129 0 -214.5 77t-85.5 212
q0 168 108.5 284.5t261.5 116.5q129 0 214 -77t85 -212q0 -168 -108 -284.5t-261 -116.5zM370 40q124 0 214 99.5t90 247.5q0 113 -69 176t-173 63q-124 0 -213.5 -99t-89.5 -248q0 -113 68.5 -176t172.5 -63z" />
    <glyph glyph-name="multiply" unicode="&#xd7;" horiz-adv-x="496" 
d="M381 155l-117 150l-186 -153l-26 31l187 154l-117 150l33 27l116 -151l188 153l25 -31l-187 -154l116 -150z" />
    <glyph glyph-name="Oslash" unicode="&#xd8;" horiz-adv-x="764" 
d="M367 -12q-112 0 -189 56l-38 -44h-51l59 69q-81 79 -81 208q0 168 108.5 284.5t261.5 116.5q106 0 185 -54l37 43h52l-58 -68q83 -80 83 -210q0 -168 -108 -284.5t-261 -116.5zM370 40q124 0 214 99.5t90 247.5q0 101 -60 166l-399 -465q63 -48 155 -48zM129 279
q0 -102 57 -165l398 466q-64 46 -152 46q-124 0 -213.5 -99t-89.5 -248z" />
    <glyph glyph-name="Ugrave" unicode="&#xd9;" horiz-adv-x="686" 
d="M512 728h-44l-140 144h62zM328 -12q-115 0 -181 58.5t-66 158.5q0 23 5 51l90 411h58l-90 -410q-6 -24 -6 -45q0 -77 50.5 -124.5t139.5 -47.5q94 0 145 55t75 162l90 410h58l-90 -411q-30 -132 -94 -200t-184 -68z" />
    <glyph glyph-name="Uacute" unicode="&#xda;" horiz-adv-x="686" 
d="M637 872l-204 -144h-45l186 144h63zM328 -12q-115 0 -181 58.5t-66 158.5q0 23 5 51l90 411h58l-90 -410q-6 -24 -6 -45q0 -77 50.5 -124.5t139.5 -47.5q94 0 145 55t75 162l90 410h58l-90 -411q-30 -132 -94 -200t-184 -68z" />
    <glyph glyph-name="Ucircumflex" unicode="&#xdb;" horiz-adv-x="686" 
d="M579 728h-38l-62 113l-108 -113h-42l129 144h54zM328 -12q-115 0 -181 58.5t-66 158.5q0 23 5 51l90 411h58l-90 -410q-6 -24 -6 -45q0 -77 50.5 -124.5t139.5 -47.5q94 0 145 55t75 162l90 410h58l-90 -411q-30 -132 -94 -200t-184 -68z" />
    <glyph glyph-name="Udieresis" unicode="&#xdc;" horiz-adv-x="686" 
d="M599 773q0 -17 -12.5 -29t-28.5 -12q-14 0 -24 9.5t-10 23.5q0 16 12.5 28.5t29.5 12.5q14 0 23.5 -9.5t9.5 -23.5zM395 773q0 -17 -12.5 -29t-29.5 -12q-14 0 -23.5 9.5t-9.5 23.5q0 16 12.5 28.5t29.5 12.5q14 0 23.5 -9.5t9.5 -23.5zM328 -12q-115 0 -181 58.5
t-66 158.5q0 23 5 51l90 411h58l-90 -410q-6 -24 -6 -45q0 -77 50.5 -124.5t139.5 -47.5q94 0 145 55t75 162l90 410h58l-90 -411q-30 -132 -94 -200t-184 -68z" />
    <glyph glyph-name="Yacute" unicode="&#xdd;" horiz-adv-x="618" 
d="M608 872l-204 -144h-45l186 144h63zM284 0h-58l64 285l-182 382h64l153 -328l297 328h74l-349 -382z" />
    <glyph glyph-name="Thorn" unicode="&#xde;" horiz-adv-x="571" 
d="M86 0h-57l147 667h57l-27 -124h181q71 0 121 -48.5t50 -118.5q0 -88 -63 -155.5t-185 -67.5h-190zM316 205q87 0 133.5 49t46.5 118q0 50 -36 84.5t-87 34.5h-178l-63 -286h184z" />
    <glyph glyph-name="germandbls" unicode="&#xdf;" horiz-adv-x="578" 
d="M537 141q0 -61 -47.5 -107t-132.5 -46q-68 0 -114 21t-85 69l37 33q60 -79 163 -79q59 0 93 31t34 71q0 28 -26 48t-63 33t-74 27t-63 40.5t-26 63.5t21 64.5t50.5 43t59.5 29t51 31.5t21 42q0 33 -33 53.5t-72 20.5q-50 0 -88 -32.5t-51 -88.5l-113 -509h-52l112 509
q17 74 67 121t125 47q63 0 111 -31.5t48 -81.5q0 -36 -21 -61.5t-51 -40t-60 -28t-51 -33.5t-21 -48q0 -26 26 -45t63 -32t73.5 -28t62.5 -42t26 -65z" />
    <glyph glyph-name="agrave" unicode="&#xe0;" horiz-adv-x="571" 
d="M299 495q57 0 102.5 -25.5t71.5 -68.5l17 82h53l-107 -483h-53l17 73q-67 -85 -166 -85q-85 0 -137 53t-52 145q0 126 71 217.5t183 91.5zM303 448q-87 0 -144 -76t-57 -176q0 -74 40 -117.5t106 -43.5q49 0 93.5 26.5t70.5 66.5l51 232q-19 38 -61.5 63t-98.5 25z
M399 556h-44l-140 144h62z" />
    <glyph glyph-name="aacute" unicode="&#xe1;" horiz-adv-x="571" 
d="M299 495q57 0 102.5 -25.5t71.5 -68.5l17 82h53l-107 -483h-53l17 73q-67 -85 -166 -85q-85 0 -137 53t-52 145q0 126 71 217.5t183 91.5zM303 448q-87 0 -144 -76t-57 -176q0 -74 40 -117.5t106 -43.5q49 0 93.5 26.5t70.5 66.5l51 232q-19 38 -61.5 63t-98.5 25z
M527 700l-204 -144h-45l186 144h63z" />
    <glyph glyph-name="acircumflex" unicode="&#xe2;" horiz-adv-x="571" 
d="M299 495q57 0 102.5 -25.5t71.5 -68.5l17 82h53l-107 -483h-53l17 73q-67 -85 -166 -85q-85 0 -137 53t-52 145q0 126 71 217.5t183 91.5zM303 448q-87 0 -144 -76t-57 -176q0 -74 40 -117.5t106 -43.5q49 0 93.5 26.5t70.5 66.5l51 232q-19 38 -61.5 63t-98.5 25z
M466 556h-38l-62 113l-108 -113h-42l129 144h54z" />
    <glyph glyph-name="atilde" unicode="&#xe3;" horiz-adv-x="571" 
d="M299 495q57 0 102.5 -25.5t71.5 -68.5l17 82h53l-107 -483h-53l17 73q-67 -85 -166 -85q-85 0 -137 53t-52 145q0 126 71 217.5t183 91.5zM303 448q-87 0 -144 -76t-57 -176q0 -74 40 -117.5t106 -43.5q49 0 93.5 26.5t70.5 66.5l51 232q-19 38 -61.5 63t-98.5 25z
M409 554q-25 0 -41.5 16t-23 35t-19.5 35t-33 16q-46 0 -69 -96h-36q12 60 40.5 97t71.5 37q25 0 41.5 -16t23.5 -35t20 -35t32 -16q46 0 70 96h36q-13 -60 -41.5 -97t-71.5 -37z" />
    <glyph glyph-name="adieresis" unicode="&#xe4;" horiz-adv-x="571" 
d="M299 495q57 0 102.5 -25.5t71.5 -68.5l17 82h53l-107 -483h-53l17 73q-67 -85 -166 -85q-85 0 -137 53t-52 145q0 126 71 217.5t183 91.5zM303 448q-87 0 -144 -76t-57 -176q0 -74 40 -117.5t106 -43.5q49 0 93.5 26.5t70.5 66.5l51 232q-19 38 -61.5 63t-98.5 25z
M490 605q0 -17 -12 -29t-29 -12q-14 0 -24 9.5t-10 23.5q0 16 12.5 28.5t29.5 12.5q14 0 23.5 -9.5t9.5 -23.5zM286 605q0 -17 -12.5 -29t-29.5 -12q-14 0 -23.5 9.5t-9.5 23.5q0 16 12.5 28.5t29.5 12.5q14 0 23.5 -9.5t9.5 -23.5z" />
    <glyph glyph-name="aring" unicode="&#xe5;" horiz-adv-x="571" 
d="M299 495q57 0 102.5 -25.5t71.5 -68.5l17 82h53l-107 -483h-53l17 73q-67 -85 -166 -85q-85 0 -137 53t-52 145q0 126 71 217.5t183 91.5zM303 448q-87 0 -144 -76t-57 -176q0 -74 40 -117.5t106 -43.5q49 0 93.5 26.5t70.5 66.5l51 232q-19 38 -61.5 63t-98.5 25z
M353 550q-38 0 -62.5 24.5t-24.5 62.5q0 42 31 73.5t74 31.5q38 0 62.5 -24.5t24.5 -62.5q0 -43 -31.5 -74t-73.5 -31zM354 582q29 0 50.5 21t21.5 49q0 26 -15.5 42t-40.5 16q-29 0 -50.5 -21t-21.5 -49q0 -26 15.5 -42t40.5 -16z" />
    <glyph glyph-name="ae" unicode="&#xe6;" horiz-adv-x="947" 
d="M664 -12q-80 0 -131.5 39t-67.5 105l-29 -132h-53l16 73q-65 -85 -165 -85q-85 0 -137 53t-52 145q0 126 71 217.5t182 91.5q58 0 103.5 -25.5t70.5 -68.5l18 82h53l-20 -91q76 103 186 103q92 0 141 -57.5t49 -149.5q0 -35 -7 -63h-403q-2 -12 -2 -28q0 -71 46 -117.5
t131 -46.5q77 0 141 52l20 -38q-77 -59 -161 -59zM303 448q-87 0 -144 -76t-57 -176q0 -74 40 -117.5t106 -43.5q49 0 93 26.5t71 66.5l51 232q-19 38 -61.5 63t-98.5 25zM848 266q2 10 2 22q0 73 -40 117.5t-116 44.5q-72 0 -129.5 -54.5t-70.5 -129.5h354z" />
    <glyph glyph-name="ccedilla" unicode="&#xe7;" horiz-adv-x="494" 
d="M207 -189q-65 0 -104 37l23 30q33 -34 83 -34q32 0 49 14.5t17 36.5q0 15 -11 24.5t-29 9.5q-22 0 -37 -18l-24 16l38 65q-76 14 -121 68.5t-45 141.5q0 120 78 206.5t190 86.5q121 0 173 -88l-40 -30q-41 71 -131 71q-96 0 -155.5 -73.5t-59.5 -173.5q0 -80 46 -123
t119 -43q79 0 131 62l30 -36q-71 -73 -166 -73q-3 0 -7.5 0.5t-6.5 0.5l-27 -45q15 11 34 11q26 0 42 -15t16 -42q0 -38 -29 -62.5t-76 -24.5z" />
    <glyph glyph-name="egrave" unicode="&#xe8;" horiz-adv-x="567" 
d="M276 -12q-107 0 -168.5 58.5t-61.5 154.5q0 121 78 207.5t190 86.5q94 0 149.5 -59t55.5 -150q0 -29 -8 -61h-408q-2 -12 -2 -28q0 -71 46 -117.5t131 -46.5q84 0 146 52l20 -38q-77 -59 -168 -59zM465 266h3q1 5 1 22q0 72 -42.5 117t-118.5 45q-72 0 -129.5 -54.5
t-70.5 -129.5h357zM416 556h-44l-140 144h62z" />
    <glyph glyph-name="eacute" unicode="&#xe9;" horiz-adv-x="567" 
d="M276 -12q-107 0 -168.5 58.5t-61.5 154.5q0 121 78 207.5t190 86.5q94 0 149.5 -59t55.5 -150q0 -29 -8 -61h-408q-2 -12 -2 -28q0 -71 46 -117.5t131 -46.5q84 0 146 52l20 -38q-77 -59 -168 -59zM465 266h3q1 5 1 22q0 72 -42.5 117t-118.5 45q-72 0 -129.5 -54.5
t-70.5 -129.5h357zM544 700l-204 -144h-45l186 144h63z" />
    <glyph glyph-name="ecircumflex" unicode="&#xea;" horiz-adv-x="567" 
d="M276 -12q-107 0 -168.5 58.5t-61.5 154.5q0 121 78 207.5t190 86.5q94 0 149.5 -59t55.5 -150q0 -29 -8 -61h-408q-2 -12 -2 -28q0 -71 46 -117.5t131 -46.5q84 0 146 52l20 -38q-77 -59 -168 -59zM465 266h3q1 5 1 22q0 72 -42.5 117t-118.5 45q-72 0 -129.5 -54.5
t-70.5 -129.5h357zM482 556h-38l-62 113l-108 -113h-42l129 144h54z" />
    <glyph glyph-name="edieresis" unicode="&#xeb;" horiz-adv-x="567" 
d="M276 -12q-107 0 -168.5 58.5t-61.5 154.5q0 121 78 207.5t190 86.5q94 0 149.5 -59t55.5 -150q0 -29 -8 -61h-408q-2 -12 -2 -28q0 -71 46 -117.5t131 -46.5q84 0 146 52l20 -38q-77 -59 -168 -59zM465 266h3q1 5 1 22q0 72 -42.5 117t-118.5 45q-72 0 -129.5 -54.5
t-70.5 -129.5h357zM505 605q0 -17 -12.5 -29t-28.5 -12q-14 0 -24 9.5t-10 23.5q0 16 12.5 28.5t29.5 12.5q14 0 23.5 -9.5t9.5 -23.5zM301 605q0 -17 -12.5 -29t-29.5 -12q-14 0 -23.5 9.5t-9.5 23.5q0 16 12.5 28.5t29.5 12.5q14 0 23.5 -9.5t9.5 -23.5z" />
    <glyph glyph-name="igrave" unicode="&#xec;" horiz-adv-x="214" 
d="M235 556h-44l-140 144h62zM79 0h-52l107 483h52z" />
    <glyph glyph-name="iacute" unicode="&#xed;" horiz-adv-x="214" 
d="M364 700l-204 -144h-45l186 144h63zM79 0h-52l107 483h52z" />
    <glyph glyph-name="icircumflex" unicode="&#xee;" horiz-adv-x="214" 
d="M301 556h-38l-62 113l-108 -113h-42l129 144h54zM79 0h-52l107 483h52z" />
    <glyph glyph-name="idieresis" unicode="&#xef;" horiz-adv-x="214" 
d="M325 605q0 -17 -12.5 -29t-28.5 -12q-14 0 -24 9.5t-10 23.5q0 16 12.5 28.5t29.5 12.5q14 0 23.5 -9.5t9.5 -23.5zM121 605q0 -17 -12.5 -29t-29.5 -12q-14 0 -23.5 9.5t-9.5 23.5q0 16 12.5 28.5t29.5 12.5q14 0 23.5 -9.5t9.5 -23.5zM79 0h-52l107 483h52z" />
    <glyph glyph-name="eth" unicode="&#xf0;" horiz-adv-x="571" 
d="M189 523l-7 33l135 40q-32 29 -70 58l39 40q55 -42 92 -80l119 36l7 -33l-100 -30q120 -138 120 -286q0 -131 -75 -222t-188 -91q-95 0 -155 58t-60 147q0 122 74.5 208t178.5 86q51 0 97.5 -25.5t70.5 -79.5q-38 102 -122 187zM262 35q83 0 143 72.5t60 172.5
q0 64 -41 112t-120 48q-83 0 -142.5 -69.5t-59.5 -170.5q0 -73 42.5 -119t117.5 -46z" />
    <glyph glyph-name="ntilde" unicode="&#xf1;" horiz-adv-x="540" 
d="M407 0h-52l72 328q6 27 6 35q0 43 -29.5 64t-78.5 21q-83 0 -163 -84l-81 -364h-52l107 483h52l-16 -73q87 85 174 85q64 0 102.5 -30.5t38.5 -87.5q0 -19 -6 -41zM409 554q-25 0 -41.5 16t-23 35t-19.5 35t-33 16q-46 0 -69 -96h-36q12 60 40.5 97t71.5 37
q25 0 41.5 -16t23.5 -35t20 -35t32 -16q46 0 70 96h36q-13 -60 -41.5 -97t-71.5 -37z" />
    <glyph glyph-name="ograve" unicode="&#xf2;" horiz-adv-x="571" 
d="M258 -12q-97 0 -155 58t-58 154q0 118 77 206.5t189 88.5q97 0 155 -58t58 -154q0 -118 -77 -206.5t-189 -88.5zM259 35q88 0 148 74.5t60 171.5q0 77 -41.5 122t-115.5 45q-88 0 -148 -74.5t-60 -171.5q0 -77 41.5 -122t115.5 -45zM415 556h-44l-140 144h62z" />
    <glyph glyph-name="oacute" unicode="&#xf3;" horiz-adv-x="571" 
d="M258 -12q-97 0 -155 58t-58 154q0 118 77 206.5t189 88.5q97 0 155 -58t58 -154q0 -118 -77 -206.5t-189 -88.5zM259 35q88 0 148 74.5t60 171.5q0 77 -41.5 122t-115.5 45q-88 0 -148 -74.5t-60 -171.5q0 -77 41.5 -122t115.5 -45zM543 700l-204 -144h-45l186 144h63z
" />
    <glyph glyph-name="ocircumflex" unicode="&#xf4;" horiz-adv-x="571" 
d="M258 -12q-97 0 -155 58t-58 154q0 118 77 206.5t189 88.5q97 0 155 -58t58 -154q0 -118 -77 -206.5t-189 -88.5zM259 35q88 0 148 74.5t60 171.5q0 77 -41.5 122t-115.5 45q-88 0 -148 -74.5t-60 -171.5q0 -77 41.5 -122t115.5 -45zM481 556h-38l-62 113l-108 -113h-42
l129 144h54z" />
    <glyph glyph-name="otilde" unicode="&#xf5;" horiz-adv-x="571" 
d="M258 -12q-97 0 -155 58t-58 154q0 118 77 206.5t189 88.5q97 0 155 -58t58 -154q0 -118 -77 -206.5t-189 -88.5zM259 35q88 0 148 74.5t60 171.5q0 77 -41.5 122t-115.5 45q-88 0 -148 -74.5t-60 -171.5q0 -77 41.5 -122t115.5 -45zM424 554q-25 0 -41.5 16t-23 35
t-20 35t-32.5 16q-46 0 -69 -96h-36q12 60 40.5 97t71.5 37q25 0 41.5 -16t23.5 -35t20 -35t32 -16q46 0 70 96h36q-13 -60 -41.5 -97t-71.5 -37z" />
    <glyph glyph-name="odieresis" unicode="&#xf6;" horiz-adv-x="571" 
d="M258 -12q-97 0 -155 58t-58 154q0 118 77 206.5t189 88.5q97 0 155 -58t58 -154q0 -118 -77 -206.5t-189 -88.5zM259 35q88 0 148 74.5t60 171.5q0 77 -41.5 122t-115.5 45q-88 0 -148 -74.5t-60 -171.5q0 -77 41.5 -122t115.5 -45zM504 605q0 -17 -12 -29t-29 -12
q-14 0 -24 9.5t-10 23.5q0 16 12.5 28.5t29.5 12.5q14 0 23.5 -9.5t9.5 -23.5zM300 605q0 -17 -12.5 -29t-29.5 -12q-14 0 -23.5 9.5t-9.5 23.5q0 16 12.5 28.5t29.5 12.5q14 0 23.5 -9.5t9.5 -23.5z" />
    <glyph glyph-name="divide" unicode="&#xf7;" horiz-adv-x="511" 
d="M498 316h-453l9 42h453zM228 100q-15 0 -25 10.5t-10 25.5q0 18 12.5 30t30.5 12q15 0 25.5 -10.5t10.5 -25.5q0 -18 -13 -30t-31 -12zM315 492q-15 0 -25.5 10.5t-10.5 25.5q0 17 13 29.5t30 12.5q16 0 26 -10.5t10 -25.5q0 -18 -12.5 -30t-30.5 -12z" />
    <glyph glyph-name="oslash" unicode="&#xf8;" horiz-adv-x="571" 
d="M65 0h-46l66 66q-40 54 -40 134q0 118 77 206.5t189 88.5q90 0 147 -51l38 39h46l-61 -62q43 -55 43 -138q0 -118 -77 -206.5t-189 -88.5q-95 0 -152 54zM259 35q88 0 148 74.5t60 171.5q0 59 -26 100l-297 -301q42 -45 115 -45zM102 202q0 -58 22 -96l297 301
q-43 41 -111 41q-88 0 -148 -74.5t-60 -171.5z" />
    <glyph glyph-name="ugrave" unicode="&#xf9;" horiz-adv-x="540" 
d="M133 483h53l-73 -327q-5 -23 -5 -36q0 -43 29 -64t78 -21q43 0 86.5 24.5t77.5 60.5l81 363h52l-107 -483h-52l16 73q-87 -85 -174 -85q-64 0 -102.5 30.5t-38.5 87.5q0 19 6 41zM401 556h-44l-140 144h62z" />
    <glyph glyph-name="uacute" unicode="&#xfa;" horiz-adv-x="540" 
d="M133 483h53l-73 -327q-5 -23 -5 -36q0 -43 29 -64t78 -21q43 0 86.5 24.5t77.5 60.5l81 363h52l-107 -483h-52l16 73q-87 -85 -174 -85q-64 0 -102.5 30.5t-38.5 87.5q0 19 6 41zM528 700l-204 -144h-45l186 144h63z" />
    <glyph glyph-name="ucircumflex" unicode="&#xfb;" horiz-adv-x="540" 
d="M133 483h53l-73 -327q-5 -23 -5 -36q0 -43 29 -64t78 -21q43 0 86.5 24.5t77.5 60.5l81 363h52l-107 -483h-52l16 73q-87 -85 -174 -85q-64 0 -102.5 30.5t-38.5 87.5q0 19 6 41zM464 556h-38l-62 113l-108 -113h-42l129 144h54z" />
    <glyph glyph-name="udieresis" unicode="&#xfc;" horiz-adv-x="540" 
d="M133 483h53l-73 -327q-5 -23 -5 -36q0 -43 29 -64t78 -21q43 0 86.5 24.5t77.5 60.5l81 363h52l-107 -483h-52l16 73q-87 -85 -174 -85q-64 0 -102.5 30.5t-38.5 87.5q0 19 6 41zM492 605q0 -17 -12 -29t-29 -12q-14 0 -24 9.5t-10 23.5q0 16 12.5 28.5t29.5 12.5
q14 0 23.5 -9.5t9.5 -23.5zM288 605q0 -17 -12.5 -29t-29.5 -12q-14 0 -23.5 9.5t-9.5 23.5q0 16 12.5 28.5t29.5 12.5q14 0 23.5 -9.5t9.5 -23.5z" />
    <glyph glyph-name="yacute" unicode="&#xfd;" horiz-adv-x="481" 
d="M-46 -186l20 50q18 -9 47 -9q39 0 76 55l58 87l-95 486h56l81 -422l269 422h61l-381 -589q-57 -90 -135 -90q-30 0 -57 10zM498 700l-204 -144h-45l186 144h63z" />
    <glyph glyph-name="thorn" unicode="&#xfe;" horiz-adv-x="567" 
d="M271 -12q-58 0 -103 25.5t-71 68.5l-59 -266h-52l188 851h52l-56 -257q65 85 166 85q84 0 136 -53t52 -145q0 -126 -71 -217.5t-182 -91.5zM266 35q88 0 144.5 76t56.5 176q0 74 -40 117.5t-106 43.5q-49 0 -93 -26.5t-71 -66.5l-51 -232q19 -38 61.5 -63t98.5 -25z" />
    <glyph glyph-name="ydieresis" unicode="&#xff;" horiz-adv-x="481" 
d="M-46 -186l20 50q18 -9 47 -9q39 0 76 55l58 87l-95 486h56l81 -422l269 422h61l-381 -589q-57 -90 -135 -90q-30 0 -57 10zM459 605q0 -17 -12.5 -29t-28.5 -12q-14 0 -24 9.5t-10 23.5q0 16 12.5 28.5t29.5 12.5q14 0 23.5 -9.5t9.5 -23.5zM255 605q0 -17 -12.5 -29
t-29.5 -12q-14 0 -23.5 9.5t-9.5 23.5q0 16 12.5 28.5t29.5 12.5q14 0 23.5 -9.5t9.5 -23.5z" />
    <glyph glyph-name="Amacron" unicode="&#x100;" horiz-adv-x="647" 
d="M578 0h-63l-30 164h-353l-102 -164h-69l420 667h71zM478 216l-72 390l-244 -390h316zM615 749h-362l8 38h362z" />
    <glyph glyph-name="amacron" unicode="&#x101;" horiz-adv-x="571" 
d="M299 495q57 0 102.5 -25.5t71.5 -68.5l17 82h53l-107 -483h-53l17 73q-67 -85 -166 -85q-85 0 -137 53t-52 145q0 126 71 217.5t183 91.5zM303 448q-87 0 -144 -76t-57 -176q0 -74 40 -117.5t106 -43.5q49 0 93.5 26.5t70.5 66.5l51 232q-19 38 -61.5 63t-98.5 25z
M525 579h-362l8 38h362z" />
    <glyph glyph-name="Abreve" unicode="&#x102;" horiz-adv-x="647" 
d="M578 0h-63l-30 164h-353l-102 -164h-69l420 667h71zM478 216l-72 390l-244 -390h316zM624 813q-85 -88 -194 -88q-53 0 -94 23.5t-63 64.5l33 25q38 -75 130 -75q93 0 163 75z" />
    <glyph glyph-name="abreve" unicode="&#x103;" horiz-adv-x="571" 
d="M299 495q57 0 102.5 -25.5t71.5 -68.5l17 82h53l-107 -483h-53l17 73q-67 -85 -166 -85q-85 0 -137 53t-52 145q0 126 71 217.5t183 91.5zM303 448q-87 0 -144 -76t-57 -176q0 -74 40 -117.5t106 -43.5q49 0 93.5 26.5t70.5 66.5l51 232q-19 38 -61.5 63t-98.5 25z
M537 654q-85 -88 -194 -88q-53 0 -94 23.5t-63 64.5l33 25q37 -75 130 -75t163 75z" />
    <glyph glyph-name="Aogonek" unicode="&#x104;" horiz-adv-x="647" 
d="M579 -110l26 -18q-36 -58 -90 -58q-34 0 -55.5 18.5t-21.5 51.5q0 68 77 116l-30 164h-353l-102 -164h-69l420 667h71l126 -667q-104 -45 -104 -110q0 -43 46 -43q35 0 59 43zM478 216l-72 390l-244 -390h316z" />
    <glyph glyph-name="aogonek" unicode="&#x105;" horiz-adv-x="571" 
d="M437 -110l26 -18q-36 -58 -90 -58q-34 0 -55.5 18.5t-21.5 51.5q0 75 88 123l16 66q-67 -85 -166 -85q-85 0 -137 53t-52 145q0 126 71 217.5t183 91.5q57 0 102.5 -25.5t71.5 -68.5l17 82h53l-107 -483q-104 -45 -104 -110q0 -43 46 -43q35 0 59 43zM303 448
q-87 0 -144 -76t-57 -176q0 -74 40 -117.5t106 -43.5q49 0 93.5 26.5t70.5 66.5l51 232q-19 38 -61.5 63t-98.5 25z" />
    <glyph glyph-name="Cacute" unicode="&#x106;" horiz-adv-x="671" 
d="M367 -12q-132 0 -216 79.5t-84 209.5q0 88 31.5 164.5t83.5 127.5t118.5 80t136.5 29q88 0 156 -37t106 -106l-55 -25q-64 116 -211 116q-120 0 -212 -97t-92 -250q0 -108 65.5 -173.5t175.5 -65.5q101 0 189 76l40 -34q-97 -94 -232 -94zM691 872l-204 -144h-45l186 144
h63z" />
    <glyph glyph-name="cacute" unicode="&#x107;" horiz-adv-x="494" 
d="M261 -12q-96 0 -155.5 57t-59.5 157q0 120 78 206.5t190 86.5q121 0 173 -88l-40 -30q-41 71 -131 71q-96 0 -155.5 -73.5t-59.5 -173.5q0 -80 46 -123t119 -43q79 0 131 62l30 -36q-71 -73 -166 -73zM548 700l-204 -144h-45l186 144h63z" />
    <glyph glyph-name="Ccircumflex" unicode="&#x108;" horiz-adv-x="671" 
d="M367 -12q-132 0 -216 79.5t-84 209.5q0 88 31.5 164.5t83.5 127.5t118.5 80t136.5 29q88 0 156 -37t106 -106l-55 -25q-64 116 -211 116q-120 0 -212 -97t-92 -250q0 -108 65.5 -173.5t175.5 -65.5q101 0 189 76l40 -34q-97 -94 -232 -94zM628 728h-38l-62 113l-108 -113
h-42l129 144h54z" />
    <glyph glyph-name="ccircumflex" unicode="&#x109;" horiz-adv-x="494" 
d="M261 -12q-96 0 -155.5 57t-59.5 157q0 120 78 206.5t190 86.5q121 0 173 -88l-40 -30q-41 71 -131 71q-96 0 -155.5 -73.5t-59.5 -173.5q0 -80 46 -123t119 -43q79 0 131 62l30 -36q-71 -73 -166 -73zM485 556h-38l-62 113l-108 -113h-42l129 144h54z" />
    <glyph glyph-name="Cdotaccent" unicode="&#x10a;" horiz-adv-x="671" 
d="M367 -12q-132 0 -216 79.5t-84 209.5q0 88 31.5 164.5t83.5 127.5t118.5 80t136.5 29q88 0 156 -37t106 -106l-55 -25q-64 116 -211 116q-120 0 -212 -97t-92 -250q0 -108 65.5 -173.5t175.5 -65.5q101 0 189 76l40 -34q-97 -94 -232 -94zM553 774q0 -17 -13 -29.5
t-30 -12.5q-14 0 -24 9.5t-10 24.5q0 17 13 29.5t30 12.5q14 0 24 -10t10 -24z" />
    <glyph glyph-name="cdotaccent" unicode="&#x10b;" horiz-adv-x="494" 
d="M261 -12q-96 0 -155.5 57t-59.5 157q0 120 78 206.5t190 86.5q121 0 173 -88l-40 -30q-41 71 -131 71q-96 0 -155.5 -73.5t-59.5 -173.5q0 -80 46 -123t119 -43q79 0 131 62l30 -36q-71 -73 -166 -73zM412 624q0 -17 -13 -29.5t-30 -12.5q-14 0 -24 9.5t-10 24.5
q0 17 13 29.5t30 12.5q14 0 24 -10t10 -24z" />
    <glyph glyph-name="Ccaron" unicode="&#x10c;" horiz-adv-x="671" 
d="M367 -12q-132 0 -216 79.5t-84 209.5q0 88 31.5 164.5t83.5 127.5t118.5 80t136.5 29q88 0 156 -37t106 -106l-55 -25q-64 116 -211 116q-120 0 -212 -97t-92 -250q0 -108 65.5 -173.5t175.5 -65.5q101 0 189 76l40 -34q-97 -94 -232 -94zM532 728h-54l-68 144h38
l61 -113l109 113h42z" />
    <glyph glyph-name="ccaron" unicode="&#x10d;" horiz-adv-x="494" 
d="M261 -12q-96 0 -155.5 57t-59.5 157q0 120 78 206.5t190 86.5q121 0 173 -88l-40 -30q-41 71 -131 71q-96 0 -155.5 -73.5t-59.5 -173.5q0 -80 46 -123t119 -43q79 0 131 62l30 -36q-71 -73 -166 -73zM389 556h-54l-68 144h38l61 -113l109 113h42z" />
    <glyph glyph-name="Dcaron" unicode="&#x10e;" horiz-adv-x="692" 
d="M241 0h-212l147 667h208q113 0 192 -81t79 -203q0 -56 -16 -110.5t-50 -104t-81.5 -87t-116.5 -59.5t-150 -22zM253 52h-2q154 0 249 96t95 233q0 101 -63.5 167.5t-158.5 66.5h-151l-125 -563h156zM482 728h-54l-68 144h38l61 -113l109 113h42z" />
    <glyph glyph-name="dcaron" unicode="&#x10f;" horiz-adv-x="625" 
d="M299 495q57 0 102.5 -25.5t71.5 -68.5l58 266h53l-148 -667h-53l17 73q-67 -85 -166 -85q-85 0 -137 53t-52 145q0 126 71 217.5t183 91.5zM303 448q-87 0 -144 -76t-57 -176q0 -74 40 -117.5t106 -43.5q49 0 93.5 26.5t70.5 66.5l51 232q-19 38 -61.5 63t-98.5 25z
M710 636q0 -38 -28.5 -77.5t-67.5 -59.5l-22 24q27 14 47.5 36.5t26.5 44.5h-7q-12 0 -21.5 10t-9.5 23q0 18 13 30.5t30 12.5t28 -11.5t11 -32.5z" />
    <glyph glyph-name="Dcroat" unicode="&#x110;" horiz-adv-x="721" 
d="M270 0h-212l68 309h-101l11 50h101l68 308h208q113 0 192 -81t79 -203q0 -56 -16 -110.5t-50 -104t-81.5 -87t-116.5 -59.5t-150 -22zM362 309h-179l-57 -257h154q154 0 249 96t95 233q0 101 -63.5 167.5t-158.5 66.5h-151l-57 -256h179z" />
    <glyph glyph-name="dcroat" unicode="&#x111;" horiz-adv-x="574" 
d="M299 495q57 0 102.5 -25.5t71.5 -68.5l30 137h-177l6 38h179l20 91h53l-20 -91h53l-6 -38h-56l-119 -538h-53l17 73q-67 -85 -166 -85q-85 0 -137 53t-52 145q0 126 71 217.5t183 91.5zM303 448q-87 0 -144 -76t-57 -176q0 -74 40 -117.5t106 -43.5q49 0 93.5 26.5
t70.5 66.5l51 232q-19 38 -61.5 63t-98.5 25z" />
    <glyph glyph-name="Emacron" unicode="&#x112;" horiz-adv-x="564" 
d="M452 0h-423l147 667h423l-11 -52h-366l-54 -247h358l-12 -52h-358l-59 -264h366zM584 749h-362l8 38h362z" />
    <glyph glyph-name="emacron" unicode="&#x113;" horiz-adv-x="567" 
d="M276 -12q-107 0 -168.5 58.5t-61.5 154.5q0 121 78 207.5t190 86.5q94 0 149.5 -59t55.5 -150q0 -29 -8 -61h-408q-2 -12 -2 -28q0 -71 46 -117.5t131 -46.5q84 0 146 52l20 -38q-77 -59 -168 -59zM465 266h3q1 5 1 22q0 72 -42.5 117t-118.5 45q-72 0 -129.5 -54.5
t-70.5 -129.5h357zM539 579h-362l8 38h362z" />
    <glyph glyph-name="Ebreve" unicode="&#x114;" horiz-adv-x="564" 
d="M452 0h-423l147 667h423l-11 -52h-366l-54 -247h358l-12 -52h-358l-59 -264h366zM592 813q-85 -88 -194 -88q-53 0 -94 23.5t-63 64.5l33 25q38 -75 130 -75q93 0 163 75z" />
    <glyph glyph-name="ebreve" unicode="&#x115;" horiz-adv-x="567" 
d="M276 -12q-107 0 -168.5 58.5t-61.5 154.5q0 121 78 207.5t190 86.5q94 0 149.5 -59t55.5 -150q0 -29 -8 -61h-408q-2 -12 -2 -28q0 -71 46 -117.5t131 -46.5q84 0 146 52l20 -38q-77 -59 -168 -59zM465 266h3q1 5 1 22q0 72 -42.5 117t-118.5 45q-72 0 -129.5 -54.5
t-70.5 -129.5h357zM554 654q-85 -88 -194 -88q-53 0 -94 23.5t-63 64.5l33 25q38 -75 130 -75q93 0 163 75z" />
    <glyph glyph-name="Edotaccent" unicode="&#x116;" horiz-adv-x="564" 
d="M452 0h-423l147 667h423l-11 -52h-366l-54 -247h358l-12 -52h-358l-59 -264h366zM455 774q0 -17 -13 -29.5t-30 -12.5q-14 0 -24 9.5t-10 24.5q0 17 13 29.5t30 12.5q14 0 24 -10t10 -24z" />
    <glyph glyph-name="edotaccent" unicode="&#x117;" horiz-adv-x="567" 
d="M276 -12q-107 0 -168.5 58.5t-61.5 154.5q0 121 78 207.5t190 86.5q94 0 149.5 -59t55.5 -150q0 -29 -8 -61h-408q-2 -12 -2 -28q0 -71 46 -117.5t131 -46.5q84 0 146 52l20 -38q-77 -59 -168 -59zM465 266h3q1 5 1 22q0 72 -42.5 117t-118.5 45q-72 0 -129.5 -54.5
t-70.5 -129.5h357zM409 624q0 -17 -13 -29.5t-30 -12.5q-14 0 -24 9.5t-10 24.5q0 17 13 29.5t30 12.5q14 0 24 -10t10 -24z" />
    <glyph glyph-name="Eogonek" unicode="&#x118;" horiz-adv-x="564" 
d="M452 -110l26 -18q-36 -58 -90 -58q-34 0 -55.5 18.5t-21.5 51.5q0 68 76 116h-358l147 667h423l-11 -52h-366l-54 -247h358l-12 -52h-358l-59 -264h366l-11 -52h-1q-104 -45 -104 -110q0 -43 46 -43q35 0 59 43z" />
    <glyph glyph-name="eogonek" unicode="&#x119;" horiz-adv-x="567" 
d="M354 -110l26 -18q-36 -58 -90 -58q-34 0 -55.5 18.5t-21.5 51.5q0 60 58 104q-105 1 -165 59.5t-60 153.5q0 121 78 207.5t190 86.5q94 0 149.5 -59t55.5 -150q0 -29 -8 -61h-408q-2 -12 -2 -28q0 -71 46 -117.5t131 -46.5q84 0 146 52l20 -38q-40 -32 -91 -47
q-104 -45 -104 -110q0 -43 46 -43q35 0 59 43zM468 266q1 5 1 22q0 72 -42.5 117t-118.5 45q-72 0 -129.5 -54.5t-70.5 -129.5h360z" />
    <glyph glyph-name="Ecaron" unicode="&#x11a;" horiz-adv-x="564" 
d="M452 0h-423l147 667h423l-11 -52h-366l-54 -247h358l-12 -52h-358l-59 -264h366zM432 728h-54l-68 144h38l61 -113l109 113h42z" />
    <glyph glyph-name="ecaron" unicode="&#x11b;" horiz-adv-x="567" 
d="M276 -12q-107 0 -168.5 58.5t-61.5 154.5q0 121 78 207.5t190 86.5q94 0 149.5 -59t55.5 -150q0 -29 -8 -61h-408q-2 -12 -2 -28q0 -71 46 -117.5t131 -46.5q84 0 146 52l20 -38q-77 -59 -168 -59zM465 266h3q1 5 1 22q0 72 -42.5 117t-118.5 45q-72 0 -129.5 -54.5
t-70.5 -129.5h357zM385 556h-54l-68 144h38l61 -113l109 113h42z" />
    <glyph glyph-name="Gcircumflex" unicode="&#x11c;" horiz-adv-x="711" 
d="M367 -12q-136 0 -218 81t-82 208q0 172 109.5 286.5t263.5 114.5q87 0 153 -36.5t104 -100.5l-51 -26q-30 54 -86.5 82.5t-126.5 28.5q-121 0 -212.5 -99.5t-91.5 -247.5q0 -109 66 -174t175 -65q108 0 194 80l35 160h-252l11 52h310l-53 -239q-108 -105 -248 -105z
M633 728h-38l-62 113l-108 -113h-42l129 144h54z" />
    <glyph glyph-name="gcircumflex" unicode="&#x11d;" horiz-adv-x="570" 
d="M212 -196q-72 0 -122.5 18t-85.5 64l37 39q48 -74 171 -74q63 0 109.5 37t62.5 116l15 73q-66 -85 -171 -85q-81 0 -132 51.5t-51 149.5q0 122 70 212t181 90q51 0 99.5 -26.5t75.5 -67.5l19 82h53l-107 -479q-45 -200 -224 -200zM247 39q44 0 89 24.5t74 61.5l53 234
q-22 40 -67.5 64.5t-97.5 24.5q-87 0 -142 -76t-55 -172q0 -75 39.5 -118t106.5 -43zM482 550h-38l-62 113l-108 -113h-42l129 144h54z" />
    <glyph glyph-name="Gbreve" unicode="&#x11e;" horiz-adv-x="711" 
d="M367 -12q-136 0 -218 81t-82 208q0 172 109.5 286.5t263.5 114.5q87 0 153 -36.5t104 -100.5l-51 -26q-30 54 -86.5 82.5t-126.5 28.5q-121 0 -212.5 -99.5t-91.5 -247.5q0 -109 66 -174t175 -65q108 0 194 80l35 160h-252l11 52h310l-53 -239q-108 -105 -248 -105z
M699 813q-85 -88 -194 -88q-53 0 -94 23.5t-63 64.5l33 25q37 -75 130 -75t163 75z" />
    <glyph glyph-name="gbreve" unicode="&#x11f;" horiz-adv-x="570" 
d="M212 -196q-72 0 -122.5 18t-85.5 64l37 39q48 -74 171 -74q63 0 109.5 37t62.5 116l15 73q-66 -85 -171 -85q-81 0 -132 51.5t-51 149.5q0 122 70 212t181 90q51 0 99.5 -26.5t75.5 -67.5l19 82h53l-107 -479q-45 -200 -224 -200zM247 39q44 0 89 24.5t74 61.5l53 234
q-22 40 -67.5 64.5t-97.5 24.5q-87 0 -142 -76t-55 -172q0 -75 39.5 -118t106.5 -43zM550 654q-85 -88 -194 -88q-53 0 -94 23.5t-63 64.5l33 25q38 -75 130 -75q93 0 163 75z" />
    <glyph glyph-name="Gdotaccent" unicode="&#x120;" horiz-adv-x="711" 
d="M367 -12q-136 0 -218 81t-82 208q0 172 109.5 286.5t263.5 114.5q87 0 153 -36.5t104 -100.5l-51 -26q-30 54 -86.5 82.5t-126.5 28.5q-121 0 -212.5 -99.5t-91.5 -247.5q0 -109 66 -174t175 -65q108 0 194 80l35 160h-252l11 52h310l-53 -239q-108 -105 -248 -105z
M553 774q0 -17 -13 -29.5t-30 -12.5q-14 0 -24 9.5t-10 24.5q0 17 13 29.5t30 12.5q14 0 24 -10t10 -24z" />
    <glyph glyph-name="gdotaccent" unicode="&#x121;" horiz-adv-x="570" 
d="M212 -196q-72 0 -122.5 18t-85.5 64l37 39q48 -74 171 -74q63 0 109.5 37t62.5 116l15 73q-66 -85 -171 -85q-81 0 -132 51.5t-51 149.5q0 122 70 212t181 90q51 0 99.5 -26.5t75.5 -67.5l19 82h53l-107 -479q-45 -200 -224 -200zM247 39q44 0 89 24.5t74 61.5l53 234
q-22 40 -67.5 64.5t-97.5 24.5q-87 0 -142 -76t-55 -172q0 -75 39.5 -118t106.5 -43zM406 624q0 -17 -13 -29.5t-30 -12.5q-14 0 -24 9.5t-10 24.5q0 17 13 29.5t30 12.5q14 0 24 -10t10 -24z" />
    <glyph glyph-name="Gcommaaccent" unicode="&#x122;" horiz-adv-x="711" 
d="M367 -12q-136 0 -218 81t-82 208q0 172 109.5 286.5t263.5 114.5q87 0 153 -36.5t104 -100.5l-51 -26q-30 54 -86.5 82.5t-126.5 28.5q-121 0 -212.5 -99.5t-91.5 -247.5q0 -109 66 -174t175 -65q108 0 194 80l35 160h-252l11 52h310l-53 -239q-108 -105 -248 -105z
M359 -122q0 -38 -28.5 -77.5t-67.5 -59.5l-22 24q27 14 47.5 36.5t26.5 44.5h-7q-12 0 -21.5 10t-9.5 23q0 18 13 30.5t30 12.5t28 -11.5t11 -32.5z" />
    <glyph glyph-name="gcommaaccent" unicode="&#x123;" horiz-adv-x="570" 
d="M317 606q0 39 28.5 78t67.5 60l22 -24q-27 -15 -47.5 -37t-26.5 -44h7q12 0 21.5 -10t9.5 -24q0 -18 -13 -30.5t-30 -12.5t-28 11.5t-11 32.5zM212 -196q-72 0 -122.5 18t-85.5 64l37 39q48 -74 171 -74q63 0 109.5 37t62.5 116l15 73q-66 -85 -171 -85q-81 0 -132 51.5
t-51 149.5q0 122 70 212t181 90q51 0 99.5 -26.5t75.5 -67.5l19 82h53l-107 -479q-45 -200 -224 -200zM247 39q44 0 89 24.5t74 61.5l53 234q-22 40 -67.5 64.5t-97.5 24.5q-87 0 -142 -76t-55 -172q0 -75 39.5 -118t106.5 -43z" />
    <glyph glyph-name="Hcircumflex" unicode="&#x124;" horiz-adv-x="703" 
d="M567 0h-58l70 317h-423l-70 -317h-57l147 667h57l-65 -298h422l66 298h58zM581 728h-38l-62 113l-108 -113h-42l129 144h54z" />
    <glyph glyph-name="hcircumflex" unicode="&#x125;" horiz-adv-x="540" 
d="M405 0h-52l72 328q6 27 6 35q0 43 -29.5 64t-78.5 21q-82 0 -163 -85l-81 -363h-52l147 667h52l-56 -257q87 85 174 85q64 0 102.5 -30.5t38.5 -87.5q0 -19 -6 -41zM341 728h-38l-62 113l-108 -113h-42l129 144h54z" />
    <glyph glyph-name="Hbar" unicode="&#x126;" horiz-adv-x="724" 
d="M578 0h-58l70 317h-423l-70 -317h-57l110 501h-82l9 38h82l28 128h57l-28 -128h422l29 128h58l-28 -128h79l-8 -38h-80zM179 369h422l29 132h-422z" />
    <glyph glyph-name="hbar" unicode="&#x127;" horiz-adv-x="542" 
d="M407 0h-52l72 328q6 27 6 35q0 43 -29.5 64t-78.5 21q-82 0 -163 -85l-81 -363h-52l118 538h-71l8 38h72l20 91h52l-20 -91h162l-9 -38h-161l-28 -128q87 85 174 85q64 0 102.5 -30.5t38.5 -87.5q0 -19 -6 -41z" />
    <glyph glyph-name="Itilde" unicode="&#x128;" horiz-adv-x="223" 
d="M86 0h-57l147 667h57zM288 726q-25 0 -41.5 16t-23 35t-20 35t-32.5 16q-46 0 -69 -96h-36q12 60 40.5 97t71.5 37q25 0 41.5 -16t23.5 -35t20 -35t32 -16q46 0 70 96h36q-13 -60 -41.5 -97t-71.5 -37z" />
    <glyph glyph-name="itilde" unicode="&#x129;" horiz-adv-x="214" 
d="M79 0h-52l107 483h52zM245 542q-25 0 -41.5 16t-23 35t-19.5 35t-33 16q-46 0 -69 -96h-36q12 60 40.5 97t71.5 37q25 0 41.5 -16t23.5 -35t20 -35t32 -16q46 0 70 96h36q-13 -60 -41.5 -97t-71.5 -37z" />
    <glyph glyph-name="Imacron" unicode="&#x12a;" horiz-adv-x="223" 
d="M86 0h-57l147 667h57zM405 749h-362l8 38h362z" />
    <glyph glyph-name="imacron" unicode="&#x12b;" horiz-adv-x="214" 
d="M79 0h-52l107 483h52zM363 579h-362l8 38h362z" />
    <glyph glyph-name="Ibreve" unicode="&#x12c;" horiz-adv-x="223" 
d="M86 0h-57l147 667h57zM413 813q-85 -88 -194 -88q-53 0 -94 23.5t-63 64.5l33 25q37 -75 130 -75t163 75z" />
    <glyph glyph-name="ibreve" unicode="&#x12d;" horiz-adv-x="214" 
d="M79 0h-52l107 483h52zM375 654q-85 -88 -194 -88q-53 0 -94 23.5t-63 64.5l33 25q37 -75 130 -75t163 75z" />
    <glyph glyph-name="Iogonek" unicode="&#x12e;" horiz-adv-x="223" 
d="M87 -110l26 -18q-36 -58 -90 -58q-34 0 -55.5 18.5t-21.5 51.5q0 74 84 120l146 663h57l-147 -667q-104 -45 -104 -110q0 -43 46 -43q35 0 59 43z" />
    <glyph glyph-name="iogonek" unicode="&#x12f;" horiz-adv-x="214" 
d="M80 -110l26 -18q-36 -58 -90 -58q-34 0 -55.5 18.5t-21.5 51.5q0 74 89 123l106 476h52l-107 -483q-104 -45 -104 -110q0 -43 46 -43q35 0 59 43zM180 559q-15 0 -25.5 10.5t-10.5 24.5q0 19 14.5 31.5t30.5 12.5t26.5 -10.5t10.5 -24.5q0 -19 -14.5 -31.5t-31.5 -12.5z
" />
    <glyph glyph-name="Idotaccent" unicode="&#x130;" horiz-adv-x="223" 
d="M86 0h-57l147 667h57zM267 774q0 -17 -13 -29.5t-30 -12.5q-14 0 -24 9.5t-10 24.5q0 17 13 29.5t30 12.5q14 0 24 -10t10 -24z" />
    <glyph glyph-name="dotlessi" unicode="&#x131;" horiz-adv-x="214" 
d="M79 0h-52l107 483h52z" />
    <glyph glyph-name="IJ" unicode="&#x132;" horiz-adv-x="693" 
d="M86 0h-57l147 667h57zM379 -12q-58 0 -104.5 22.5t-70.5 65.5l39 40q40 -76 133 -76q66 0 107.5 41t57.5 112l105 474h57l-104 -474q-46 -205 -220 -205z" />
    <glyph glyph-name="ij" unicode="&#x133;" horiz-adv-x="427" 
d="M180 559q-15 0 -25.5 10.5t-10.5 24.5q0 19 14.5 31.5t30.5 12.5t26.5 -10.5t10.5 -24.5q0 -19 -14.5 -31.5t-31.5 -12.5zM79 0h-52l107 483h52zM140 -196q-73 0 -107 43l31 40q27 -36 70 -36q73 0 93 88l121 544h52l-121 -544q-15 -69 -48.5 -102t-90.5 -33zM394 559
q-15 0 -25.5 10.5t-10.5 24.5q0 19 14.5 31.5t30.5 12.5t26.5 -10.5t10.5 -24.5q0 -19 -14.5 -31.5t-31.5 -12.5z" />
    <glyph glyph-name="Jcircumflex" unicode="&#x134;" horiz-adv-x="470" 
d="M156 -12q-58 0 -104.5 22.5t-70.5 65.5l39 40q40 -76 133 -76q66 0 107.5 41t57.5 112l105 474h57l-104 -474q-46 -205 -220 -205zM591 728h-38l-62 113l-108 -113h-42l129 144h54z" />
    <glyph glyph-name="jcircumflex" unicode="&#x135;" horiz-adv-x="214" 
d="M-74 -196q-73 0 -107 43l31 40q27 -36 70 -36q73 0 93 88l121 544h52l-121 -544q-15 -69 -48.5 -102t-90.5 -33zM303 556h-38l-62 113l-108 -113h-42l129 144h54z" />
    <glyph glyph-name="Kcommaaccent" unicode="&#x136;" horiz-adv-x="589" 
d="M508 0h-68l-208 317l-94 -84l-52 -233h-57l147 667h57l-79 -358l397 358h77l-354 -318zM260 -122q0 -38 -28.5 -77.5t-67.5 -59.5l-22 24q27 14 47.5 36.5t26.5 44.5h-7q-12 0 -21.5 10t-9.5 23q0 18 13 30.5t30 12.5t28 -11.5t11 -32.5z" />
    <glyph glyph-name="kcommaaccent" unicode="&#x137;" horiz-adv-x="505" 
d="M432 0h-64l-145 233l-112 -88l-32 -145h-52l147 667h52l-101 -456l342 272h73l-274 -218zM219 -122q0 -38 -28.5 -77.5t-67.5 -59.5l-22 24q27 14 47.5 36.5t26.5 44.5h-7q-12 0 -21.5 10t-9.5 23q0 18 13 30.5t30 12.5t28 -11.5t11 -32.5z" />
    <glyph glyph-name="kgreenlandic" unicode="&#x138;" horiz-adv-x="505" 
d="M432 0h-64l-145 233l-112 -88l-32 -145h-52l107 483h52l-61 -272l342 272h73l-274 -218z" />
    <glyph glyph-name="Lacute" unicode="&#x139;" horiz-adv-x="484" 
d="M396 0h-381l147 667h58l-136 -615h322zM517 872l-204 -144h-45l186 144h63z" />
    <glyph glyph-name="lacute" unicode="&#x13a;" horiz-adv-x="214" 
d="M79 0h-52l147 667h52zM402 872l-204 -144h-45l186 144h63z" />
    <glyph glyph-name="Lcommaaccent" unicode="&#x13b;" horiz-adv-x="484" 
d="M396 0h-381l147 667h58l-136 -615h322zM207 -122q0 -38 -28.5 -77.5t-67.5 -59.5l-22 24q27 14 47.5 36.5t26.5 44.5h-7q-12 0 -21.5 10t-9.5 23q0 18 13 30.5t30 12.5t28 -11.5t11 -32.5z" />
    <glyph glyph-name="lcommaaccent" unicode="&#x13c;" horiz-adv-x="214" 
d="M79 0h-52l147 667h52zM73 -122q0 -38 -28.5 -77.5t-67.5 -59.5l-22 24q27 14 47.5 36.5t26.5 44.5h-7q-12 0 -21.5 10t-9.5 23q0 18 13 30.5t30 12.5t28 -11.5t11 -32.5z" />
    <glyph glyph-name="Lcaron" unicode="&#x13d;" horiz-adv-x="484" 
d="M396 0h-381l147 667h58l-136 -615h322zM395 635q0 -38 -28.5 -77.5t-67.5 -59.5l-22 24q27 14 47.5 36.5t26.5 44.5h-7q-12 0 -21.5 10t-9.5 23q0 18 13 30.5t30 12.5t28 -11.5t11 -32.5z" />
    <glyph glyph-name="lcaron" unicode="&#x13e;" horiz-adv-x="264" 
d="M79 0h-52l147 667h52zM367 635q0 -38 -28.5 -77.5t-67.5 -59.5l-22 24q27 14 47.5 36.5t26.5 44.5h-7q-12 0 -21.5 10t-9.5 23q0 18 13 30.5t30 12.5t28 -11.5t11 -32.5z" />
    <glyph glyph-name="Ldot" unicode="&#x13f;" horiz-adv-x="494" 
d="M396 0h-381l147 667h58l-136 -615h322zM367 298q-17 0 -29 11.5t-12 28.5q0 20 14.5 33.5t34.5 13.5q17 0 28.5 -11.5t11.5 -28.5q0 -19 -14 -33t-34 -14z" />
    <glyph glyph-name="ldot" unicode="&#x140;" horiz-adv-x="273" 
d="M79 0h-52l147 667h52zM240 201q-17 0 -29 11.5t-12 28.5q0 20 14.5 33.5t34.5 13.5q17 0 28.5 -11.5t11.5 -28.5q0 -19 -14 -33t-34 -14z" />
    <glyph glyph-name="Lslash" unicode="&#x141;" horiz-adv-x="520" 
d="M9 234l12 52l104 54l72 327h58l-65 -294l119 62l-11 -53l-120 -61l-59 -269h322l-10 -52h-381l63 287z" />
    <glyph glyph-name="lslash" unicode="&#x142;" horiz-adv-x="277" 
d="M9 238l11 46l114 58l72 325h52l-65 -295l114 58l-10 -46l-114 -58l-72 -326h-52l65 296z" />
    <glyph glyph-name="Nacute" unicode="&#x143;" horiz-adv-x="699" 
d="M562 0h-56l-292 578l-128 -578h-57l147 667h58l291 -570l127 570h57zM644 872l-204 -144h-45l186 144h63z" />
    <glyph glyph-name="nacute" unicode="&#x144;" horiz-adv-x="540" 
d="M407 0h-52l72 328q6 27 6 35q0 43 -29.5 64t-78.5 21q-83 0 -163 -84l-81 -364h-52l107 483h52l-16 -73q87 85 174 85q64 0 102.5 -30.5t38.5 -87.5q0 -19 -6 -41zM526 700l-204 -144h-45l186 144h63z" />
    <glyph glyph-name="Ncommaaccent" unicode="&#x145;" horiz-adv-x="699" 
d="M562 0h-56l-292 578l-128 -578h-57l147 667h58l291 -570l127 570h57zM316 -122q0 -38 -28.5 -77.5t-67.5 -59.5l-22 24q27 14 47.5 36.5t26.5 44.5h-7q-12 0 -21.5 10t-9.5 23q0 18 13 30.5t30 12.5t28 -11.5t11 -32.5z" />
    <glyph glyph-name="ncommaaccent" unicode="&#x146;" horiz-adv-x="540" 
d="M407 0h-52l72 328q6 27 6 35q0 43 -29.5 64t-78.5 21q-83 0 -163 -84l-81 -364h-52l107 483h52l-16 -73q87 85 174 85q64 0 102.5 -30.5t38.5 -87.5q0 -19 -6 -41zM236 -122q0 -38 -28.5 -77.5t-67.5 -59.5l-22 24q27 14 47.5 36.5t26.5 44.5h-7q-12 0 -21.5 10t-9.5 23
q0 18 13 30.5t30 12.5t28 -11.5t11 -32.5z" />
    <glyph glyph-name="Ncaron" unicode="&#x147;" horiz-adv-x="699" 
d="M562 0h-56l-292 578l-128 -578h-57l147 667h58l291 -570l127 570h57zM485 728h-54l-68 144h38l61 -113l109 113h42z" />
    <glyph glyph-name="ncaron" unicode="&#x148;" horiz-adv-x="540" 
d="M407 0h-52l72 328q6 27 6 35q0 43 -29.5 64t-78.5 21q-83 0 -163 -84l-81 -364h-52l107 483h52l-16 -73q87 85 174 85q64 0 102.5 -30.5t38.5 -87.5q0 -19 -6 -41zM368 556h-54l-68 144h38l61 -113l109 113h42z" />
    <glyph glyph-name="napostrophe" unicode="&#x149;" horiz-adv-x="540" 
d="M407 0h-52l72 328q6 27 6 35q0 43 -29.5 64t-78.5 21q-83 0 -163 -84l-81 -364h-52l107 483h52l-16 -73q87 85 174 85q64 0 102.5 -30.5t38.5 -87.5q0 -19 -6 -41zM249 690q0 -38 -28.5 -77.5t-67.5 -59.5l-22 24q27 14 47.5 36.5t26.5 44.5h-7q-12 0 -21.5 10t-9.5 23
q0 18 13 30.5t30 12.5t28 -11.5t11 -32.5z" />
    <glyph glyph-name="Eng" unicode="&#x14a;" horiz-adv-x="699" 
d="M344 -196q-124 0 -175 88l38 37q38 -76 134 -76q126 0 164 149l-291 576l-128 -578h-57l147 667h58l291 -570l127 570h57l-146 -662q-45 -201 -219 -201z" />
    <glyph glyph-name="eng" unicode="&#x14b;" horiz-adv-x="540" 
d="M252 -196q-72 0 -107 43l31 40q27 -36 70 -36q73 0 93 88l86 389q6 26 6 36q0 43 -30 63.5t-78 20.5q-83 0 -163 -84l-81 -364h-52l107 483h52l-16 -73q87 85 174 85q62 0 101.5 -29.5t39.5 -88.5q0 -11 -6 -41l-88 -397q-30 -135 -139 -135z" />
    <glyph glyph-name="Omacron" unicode="&#x14c;" horiz-adv-x="764" 
d="M367 -12q-129 0 -214.5 77t-85.5 212q0 168 108.5 284.5t261.5 116.5q129 0 214 -77t85 -212q0 -168 -108 -284.5t-261 -116.5zM370 40q124 0 214 99.5t90 247.5q0 113 -69 176t-173 63q-124 0 -213.5 -99t-89.5 -248q0 -113 68.5 -176t172.5 -63zM674 749h-362l8 38h362
z" />
    <glyph glyph-name="omacron" unicode="&#x14d;" horiz-adv-x="571" 
d="M258 -12q-97 0 -155 58t-58 154q0 118 77 206.5t189 88.5q97 0 155 -58t58 -154q0 -118 -77 -206.5t-189 -88.5zM259 35q88 0 148 74.5t60 171.5q0 77 -41.5 122t-115.5 45q-88 0 -148 -74.5t-60 -171.5q0 -77 41.5 -122t115.5 -45zM540 579h-362l8 38h362z" />
    <glyph glyph-name="Obreve" unicode="&#x14e;" horiz-adv-x="764" 
d="M367 -12q-129 0 -214.5 77t-85.5 212q0 168 108.5 284.5t261.5 116.5q129 0 214 -77t85 -212q0 -168 -108 -284.5t-261 -116.5zM370 40q124 0 214 99.5t90 247.5q0 113 -69 176t-173 63q-124 0 -213.5 -99t-89.5 -248q0 -113 68.5 -176t172.5 -63zM680 813
q-85 -88 -194 -88q-53 0 -94 23.5t-63 64.5l33 25q38 -75 130 -75q93 0 163 75z" />
    <glyph glyph-name="obreve" unicode="&#x14f;" horiz-adv-x="571" 
d="M258 -12q-97 0 -155 58t-58 154q0 118 77 206.5t189 88.5q97 0 155 -58t58 -154q0 -118 -77 -206.5t-189 -88.5zM259 35q88 0 148 74.5t60 171.5q0 77 -41.5 122t-115.5 45q-88 0 -148 -74.5t-60 -171.5q0 -77 41.5 -122t115.5 -45zM552 654q-85 -88 -194 -88
q-53 0 -94 23.5t-63 64.5l33 25q38 -75 130 -75q93 0 163 75z" />
    <glyph glyph-name="Ohungarumlaut" unicode="&#x150;" horiz-adv-x="764" 
d="M367 -12q-129 0 -214.5 77t-85.5 212q0 168 108.5 284.5t261.5 116.5q129 0 214 -77t85 -212q0 -168 -108 -284.5t-261 -116.5zM370 40q124 0 214 99.5t90 247.5q0 113 -69 176t-173 63q-124 0 -213.5 -99t-89.5 -248q0 -113 68.5 -176t172.5 -63zM569 872l-147 -144h-39
l129 144h57zM708 872l-147 -144h-39l129 144h57z" />
    <glyph glyph-name="ohungarumlaut" unicode="&#x151;" horiz-adv-x="571" 
d="M258 -12q-97 0 -155 58t-58 154q0 118 77 206.5t189 88.5q97 0 155 -58t58 -154q0 -118 -77 -206.5t-189 -88.5zM259 35q88 0 148 74.5t60 171.5q0 77 -41.5 122t-115.5 45q-88 0 -148 -74.5t-60 -171.5q0 -77 41.5 -122t115.5 -45zM434 700l-147 -144h-39l129 144h57z
M573 700l-147 -144h-39l129 144h57z" />
    <glyph glyph-name="OE" unicode="&#x152;" horiz-adv-x="1115" 
d="M1001 0h-423l25 114q-92 -126 -255 -126q-125 0 -203 81t-78 208q0 173 110.5 286.5t264.5 113.5q88 0 154 -41t94 -131l35 162h423l-11 -52h-365l-55 -247h358l-12 -52h-358l-58 -264h365zM621 194l51 231q-13 95 -75.5 147.5t-157.5 52.5q-128 0 -219 -99.5t-91 -246.5
q0 -109 65 -174t170 -65q77 0 146 41t111 113z" />
    <glyph glyph-name="oe" unicode="&#x153;" horiz-adv-x="975" 
d="M920 225h-404q-2 -10 -2 -28q0 -70 46 -117t129 -47q82 0 144 52l21 -38q-74 -59 -167 -59q-90 0 -147 49t-63 102q-17 -29 -31.5 -48.5t-41.5 -46.5t-65 -41.5t-83 -14.5q-95 0 -153 57t-58 155q0 118 76 206.5t188 88.5q86 0 136.5 -50t56.5 -101q88 151 223 151
q90 0 146.5 -56.5t56.5 -152.5q0 -29 -8 -61zM521 266h356q2 12 2 22q0 71 -42 116.5t-117 45.5q-76 0 -132.5 -58.5t-66.5 -125.5zM463 281q0 84 -44.5 125.5t-110.5 41.5q-85 0 -145.5 -73.5t-60.5 -172.5q0 -76 41 -121.5t114 -45.5q86 0 146 73.5t60 172.5z" />
    <glyph glyph-name="Racute" unicode="&#x154;" horiz-adv-x="594" 
d="M489 0h-65l-126 276h-151l-61 -276h-57l147 667h229q72 0 126.5 -46t54.5 -122q0 -94 -62.5 -155.5t-165.5 -64.5zM343 328h2q84 0 131.5 48.5t47.5 119.5q0 51 -38 85t-87 34h-177l-63 -287h184zM592 872l-204 -144h-45l186 144h63z" />
    <glyph glyph-name="racute" unicode="&#x155;" horiz-adv-x="317" 
d="M79 0h-52l107 483h52l-18 -78q40 46 81 67t103 21l-13 -56q-18 3 -35 3q-42 0 -81.5 -26t-65.5 -62zM444 700l-204 -144h-45l186 144h63z" />
    <glyph glyph-name="Rcommaaccent" unicode="&#x156;" horiz-adv-x="594" 
d="M489 0h-65l-126 276h-151l-61 -276h-57l147 667h229q72 0 126.5 -46t54.5 -122q0 -94 -62.5 -155.5t-165.5 -64.5zM343 328h2q84 0 131.5 48.5t47.5 119.5q0 51 -38 85t-87 34h-177l-63 -287h184zM264 -122q0 -38 -28.5 -77.5t-67.5 -59.5l-22 24q27 14 47.5 36.5
t26.5 44.5h-7q-12 0 -21.5 10t-9.5 23q0 18 13 30.5t30 12.5t28 -11.5t11 -32.5z" />
    <glyph glyph-name="rcommaaccent" unicode="&#x157;" horiz-adv-x="317" 
d="M79 0h-52l107 483h52l-18 -78q40 46 81 67t103 21l-13 -56q-18 3 -35 3q-42 0 -81.5 -26t-65.5 -62zM125 -122q0 -38 -28.5 -77.5t-67.5 -59.5l-22 24q27 14 47.5 36.5t26.5 44.5h-7q-12 0 -21.5 10t-9.5 23q0 18 13 30.5t30 12.5t28 -11.5t11 -32.5z" />
    <glyph glyph-name="Rcaron" unicode="&#x158;" horiz-adv-x="594" 
d="M489 0h-65l-126 276h-151l-61 -276h-57l147 667h229q72 0 126.5 -46t54.5 -122q0 -94 -62.5 -155.5t-165.5 -64.5zM343 328h2q84 0 131.5 48.5t47.5 119.5q0 51 -38 85t-87 34h-177l-63 -287h184zM433 728h-54l-68 144h38l61 -113l109 113h42z" />
    <glyph glyph-name="rcaron" unicode="&#x159;" horiz-adv-x="317" 
d="M79 0h-52l107 483h52l-18 -78q40 46 81 67t103 21l-13 -56q-18 3 -35 3q-42 0 -81.5 -26t-65.5 -62zM284 556h-54l-68 144h38l61 -113l109 113h42z" />
    <glyph glyph-name="Sacute" unicode="&#x15a;" horiz-adv-x="581" 
d="M279 -12q-84 0 -153.5 33t-101.5 84l42 41q75 -106 218 -106q82 0 125 44.5t43 100.5q0 40 -34.5 69.5t-83 49.5t-97.5 41.5t-83.5 58.5t-34.5 88q0 76 65.5 131t159.5 55q75 0 137 -28.5t93 -75.5l-43 -40q-30 45 -81.5 68.5t-110.5 23.5q-65 0 -111.5 -38.5
t-46.5 -89.5q0 -37 34.5 -64.5t83.5 -47.5t98 -42t83.5 -60.5t34.5 -91.5q0 -81 -63 -142.5t-173 -61.5zM585 872l-204 -144h-45l186 144h63z" />
    <glyph glyph-name="sacute" unicode="&#x15b;" horiz-adv-x="459" 
d="M202 -12q-133 0 -194 85l37 36q20 -32 62.5 -54.5t95.5 -22.5q58 0 93 29.5t35 70.5q0 28 -26.5 49.5t-64.5 36t-76 30t-64.5 42t-26.5 62.5q0 61 47.5 102t128.5 41q59 0 107 -23t69 -56l-34 -34q-16 29 -57.5 49t-88.5 20q-54 0 -86.5 -24.5t-32.5 -62.5
q0 -27 26.5 -47t64.5 -34t76 -30t64.5 -44t26.5 -66q0 -64 -49 -109.5t-133 -45.5zM487 700l-204 -144h-45l186 144h63z" />
    <glyph glyph-name="Scircumflex" unicode="&#x15c;" horiz-adv-x="581" 
d="M477 728h-38l-62 113l-108 -113h-42l129 144h54zM279 -12q-84 0 -153.5 33t-101.5 84l42 41q75 -106 218 -106q82 0 125 44.5t43 100.5q0 40 -34.5 69.5t-83 49.5t-97.5 41.5t-83.5 58.5t-34.5 88q0 76 65.5 131t159.5 55q75 0 137 -28.5t93 -75.5l-43 -40
q-30 45 -81.5 68.5t-110.5 23.5q-65 0 -111.5 -38.5t-46.5 -89.5q0 -37 34.5 -64.5t83.5 -47.5t98 -42t83.5 -60.5t34.5 -91.5q0 -81 -63 -142.5t-173 -61.5z" />
    <glyph glyph-name="scircumflex" unicode="&#x15d;" horiz-adv-x="459" 
d="M202 -12q-133 0 -194 85l37 36q20 -32 62.5 -54.5t95.5 -22.5q58 0 93 29.5t35 70.5q0 28 -26.5 49.5t-64.5 36t-76 30t-64.5 42t-26.5 62.5q0 61 47.5 102t128.5 41q59 0 107 -23t69 -56l-34 -34q-16 29 -57.5 49t-88.5 20q-54 0 -86.5 -24.5t-32.5 -62.5
q0 -27 26.5 -47t64.5 -34t76 -30t64.5 -44t26.5 -66q0 -64 -49 -109.5t-133 -45.5zM419 556h-38l-62 113l-108 -113h-42l129 144h54z" />
    <glyph glyph-name="Scedilla" unicode="&#x15e;" horiz-adv-x="581" 
d="M204 -189q-65 0 -104 37l23 30q33 -34 83 -34q32 0 49 14.5t17 36.5q0 15 -11 24.5t-29 9.5q-22 0 -37 -18l-24 16l39 68q-63 11 -112.5 40.5t-73.5 69.5l42 41q75 -106 218 -106q82 0 125 44.5t43 100.5q0 40 -34.5 69.5t-83 49.5t-97.5 41.5t-83.5 58.5t-34.5 88
q0 76 65.5 131t159.5 55q75 0 137 -28.5t93 -75.5l-43 -40q-30 45 -81.5 68.5t-110.5 23.5q-65 0 -111.5 -38.5t-46.5 -89.5q0 -37 34.5 -64.5t83.5 -47.5t98 -42t83.5 -60.5t34.5 -91.5q0 -81 -63 -142.5t-173 -61.5q-12 0 -34 2l-28 -46q15 11 34 11q26 0 42 -15t16 -42
q0 -38 -29 -62.5t-76 -24.5z" />
    <glyph glyph-name="scedilla" unicode="&#x15f;" horiz-adv-x="459" 
d="M142 -189q-65 0 -104 37l23 30q33 -34 83 -34q32 0 49 14.5t17 36.5q0 15 -11 24.5t-29 9.5q-22 0 -37 -18l-24 16l38 66q-92 14 -139 80l37 36q20 -32 62.5 -54.5t95.5 -22.5q58 0 93 29.5t35 70.5q0 28 -26.5 49.5t-64.5 36t-76 30t-64.5 42t-26.5 62.5q0 61 47.5 102
t128.5 41q59 0 107 -23t69 -56l-34 -34q-16 29 -57.5 49t-88.5 20q-54 0 -86.5 -24.5t-32.5 -62.5q0 -27 26.5 -47t64.5 -34t76 -30t64.5 -44t26.5 -66q0 -64 -49 -109.5t-133 -45.5q-13 0 -20 1l-27 -45q15 11 34 11q26 0 42 -15t16 -42q0 -38 -29 -62.5t-76 -24.5z" />
    <glyph glyph-name="Scaron" unicode="&#x160;" horiz-adv-x="581" 
d="M419 728h-54l-68 144h38l61 -113l109 113h42zM279 -12q-84 0 -153.5 33t-101.5 84l42 41q75 -106 218 -106q82 0 125 44.5t43 100.5q0 40 -34.5 69.5t-83 49.5t-97.5 41.5t-83.5 58.5t-34.5 88q0 76 65.5 131t159.5 55q75 0 137 -28.5t93 -75.5l-43 -40
q-30 45 -81.5 68.5t-110.5 23.5q-65 0 -111.5 -38.5t-46.5 -89.5q0 -37 34.5 -64.5t83.5 -47.5t98 -42t83.5 -60.5t34.5 -91.5q0 -81 -63 -142.5t-173 -61.5z" />
    <glyph glyph-name="scaron" unicode="&#x161;" horiz-adv-x="459" 
d="M202 -12q-133 0 -194 85l37 36q20 -32 62.5 -54.5t95.5 -22.5q58 0 93 29.5t35 70.5q0 28 -26.5 49.5t-64.5 36t-76 30t-64.5 42t-26.5 62.5q0 61 47.5 102t128.5 41q59 0 107 -23t69 -56l-34 -34q-16 29 -57.5 49t-88.5 20q-54 0 -86.5 -24.5t-32.5 -62.5
q0 -27 26.5 -47t64.5 -34t76 -30t64.5 -44t26.5 -66q0 -64 -49 -109.5t-133 -45.5zM323 556h-54l-68 144h38l61 -113l109 113h42z" />
    <glyph glyph-name="Tcommaaccent" unicode="&#x162;" horiz-adv-x="564" 
d="M257 0h-58l136 615h-218l11 52h494l-11 -52h-218zM248 -122q0 -38 -28.5 -77.5t-67.5 -59.5l-22 24q27 14 47.5 36.5t26.5 44.5h-7q-12 0 -21.5 10t-9.5 23q0 18 13 30.5t30 12.5t28 -11.5t11 -32.5z" />
    <glyph glyph-name="Tcommaaccent" unicode="&#x21a;" horiz-adv-x="564" 
d="M257 0h-58l136 615h-218l11 52h494l-11 -52h-218zM248 -122q0 -38 -28.5 -77.5t-67.5 -59.5l-22 24q27 14 47.5 36.5t26.5 44.5h-7q-12 0 -21.5 10t-9.5 23q0 18 13 30.5t30 12.5t28 -11.5t11 -32.5z" />
    <glyph glyph-name="tcommaaccent" unicode="&#x163;" horiz-adv-x="275" 
d="M151 -12q-97 0 -97 80q0 14 4 26l76 343h-80l10 46h80l29 132h53l-29 -132h98l-11 -46h-98l-74 -335q-2 -12 -2 -21q0 -46 49 -46q27 0 51 18l10 -42q-32 -23 -69 -23zM104 -122q0 -38 -28.5 -77.5t-67.5 -59.5l-22 24q27 14 47.5 36.5t26.5 44.5h-7q-12 0 -21.5 10
t-9.5 23q0 18 13 30.5t30 12.5t28 -11.5t11 -32.5z" />
    <glyph glyph-name="tcommaaccent" unicode="&#x21b;" horiz-adv-x="275" 
d="M151 -12q-97 0 -97 80q0 14 4 26l76 343h-80l10 46h80l29 132h53l-29 -132h98l-11 -46h-98l-74 -335q-2 -12 -2 -21q0 -46 49 -46q27 0 51 18l10 -42q-32 -23 -69 -23zM104 -122q0 -38 -28.5 -77.5t-67.5 -59.5l-22 24q27 14 47.5 36.5t26.5 44.5h-7q-12 0 -21.5 10
t-9.5 23q0 18 13 30.5t30 12.5t28 -11.5t11 -32.5z" />
    <glyph glyph-name="Tcaron" unicode="&#x164;" horiz-adv-x="564" 
d="M257 0h-58l136 615h-218l11 52h494l-11 -52h-218zM418 728h-54l-68 144h38l61 -113l109 113h42z" />
    <glyph glyph-name="tcaron" unicode="&#x165;" horiz-adv-x="285" 
d="M151 -12q-97 0 -97 80q0 14 4 26l76 343h-80l10 46h80l29 132h53l-29 -132h98l-11 -46h-98l-74 -335q-2 -12 -2 -21q0 -46 49 -46q27 0 51 18l10 -42q-32 -23 -69 -23zM387 690q0 -38 -28.5 -77.5t-67.5 -59.5l-22 24q27 14 47.5 36.5t26.5 44.5h-7q-12 0 -21.5 10
t-9.5 23q0 18 13 30.5t30 12.5t28 -11.5t11 -32.5z" />
    <glyph glyph-name="Tbar" unicode="&#x166;" horiz-adv-x="564" 
d="M257 0h-58l68 307h-158l9 38h157l60 270h-218l11 52h494l-11 -52h-218l-60 -270h158l-9 -38h-157z" />
    <glyph glyph-name="tbar" unicode="&#x167;" horiz-adv-x="275" 
d="M151 -12q-97 0 -97 80q0 14 4 26l31 140h-80l8 38h80l37 165h-80l10 46h80l29 132h53l-29 -132h98l-11 -46h-98l-37 -165h71l-9 -38h-70l-29 -132q-2 -12 -2 -21q0 -46 49 -46q27 0 51 18l10 -42q-32 -23 -69 -23z" />
    <glyph glyph-name="Utilde" unicode="&#x168;" horiz-adv-x="686" 
d="M328 -12q-115 0 -181 58.5t-66 158.5q0 23 5 51l90 411h58l-90 -410q-6 -24 -6 -45q0 -77 50.5 -124.5t139.5 -47.5q94 0 145 55t75 162l90 410h58l-90 -411q-29 -132 -93.5 -200t-184.5 -68zM522 726q-25 0 -41.5 16t-23 35t-20 35t-32.5 16q-46 0 -69 -96h-36
q12 60 40.5 97t71.5 37q25 0 41.5 -16t23.5 -35t20 -35t32 -16q46 0 70 96h36q-13 -60 -41.5 -97t-71.5 -37z" />
    <glyph glyph-name="utilde" unicode="&#x169;" horiz-adv-x="540" 
d="M133 483h53l-73 -327q-5 -23 -5 -36q0 -43 29 -64t78 -21q43 0 86.5 24.5t77.5 60.5l81 363h52l-107 -483h-52l16 73q-87 -85 -174 -85q-64 0 -102.5 30.5t-38.5 87.5q0 19 6 41zM408 554q-25 0 -41.5 16t-23 35t-20 35t-32.5 16q-46 0 -69 -96h-36q12 60 40.5 97
t71.5 37q25 0 41.5 -16t23.5 -35t20 -35t32 -16q46 0 70 96h36q-13 -60 -41.5 -97t-71.5 -37z" />
    <glyph glyph-name="Umacron" unicode="&#x16a;" horiz-adv-x="686" 
d="M328 -12q-115 0 -181 58.5t-66 158.5q0 23 5 51l90 411h58l-90 -410q-6 -24 -6 -45q0 -77 50.5 -124.5t139.5 -47.5q94 0 145 55t75 162l90 410h58l-90 -411q-30 -132 -94 -200t-184 -68zM636 749h-362l8 38h362z" />
    <glyph glyph-name="umacron" unicode="&#x16b;" horiz-adv-x="540" 
d="M133 483h53l-73 -327q-5 -23 -5 -36q0 -43 29 -64t78 -21q43 0 86.5 24.5t77.5 60.5l81 363h52l-107 -483h-52l16 73q-87 -85 -174 -85q-64 0 -102.5 30.5t-38.5 87.5q0 19 6 41zM525 579h-362l8 38h362z" />
    <glyph glyph-name="Ubreve" unicode="&#x16c;" horiz-adv-x="686" 
d="M328 -12q-115 0 -181 58.5t-66 158.5q0 23 5 51l90 411h58l-90 -410q-6 -24 -6 -45q0 -77 50.5 -124.5t139.5 -47.5q94 0 145 55t75 162l90 410h58l-90 -411q-29 -132 -93.5 -200t-184.5 -68zM647 813q-85 -88 -194 -88q-53 0 -94 23.5t-63 64.5l33 25q37 -75 130 -75
t163 75z" />
    <glyph glyph-name="ubreve" unicode="&#x16d;" horiz-adv-x="540" 
d="M133 483h53l-73 -327q-5 -23 -5 -36q0 -43 29 -64t78 -21q43 0 86.5 24.5t77.5 60.5l81 363h52l-107 -483h-52l16 73q-87 -85 -174 -85q-64 0 -102.5 30.5t-38.5 87.5q0 19 6 41zM537 654q-85 -88 -194 -88q-53 0 -94 23.5t-63 64.5l33 25q37 -75 130 -75t163 75z" />
    <glyph glyph-name="Uring" unicode="&#x16e;" horiz-adv-x="686" 
d="M328 -12q-115 0 -181 58.5t-66 158.5q0 23 5 51l90 411h58l-90 -410q-6 -24 -6 -45q0 -77 50.5 -124.5t139.5 -47.5q94 0 145 55t75 162l90 410h58l-90 -411q-29 -132 -93.5 -200t-184.5 -68zM453 692q-38 0 -62.5 24.5t-24.5 62.5q0 42 31 73.5t74 31.5q38 0 62.5 -24.5
t24.5 -62.5q0 -43 -31.5 -74t-73.5 -31zM454 724q29 0 50.5 21t21.5 49q0 26 -15.5 42t-40.5 16q-29 0 -50.5 -21t-21.5 -49q0 -26 15.5 -42t40.5 -16z" />
    <glyph glyph-name="uring" unicode="&#x16f;" horiz-adv-x="540" 
d="M133 483h53l-73 -327q-5 -23 -5 -36q0 -43 29 -64t78 -21q43 0 86.5 24.5t77.5 60.5l81 363h52l-107 -483h-52l16 73q-87 -85 -174 -85q-64 0 -102.5 30.5t-38.5 87.5q0 19 6 41zM350 557q-38 0 -62.5 24.5t-24.5 62.5q0 42 31 73.5t74 31.5q38 0 62.5 -24.5t24.5 -62.5
q0 -43 -31.5 -74t-73.5 -31zM351 589q29 0 50.5 21t21.5 49q0 26 -15.5 42t-40.5 16q-29 0 -50.5 -21t-21.5 -49q0 -26 15.5 -42t40.5 -16z" />
    <glyph glyph-name="Uhungarumlaut" unicode="&#x170;" horiz-adv-x="686" 
d="M328 -12q-115 0 -181 58.5t-66 158.5q0 23 5 51l90 411h58l-90 -410q-6 -24 -6 -45q0 -77 50.5 -124.5t139.5 -47.5q94 0 145 55t75 162l90 410h58l-90 -411q-29 -132 -93.5 -200t-184.5 -68zM530 872l-147 -144h-39l129 144h57zM669 872l-147 -144h-39l129 144h57z" />
    <glyph glyph-name="uhungarumlaut" unicode="&#x171;" horiz-adv-x="540" 
d="M133 483h53l-73 -327q-5 -23 -5 -36q0 -43 29 -64t78 -21q43 0 86.5 24.5t77.5 60.5l81 363h52l-107 -483h-52l16 73q-87 -85 -174 -85q-64 0 -102.5 30.5t-38.5 87.5q0 19 6 41zM418 700l-147 -144h-39l129 144h57zM557 700l-147 -144h-39l129 144h57z" />
    <glyph glyph-name="Uogonek" unicode="&#x172;" horiz-adv-x="686" 
d="M328 -12q-115 0 -181 58.5t-66 158.5q0 23 5 51l90 411h58l-90 -410q-6 -24 -6 -45q0 -77 50.5 -124.5t139.5 -47.5q94 0 145 55t75 162l90 410h58l-90 -411q-47 -215 -188 -256q-104 -45 -104 -110q0 -43 46 -43q35 0 59 43l26 -18q-36 -58 -90 -58q-34 0 -55.5 18.5
t-21.5 51.5q0 60 58 104h-8z" />
    <glyph glyph-name="uogonek" unicode="&#x173;" horiz-adv-x="540" 
d="M406 -110l26 -18q-36 -58 -90 -58q-34 0 -55.5 18.5t-21.5 51.5q0 75 89 123l15 66q-87 -85 -174 -85q-64 0 -102.5 30.5t-38.5 87.5q0 19 6 41l73 336h53l-73 -327q-5 -23 -5 -36q0 -43 29 -64t78 -21q43 0 86.5 24.5t77.5 60.5l81 363h52l-107 -483q-104 -45 -104 -110
q0 -43 46 -43q35 0 59 43z" />
    <glyph glyph-name="Wcircumflex" unicode="&#x174;" horiz-adv-x="867" 
d="M604 0h-64l-34 573l-286 -573h-64l-44 667h63l30 -587l294 587h52l34 -587l290 587h66zM666 728h-38l-62 113l-108 -113h-42l129 144h54z" />
    <glyph glyph-name="wcircumflex" unicode="&#x175;" horiz-adv-x="719" 
d="M491 0h-50l-44 413l-227 -413h-50l-50 483h53l38 -410l227 410h44l45 -410l220 410h58zM554 556h-38l-62 113l-108 -113h-42l129 144h54z" />
    <glyph glyph-name="Ycircumflex" unicode="&#x176;" horiz-adv-x="618" 
d="M543 728h-38l-62 113l-108 -113h-42l129 144h54zM284 0h-58l64 285l-182 382h64l153 -328l297 328h74l-349 -382z" />
    <glyph glyph-name="ycircumflex" unicode="&#x177;" horiz-adv-x="481" 
d="M-46 -186l20 50q18 -9 47 -9q39 0 76 55l58 87l-95 486h56l81 -422l269 422h61l-381 -589q-57 -90 -135 -90q-30 0 -57 10zM435 556h-38l-62 113l-108 -113h-42l129 144h54z" />
    <glyph glyph-name="Ydieresis" unicode="&#x178;" horiz-adv-x="618" 
d="M568 773q0 -17 -12 -29t-29 -12q-14 0 -24 9.5t-10 23.5q0 16 12.5 28.5t29.5 12.5q14 0 23.5 -9.5t9.5 -23.5zM364 773q0 -17 -12.5 -29t-29.5 -12q-14 0 -23.5 9.5t-9.5 23.5q0 16 12.5 28.5t29.5 12.5q14 0 23.5 -9.5t9.5 -23.5zM284 0h-58l64 285l-182 382h64
l153 -328l297 328h74l-349 -382z" />
    <glyph glyph-name="Zacute" unicode="&#x179;" horiz-adv-x="581" 
d="M477 0h-481l11 50l522 565h-396l10 52h474l-10 -49l-523 -566h404zM585 872l-204 -144h-45l186 144h63z" />
    <glyph glyph-name="zacute" unicode="&#x17a;" horiz-adv-x="469" 
d="M359 0h-357l9 43l370 394h-282l10 46h353l-9 -42l-373 -395h288zM491 700l-204 -144h-45l186 144h63z" />
    <glyph glyph-name="Zdotaccent" unicode="&#x17b;" horiz-adv-x="581" 
d="M477 0h-481l11 50l522 565h-396l10 52h474l-10 -49l-523 -566h404zM444 774q0 -17 -13 -29.5t-30 -12.5q-14 0 -24 9.5t-10 24.5q0 17 13 29.5t30 12.5q14 0 24 -10t10 -24z" />
    <glyph glyph-name="zdotaccent" unicode="&#x17c;" horiz-adv-x="469" 
d="M359 0h-357l9 43l370 394h-282l10 46h353l-9 -42l-373 -395h288zM356 624q0 -17 -13 -29.5t-30 -12.5q-14 0 -24 9.5t-10 24.5q0 17 13 29.5t30 12.5q14 0 24 -10t10 -24z" />
    <glyph glyph-name="Zcaron" unicode="&#x17d;" horiz-adv-x="581" 
d="M426 728h-54l-68 144h38l61 -113l109 113h42zM477 0h-481l11 50l522 565h-396l10 52h474l-10 -49l-523 -566h404z" />
    <glyph glyph-name="zcaron" unicode="&#x17e;" horiz-adv-x="469" 
d="M359 0h-357l9 43l370 394h-282l10 46h353l-9 -42l-373 -395h288zM325 556h-54l-68 144h38l61 -113l109 113h42z" />
    <glyph glyph-name="longs" unicode="&#x17f;" horiz-adv-x="265" 
d="M97 0h-53l97 437h-80l10 46h80l9 44q14 70 51.5 110t98.5 40q59 0 96 -37l-32 -37q-24 27 -63 27q-76 0 -98 -103z" />
    <glyph glyph-name="florin" unicode="&#x192;" horiz-adv-x="422" 
d="M37 -161h-59l94 421h-74v49h84l49 221q34 147 149 147q61 0 99 -38l-29 -40q-22 26 -61 26q-78 0 -101 -102l-48 -214h151v-49h-161z" />
    <glyph glyph-name="AEacute" unicode="&#x1fc;" horiz-adv-x="939" 
d="M825 0h-423l36 164h-271l-138 -164h-69l568 667h444l-11 -52h-365l-55 -247h358l-11 -52h-359l-58 -264h365zM450 216l85 385l-327 -385h242zM779 872l-204 -144h-45l186 144h63z" />
    <glyph glyph-name="aeacute" unicode="&#x1fd;" horiz-adv-x="947" 
d="M664 -12q-80 0 -131.5 39t-67.5 105l-29 -132h-53l16 73q-65 -85 -165 -85q-85 0 -137 53t-52 145q0 126 71 217.5t182 91.5q58 0 103.5 -25.5t70.5 -68.5l18 82h53l-20 -91q76 103 186 103q92 0 141 -57.5t49 -149.5q0 -35 -7 -63h-403q-2 -12 -2 -28q0 -71 46 -117.5
t131 -46.5q77 0 141 52l20 -38q-77 -59 -161 -59zM303 448q-87 0 -144 -76t-57 -176q0 -74 40 -117.5t106 -43.5q49 0 93 26.5t71 66.5l51 232q-19 38 -61.5 63t-98.5 25zM848 266q2 10 2 22q0 73 -40 117.5t-116 44.5q-72 0 -129.5 -54.5t-70.5 -129.5h354zM687 700
l-204 -144h-45l186 144h63z" />
    <glyph glyph-name="Oslashacute" unicode="&#x1fe;" horiz-adv-x="764" 
d="M678 872l-204 -144h-45l186 144h63zM367 -12q-112 0 -189 56l-38 -44h-51l59 69q-81 79 -81 208q0 168 108.5 284.5t261.5 116.5q106 0 185 -54l37 43h52l-58 -68q83 -80 83 -210q0 -168 -108 -284.5t-261 -116.5zM370 40q124 0 214 99.5t90 247.5q0 101 -60 166
l-399 -465q63 -48 155 -48zM129 279q0 -102 57 -165l398 466q-64 46 -152 46q-124 0 -213.5 -99t-89.5 -248z" />
    <glyph glyph-name="oslashacute" unicode="&#x1ff;" horiz-adv-x="571" 
d="M543 700l-204 -144h-45l186 144h63zM65 0h-46l66 66q-40 54 -40 134q0 118 77 206.5t189 88.5q90 0 147 -51l38 39h46l-61 -62q43 -55 43 -138q0 -118 -77 -206.5t-189 -88.5q-95 0 -152 54zM259 35q88 0 148 74.5t60 171.5q0 59 -26 100l-297 -301q42 -45 115 -45z
M102 202q0 -58 22 -96l297 301q-43 41 -111 41q-88 0 -148 -74.5t-60 -171.5z" />
    <glyph glyph-name="Scommaaccent" unicode="&#x218;" horiz-adv-x="584" 
d="M281 -12q-84 0 -153.5 33t-101.5 84l42 41q75 -106 218 -106q82 0 125 44.5t43 100.5q0 40 -34.5 69.5t-83 49.5t-97.5 41.5t-83.5 58.5t-34.5 88q0 76 65.5 131t159.5 55q75 0 137 -28.5t93 -75.5l-43 -40q-30 45 -81.5 68.5t-110.5 23.5q-65 0 -111.5 -38.5
t-46.5 -89.5q0 -37 34.5 -64.5t83.5 -47.5t98 -42t83.5 -60.5t34.5 -91.5q0 -81 -63 -142.5t-173 -61.5zM254 -122q0 -38 -28.5 -77.5t-67.5 -59.5l-22 24q27 14 47.5 36.5t26.5 44.5h-7q-12 0 -21.5 10t-9.5 23q0 18 13 30.5t30 12.5t28 -11.5t11 -32.5z" />
    <glyph glyph-name="scommaaccent" unicode="&#x219;" horiz-adv-x="461" 
d="M202 -12q-133 0 -194 85l37 36q20 -32 62.5 -54.5t95.5 -22.5q58 0 93 29.5t35 70.5q0 28 -26.5 49.5t-64.5 36t-76 30t-64.5 42t-26.5 62.5q0 61 47.5 102t128.5 41q59 0 107 -23t69 -56l-34 -34q-16 29 -57.5 49t-88.5 20q-54 0 -86.5 -24.5t-32.5 -62.5
q0 -27 26.5 -47t64.5 -34t76 -30t64.5 -44t26.5 -66q0 -64 -49 -109.5t-133 -45.5zM197 -122q0 -38 -28.5 -77.5t-67.5 -59.5l-22 24q27 14 47.5 36.5t26.5 44.5h-7q-12 0 -21.5 10t-9.5 23q0 18 13 30.5t30 12.5t28 -11.5t11 -32.5z" />
    <glyph glyph-name="hsuperior" unicode="&#x2b0;" horiz-adv-x="393" 
d="M392 326h-43l46 207q2 10 2 20q0 59 -71 59q-50 0 -104 -54l-51 -232h-42l96 434h42l-36 -167q51 55 115 55q46 0 71.5 -20.5t25.5 -57.5q0 -12 -4 -32z" />
    <glyph glyph-name="hsuperior" unicode="&#xf637;" horiz-adv-x="393" 
d="M392 326h-43l46 207q2 10 2 20q0 59 -71 59q-50 0 -104 -54l-51 -232h-42l96 434h42l-36 -167q51 55 115 55q46 0 71.5 -20.5t25.5 -57.5q0 -12 -4 -32z" />
    <glyph glyph-name="circumflex" unicode="&#x2c6;" horiz-adv-x="250" 
d="M319 556h-38l-62 113l-108 -113h-42l129 144h54z" />
    <glyph glyph-name="caron" unicode="&#x2c7;" horiz-adv-x="250" 
d="M223 556h-54l-68 144h38l61 -113l109 113h42z" />
    <glyph glyph-name="breve" unicode="&#x2d8;" horiz-adv-x="351" 
d="M441 654q-85 -88 -194 -88q-53 0 -94 23.5t-63 64.5l33 25q37 -75 130 -75t163 75z" />
    <glyph glyph-name="dotaccent" unicode="&#x2d9;" horiz-adv-x="85" 
d="M164 624q0 -17 -13 -29.5t-30 -12.5q-14 0 -24 9.5t-10 24.5q0 17 13 29.5t30 12.5q14 0 24 -10t10 -24z" />
    <glyph glyph-name="ring" unicode="&#x2da;" horiz-adv-x="191" 
d="M176 557q-38 0 -62.5 24.5t-24.5 62.5q0 42 31 73.5t74 31.5q38 0 62.5 -24.5t24.5 -62.5q0 -43 -31.5 -74t-73.5 -31zM177 589q29 0 50.5 21t21.5 49q0 26 -15.5 42t-40.5 16q-29 0 -50.5 -21t-21.5 -49q0 -26 15.5 -42t40.5 -16z" />
    <glyph glyph-name="ogonek" unicode="&#x2db;" horiz-adv-x="171" 
d="M63 -110l26 -18q-36 -58 -90 -58q-34 0 -55.5 18.5t-21.5 51.5q0 85 115 136l25 -20q-104 -45 -104 -110q0 -43 46 -43q35 0 59 43z" />
    <glyph glyph-name="tilde" unicode="&#x2dc;" horiz-adv-x="307" 
d="M292 554q-25 0 -41.5 16t-23 35t-20 35t-32.5 16q-46 0 -69 -96h-36q12 60 40.5 97t71.5 37q25 0 41.5 -16t23.5 -35t20 -35t32 -16q46 0 70 96h36q-13 -60 -41.5 -97t-71.5 -37z" />
    <glyph glyph-name="hungarumlaut" unicode="&#x2dd;" horiz-adv-x="291" 
d="M253 700l-147 -144h-39l129 144h57zM392 700l-147 -144h-39l129 144h57z" />
    <glyph glyph-name="Delta" unicode="&#x394;" horiz-adv-x="647" 
d="M578 0h-617l420 667h71zM508 52l-102 554l-347 -554h449z" />
    <glyph glyph-name="Delta" unicode="&#x2206;" horiz-adv-x="647" 
d="M578 0h-617l420 667h71zM508 52l-102 554l-347 -554h449z" />
    <glyph glyph-name="Omega" unicode="&#x3a9;" horiz-adv-x="764" 
d="M23 0l11 52h157q-120 91 -120 237q0 101 45 189.5t130.5 144t190.5 55.5q134 0 216 -78t82 -212q0 -113 -60 -199t-161 -137h131l-11 -52h-227l11 52q107 22 180.5 115t73.5 219q0 109 -65 174t-171 65q-132 0 -219.5 -101.5t-87.5 -244.5q0 -81 37 -138t95 -89l-11 -52
h-227z" />
    <glyph glyph-name="Omega" unicode="&#x2126;" horiz-adv-x="764" 
d="M23 0l11 52h157q-120 91 -120 237q0 101 45 189.5t130.5 144t190.5 55.5q134 0 216 -78t82 -212q0 -113 -60 -199t-161 -137h131l-11 -52h-227l11 52q107 22 180.5 115t73.5 219q0 109 -65 174t-171 65q-132 0 -219.5 -101.5t-87.5 -244.5q0 -81 37 -138t95 -89l-11 -52
h-227z" />
    <glyph glyph-name="pi" unicode="&#x3c0;" horiz-adv-x="535" 
d="M367 0h-55l100 452h-198l-99 -452h-55l100 452h-79l10 48h465l-10 -48h-80z" />
    <glyph glyph-name="endash" unicode="&#x2013;" horiz-adv-x="593" 
d="M557 218h-533l10 48h533z" />
    <glyph glyph-name="emdash" unicode="&#x2014;" horiz-adv-x="833" 
d="M797 218h-773l10 48h773z" />
    <glyph glyph-name="quoteleft" unicode="&#x2018;" horiz-adv-x="219" 
d="M116 531q0 41 30.5 82.5t72.5 63.5l24 -26q-28 -14 -49.5 -37.5t-28.5 -46.5h7q14 0 24 -10.5t10 -26.5q0 -19 -14 -33t-33 -14t-31 12.5t-12 35.5z" />
    <glyph glyph-name="quoteright" unicode="&#x2019;" horiz-adv-x="219" 
d="M242 629q0 -41 -30.5 -82.5t-72.5 -63.5l-24 26q28 14 49.5 37.5t28.5 46.5h-7q-14 0 -24 10.5t-10 25.5q0 20 14 34t33 14t31 -12.5t12 -35.5z" />
    <glyph glyph-name="quotesinglbase" unicode="&#x201a;" horiz-adv-x="219" 
d="M109 30q0 -41 -30.5 -83t-72.5 -63l-24 26q28 14 49.5 37.5t28.5 46.5h-7q-14 0 -24 10.5t-10 25.5q0 20 14 34t33 14t31 -12.5t12 -35.5z" />
    <glyph glyph-name="quotedblleft" unicode="&#x201c;" horiz-adv-x="361" 
d="M267 531q0 41 30 82.5t72 63.5l24 -26q-28 -15 -49.5 -38t-28.5 -46h7q14 0 24.5 -10.5t10.5 -26.5q0 -19 -14.5 -33t-33.5 -14t-30.5 12.5t-11.5 35.5zM126 531q0 41 30 82.5t72 63.5l25 -26q-28 -14 -49.5 -37.5t-28.5 -46.5h7q14 0 24 -10.5t10 -26.5q0 -19 -14.5 -33
t-33.5 -14q-18 0 -30 12.5t-12 35.5z" />
    <glyph glyph-name="quotedblright" unicode="&#x201d;" horiz-adv-x="361" 
d="M242 629q0 -41 -30.5 -82.5t-72.5 -63.5l-24 26q28 14 49.5 37.5t28.5 46.5h-7q-14 0 -24 10.5t-10 25.5q0 20 14 34t33 14t31 -12.5t12 -35.5zM382 629q0 -41 -30 -82.5t-72 -63.5l-24 26q28 14 49.5 37.5t28.5 46.5h-7q-14 0 -24 10.5t-10 25.5q0 20 14 34t33 14
t30.5 -12.5t11.5 -35.5z" />
    <glyph glyph-name="quotedblbase" unicode="&#x201e;" horiz-adv-x="361" 
d="M109 30q0 -41 -30.5 -83t-72.5 -63l-24 26q28 14 49.5 37.5t28.5 46.5h-7q-14 0 -24 10.5t-10 25.5q0 20 14 34t33 14t31 -12.5t12 -35.5zM249 30q0 -41 -30.5 -83t-71.5 -63l-24 26q28 15 49.5 38t28.5 46h-7q-14 0 -24.5 10.5t-10.5 25.5q0 20 14.5 34t33.5 14
t30.5 -12.5t11.5 -35.5z" />
    <glyph glyph-name="dagger" unicode="&#x2020;" horiz-adv-x="257" 
d="M297 535l-88 4l-43 -212h-39l51 212l-90 -4l8 35l88 -3l21 110h39l-29 -110l90 3z" />
    <glyph glyph-name="daggerdbl" unicode="&#x2021;" horiz-adv-x="257" 
d="M305 570l-8 -35l-88 4l-49 -221l90 4l-8 -35l-88 3l-21 -110h-39l29 110l-90 -3l8 35l88 -4l49 221l-90 -4l8 35l88 -3l21 110h39l-29 -110z" />
    <glyph glyph-name="bullet" unicode="&#x2022;" horiz-adv-x="358" 
d="M283 252q0 -45 -34.5 -78.5t-80.5 -33.5q-40 0 -66.5 26.5t-26.5 66.5q0 45 34.5 78.5t80.5 33.5q40 0 66.5 -26.5t26.5 -66.5z" />
    <glyph glyph-name="ellipsis" unicode="&#x2026;" horiz-adv-x="657" 
d="M59 -10q-17 0 -28.5 12t-11.5 29q0 19 14 33t34 14q17 0 28.5 -11.5t11.5 -28.5q0 -20 -14 -34t-34 -14zM278 -10q-17 0 -28.5 12t-11.5 29q0 19 14 33t34 14q17 0 28.5 -11.5t11.5 -28.5q0 -20 -14 -34t-34 -14zM497 -10q-17 0 -28.5 12t-11.5 29q0 19 14 33t34 14
q17 0 28.5 -11.5t11.5 -28.5q0 -20 -14 -34t-34 -14z" />
    <glyph glyph-name="perthousand" unicode="&#x2030;" horiz-adv-x="1067" 
d="M119 0h-45l573 667h46zM494 -12q-62 0 -103.5 37.5t-41.5 96.5q0 84 52 139t123 55q62 0 103.5 -37.5t41.5 -96.5q0 -84 -52 -139t-123 -55zM495 27q51 0 89 43.5t38 107.5q0 43 -28 71t-71 28q-51 0 -89.5 -44t-38.5 -107q0 -43 28.5 -71t71.5 -28zM234 349
q-61 0 -102.5 37.5t-41.5 96.5q0 85 52 139.5t123 54.5q61 0 102.5 -37.5t41.5 -95.5q0 -85 -52 -140t-123 -55zM236 388q51 0 89 44t38 107q0 43 -28.5 71t-71.5 28q-51 0 -89 -43.5t-38 -107.5q0 -43 28.5 -71t71.5 -28zM841 -12q-62 0 -103.5 37.5t-41.5 96.5
q0 84 52 139t123 55q62 0 103.5 -37.5t41.5 -96.5q0 -84 -52 -139t-123 -55zM842 27q51 0 89.5 43.5t38.5 107.5q0 43 -28.5 71t-71.5 28q-51 0 -89 -44t-38 -107q0 -43 28 -71t71 -28z" />
    <glyph glyph-name="guilsinglleft" unicode="&#x2039;" horiz-adv-x="277" 
d="M202 63h-53l-120 180l200 177h61l-204 -182z" />
    <glyph glyph-name="guilsinglright" unicode="&#x203a;" horiz-adv-x="277" 
d="M77 420h53l120 -180l-200 -177h-61l204 182z" />
    <glyph glyph-name="fraction" unicode="&#x2044;" horiz-adv-x="130" 
d="M394 667l-574 -667h-45l573 667h46z" />
    <glyph glyph-name="fraction" unicode="&#x2215;" horiz-adv-x="130" 
d="M394 667l-574 -667h-45l573 667h46z" />
    <glyph glyph-name="zerosuperior" unicode="&#x2070;" 
d="M429 672q0 -36 -10.5 -77.5t-31.5 -83.5t-60 -69.5t-89 -27.5q-66 0 -101 42.5t-35 112.5q0 36 10.5 77.5t31.5 83.5t60 69.5t89 27.5q66 0 101 -42t35 -113zM383 673q0 116 -91 116q-38 0 -68 -23t-45.5 -59t-23 -71.5t-7.5 -67.5q0 -116 91 -116q38 0 68 23t45.5 59
t23 71.5t7.5 67.5z" />
    <glyph glyph-name="foursuperior" unicode="&#x2074;" 
d="M397 528h-60l-24 -107h-44l23 107h-196l8 35l236 258h61l-57 -256h60zM300 565l47 211l-196 -211h149z" />
    <glyph glyph-name="fivesuperior" unicode="&#x2075;" 
d="M395 563q0 -64 -44 -106.5t-111 -42.5q-106 0 -144 73l33 25q36 -60 111 -60q48 0 78.5 30t30.5 75q0 38 -26.5 58.5t-66.5 20.5q-52 0 -94 -39l-31 14l47 210h248l-8 -38h-203l-32 -145q39 34 90 34q50 0 86 -29.5t36 -79.5z" />
    <glyph glyph-name="sixsuperior" unicode="&#x2076;" 
d="M401 563q0 -60 -41 -104.5t-111 -44.5t-106 39t-36 104q0 109 56.5 189.5t140.5 80.5q40 0 74 -13.5t50 -36.5l-29 -31q-26 43 -96 43q-46 0 -82 -37t-51 -76.5t-15 -64.5v-4q55 65 121 65q53 0 89 -28.5t36 -80.5zM355 557q0 37 -26 57.5t-69 20.5q-56 0 -108 -64
q-2 -5 -2 -22q0 -45 27 -71t71 -26q49 0 78 31.5t29 73.5z" />
    <glyph glyph-name="sevensuperior" unicode="&#x2077;" horiz-adv-x="359" 
d="M426 790l-255 -369h-50l252 362h-228l8 38h280z" />
    <glyph glyph-name="eightsuperior" unicode="&#x2078;" 
d="M391 527q0 -49 -42 -81t-106 -32q-63 0 -105 28t-42 77q0 43 36.5 74.5t92.5 37.5q-78 29 -78 86q0 52 42.5 81t97.5 29t98 -25.5t43 -71.5q0 -42 -30 -71.5t-89 -36.5q35 -13 58.5 -37.5t23.5 -57.5zM383 721q0 34 -27 51.5t-69 17.5q-40 0 -68 -20.5t-28 -54.5
q0 -29 27.5 -48t53.5 -25q42 3 76.5 22t34.5 57zM346 529q0 26 -22.5 47.5t-59.5 33.5q-56 -4 -89.5 -28t-33.5 -60q0 -31 30 -51.5t70 -20.5q42 0 73.5 22.5t31.5 56.5z" />
    <glyph glyph-name="ninesuperior" unicode="&#x2079;" 
d="M131 679q0 60 41 104.5t112 44.5q70 0 105.5 -39t35.5 -104q0 -109 -56 -189.5t-140 -80.5q-88 0 -125 50l30 31q26 -43 95 -43q46 0 82 37t51 76.5t15 64.5v4q-55 -65 -121 -65q-53 0 -89 28.5t-36 80.5zM177 685q0 -37 26.5 -57.5t69.5 -20.5q55 0 107 64q2 5 2 22
q0 45 -26.5 71t-71.5 26q-49 0 -78 -31.5t-29 -73.5z" />
    <glyph glyph-name="parenleftsuperior" unicode="&#x207d;" horiz-adv-x="148" 
d="M165 368l-28 -12q-39 74 -39 171q0 195 156 359l22 -12q-66 -92 -100 -179t-34 -183q0 -78 23 -144z" />
    <glyph glyph-name="parenrightsuperior" unicode="&#x207e;" horiz-adv-x="148" 
d="M164 874l28 12q38 -74 38 -171q0 -196 -155 -359l-23 12q134 186 134 362q0 78 -22 144z" />
    <glyph glyph-name="nsuperior" unicode="&#x207f;" horiz-adv-x="393" 
d="M346 326h-43l46 207q2 10 2 20q0 59 -71 59q-49 0 -104 -55l-50 -231h-43l69 314h43l-10 -47q51 55 115 55q46 0 71.5 -20.5t25.5 -57.5q0 -12 -4 -32z" />
    <glyph glyph-name="zeroinferior" unicode="&#x2080;" 
d="M313 105q0 -36 -10.5 -77.5t-31.5 -83.5t-60 -69.5t-89 -27.5q-66 0 -101 42.5t-35 112.5q0 36 10.5 77.5t31.5 83.5t60 69.5t89 27.5q66 0 101 -42t35 -113zM267 106q0 116 -91 116q-38 0 -68 -23t-45.5 -59t-23 -71.5t-7.5 -67.5q0 -116 91 -116q38 0 68 23t45.5 59
t23 71.5t7.5 67.5z" />
    <glyph glyph-name="oneinferior" unicode="&#x2081;" horiz-adv-x="214" 
d="M68 -146h-46l74 337l-77 -66l-22 30l119 99h40z" />
    <glyph glyph-name="twoinferior" unicode="&#x2082;" 
d="M247 -146h-281l9 39q63 38 96 59t76.5 51.5t65 52t37 47.5t15.5 50q0 34 -27 51.5t-64 17.5q-71 0 -113 -47l-22 30q52 55 135 55q55 0 96 -26t41 -79q0 -28 -16 -57t-37.5 -52.5t-62 -53t-71 -49.5t-82.5 -51h213z" />
    <glyph glyph-name="threeinferior" unicode="&#x2083;" 
d="M274 -31q0 -47 -39.5 -84.5t-103.5 -37.5q-110 0 -152 72l32 25q38 -59 119 -59q45 0 71.5 25.5t26.5 64.5q0 29 -29 48t-75 19q-21 0 -28 -1l8 38q30 -2 59 -2q45 0 72.5 20.5t27.5 56.5q0 31 -28.5 49.5t-69.5 18.5q-59 0 -109 -44l-20 29q59 53 131 53q60 0 100.5 -26
t40.5 -74q0 -45 -31.5 -73t-79.5 -32q31 -6 54 -29.5t23 -56.5z" />
    <glyph glyph-name="fourinferior" unicode="&#x2084;" 
d="M281 -39h-60l-24 -107h-44l23 107h-196l8 35l236 258h61l-57 -256h60zM184 -2l47 211l-196 -211h149z" />
    <glyph glyph-name="fiveinferior" unicode="&#x2085;" 
d="M279 -4q0 -64 -44 -106.5t-111 -42.5q-106 0 -144 73l33 25q36 -60 111 -60q48 0 78.5 30t30.5 75q0 38 -26.5 58.5t-66.5 20.5q-52 0 -94 -39l-31 14l47 210h248l-8 -38h-203l-32 -145q39 34 90 34q50 0 86 -29.5t36 -79.5z" />
    <glyph glyph-name="sixinferior" unicode="&#x2086;" 
d="M285 -4q0 -60 -41 -104.5t-111 -44.5t-106 39t-36 104q0 109 56.5 189.5t140.5 80.5q40 0 74 -13.5t50 -36.5l-29 -31q-26 43 -96 43q-46 0 -82 -37t-51 -76.5t-15 -64.5v-4q55 65 121 65q53 0 89 -28.5t36 -80.5zM239 -10q0 37 -26 57.5t-69 20.5q-56 0 -108 -64
q-2 -5 -2 -22q0 -45 27 -71t71 -26q49 0 78 31.5t29 73.5z" />
    <glyph glyph-name="seveninferior" unicode="&#x2087;" horiz-adv-x="359" 
d="M310 223l-255 -369h-50l252 362h-228l8 38h280z" />
    <glyph glyph-name="eightinferior" unicode="&#x2088;" 
d="M275 -40q0 -49 -42 -81t-106 -32q-63 0 -105 28t-42 77q0 43 36.5 74.5t92.5 37.5q-78 29 -78 86q0 52 42.5 81t97.5 29t98 -25.5t43 -71.5q0 -42 -30 -71.5t-89 -36.5q35 -13 58.5 -37.5t23.5 -57.5zM267 154q0 34 -27 51.5t-69 17.5q-40 0 -68 -20.5t-28 -54.5
q0 -29 27.5 -48t53.5 -25q42 3 76.5 22t34.5 57zM230 -38q0 26 -22.5 47.5t-59.5 33.5q-56 -4 -89.5 -28t-33.5 -60q0 -31 30 -51.5t70 -20.5q42 0 73.5 22.5t31.5 56.5z" />
    <glyph glyph-name="nineinferior" unicode="&#x2089;" 
d="M15 112q0 60 41 104.5t112 44.5q70 0 105.5 -39t35.5 -104q0 -109 -56 -189.5t-140 -80.5q-88 0 -125 50l30 31q26 -43 95 -43q46 0 82 37t51 76.5t15 64.5v4q-55 -65 -121 -65q-53 0 -89 28.5t-36 80.5zM61 118q0 -37 26.5 -57.5t69.5 -20.5q55 0 107 64q2 5 2 22
q0 45 -26.5 71t-71.5 26q-49 0 -78 -31.5t-29 -73.5z" />
    <glyph glyph-name="parenleftinferior" unicode="&#x208d;" horiz-adv-x="148" 
d="M40 -199l-28 -12q-39 73 -39 171q0 195 156 359l22 -12q-66 -92 -100 -179t-34 -183q0 -78 23 -144z" />
    <glyph glyph-name="parenrightinferior" unicode="&#x208e;" horiz-adv-x="148" 
d="M39 307l28 12q38 -74 38 -171q0 -196 -155 -359l-23 12q134 186 134 362q0 78 -22 144z" />
    <glyph glyph-name="colonmonetary" unicode="&#x20a1;" horiz-adv-x="674" 
d="M370 -12q-20 0 -54 4l-51 -92h-42l55 100q-36 8 -75 30l-72 -130h-43l84 151q-102 81 -102 226q0 88 31.5 164.5t83.5 127.5t118.5 80t136.5 29q39 0 77 -8l55 98h43l-61 -109q38 -13 71 -37l81 146h43l-95 -170q30 -30 48 -63l-55 -25q-7 12 -23 34l-280 -503
q9 -1 29 -1q101 0 189 76l40 -34q-97 -94 -232 -94zM132 279q0 -111 69 -177l289 519q-21 5 -54 5q-120 0 -212 -97t-92 -250zM230 78q32 -20 75 -31l292 525q-31 25 -70 39z" />
    <glyph glyph-name="frenchfranc" unicode="&#x20a3;" horiz-adv-x="553" 
d="M97 0h-57l33 149h-83l8 37h83l106 481h423l-11 -52h-366l-54 -247h358l-12 -52h-358l-29 -130h222l-8 -37h-222z" />
    <glyph glyph-name="lira" unicode="&#x20a4;" horiz-adv-x="504" 
d="M36 325l9 39h85q-32 53 -32 98q0 84 69 149.5t166 65.5q67 0 122.5 -32t70.5 -81l-53 -24q-10 38 -48.5 62.5t-89.5 24.5q-72 0 -123.5 -46t-51.5 -121q0 -47 31 -96h192l-8 -39h-160q23 -39 23 -77h119l-8 -38h-117q-12 -40 -44 -76.5t-67 -58.5q27 8 48 8q34 0 86 -22
t81 -22q53 0 96 41l16 -47q-56 -47 -114 -47q-46 0 -103.5 23.5t-101.5 23.5q-48 0 -116 -40l-12 48q67 26 116 72t62 97h-168l8 38h164q-2 35 -28 77h-119z" />
    <glyph glyph-name="uni20A6" unicode="&#x20a6;" horiz-adv-x="722" 
d="M573 0h-56l-125 246h-241l-54 -246h-57l54 246h-83l9 38h82l24 107h-82l7 37h83l53 239h58l122 -239h242l54 239h57l-53 -239h81l-7 -37h-82l-24 -107h82l-9 -38h-81zM386 391l54 -107h137l24 107h-215zM183 391l-23 -107h213l-54 107h-136zM225 578l-34 -150h110z
M460 246l76 -149l33 149h-109z" />
    <glyph glyph-name="peseta" unicode="&#x20a7;" horiz-adv-x="624" 
d="M97 0h-57l99 452h-82l9 40h82l39 175h239q72 0 121 -49.5t49 -117.5v-8h77l-9 -40h-73q-16 -74 -76.5 -124.5t-165.5 -50.5h-190zM355 329q71 0 116.5 34t58.5 89h-333l-27 -123h185zM233 615l-27 -123h329v4q0 48 -35.5 83.5t-87.5 35.5h-179z" />
    <glyph glyph-name="rupee" unicode="&#x20a8;" horiz-adv-x="996" 
d="M489 0h-65l-126 276h-151l-61 -276h-57l147 667h229q72 0 126.5 -46t54.5 -122q0 -94 -62.5 -155.5t-165.5 -64.5zM343 328h2q84 0 131.5 48.5t47.5 119.5q0 51 -38 85t-87 34h-177l-63 -287h184zM738 -12q-133 0 -194 85l37 36q20 -32 62.5 -54.5t95.5 -22.5
q58 0 93 29.5t35 70.5q0 28 -26.5 49.5t-64.5 36t-76 30t-64.5 42t-26.5 62.5q0 61 47.5 102t128.5 41q59 0 107 -23t69 -56l-34 -34q-16 29 -57.5 49t-88.5 20q-54 0 -86.5 -24.5t-32.5 -62.5q0 -27 26.5 -47t64.5 -34t76 -30t64.5 -44t26.5 -66q0 -64 -49 -109.5
t-133 -45.5z" />
    <glyph glyph-name="uni20A9" unicode="&#x20a9;" horiz-adv-x="867" 
d="M604 0h-64l-15 246h-182l-123 -246h-64l-16 246h-116l8 38h105l-7 107h-74l8 37h64l-16 239h63l12 -239h192l120 239h52l14 -239h192l118 239h66l-121 -239h61l-7 -37h-73l-54 -107h103l-9 -38h-113zM567 391l6 -107h113l53 107h-172zM189 391l5 -107h113l53 107h-171z
M415 391l-53 -107h161l-7 107h-101zM575 246l10 -166l82 166h-92zM196 246l9 -166l83 166h-92zM506 573l-72 -145h80z" />
    <glyph glyph-name="afii57636" unicode="&#x20aa;" horiz-adv-x="810" 
d="M491 0h-267l87 393h52l-76 -345h207q74 0 116 40t60 124l74 338h53l-76 -340q-24 -107 -76 -158.5t-154 -51.5zM148 550h197q92 0 152 -39.5t60 -126.5q0 -27 -8 -63l-36 -165h-53l37 167q6 24 6 49q0 65 -42 97.5t-109 32.5h-162l-111 -502h-52z" />
    <glyph glyph-name="Euro" unicode="&#x20ac;" horiz-adv-x="690" 
d="M389 -12q-123 0 -205 69.5t-93 184.5h-57l9 41h46q0 50 13 102h-36l9 41h39q42 115 138 183.5t207 68.5q88 0 156 -37t106 -106l-55 -25q-64 116 -211 116q-86 0 -162.5 -54t-114.5 -146h339l-10 -41h-343q-13 -52 -13 -102h334l-9 -41h-323q11 -93 75 -147.5t164 -54.5
q101 0 189 76l40 -34q-97 -94 -232 -94z" />
    <glyph glyph-name="afii61289" unicode="&#x2113;" horiz-adv-x="454" 
d="M141 516l-94 -422q-3 -17 -3 -32q0 -35 26.5 -54.5t69.5 -19.5q40 0 69 23l-10 41q-21 -19 -51 -19q-25 0 -37.5 12t-12.5 31q0 13 3 25l43 196l202 118q33 19 49.5 30t43 31.5t38.5 42t12 45.5q0 49 -46.5 81t-109.5 32q-77 0 -126 -42.5t-66 -118.5zM334 456l-177 -103
l35 159q13 60 50.5 92.5t90.5 32.5q41 0 72.5 -21.5t31.5 -54.5q0 -16 -7.5 -30t-24.5 -28t-30.5 -22.5t-40.5 -24.5z" />
    <glyph glyph-name="afii61352" unicode="&#x2116;" horiz-adv-x="1104" 
d="M562 0h-56l-292 578l-128 -578h-57l147 667h58l291 -570l127 570h57zM937 350q-66 0 -105.5 39t-39.5 102q0 77 52 133t127 56q66 0 105.5 -39t39.5 -102q0 -77 -52 -133t-127 -56zM938 387q59 0 96.5 45t37.5 107q0 46 -28 74.5t-73 28.5q-59 0 -96.5 -45t-37.5 -106
q0 -46 28 -75t73 -29z" />
    <glyph glyph-name="published" unicode="&#x2117;" horiz-adv-x="778" 
d="M754 334q0 -142 -101.5 -243.5t-244.5 -101.5q-142 0 -243 101t-101 244t101 244t243 101q143 0 244.5 -101.5t101.5 -243.5zM726 334q0 130 -93.5 223.5t-224.5 93.5q-130 0 -223 -93t-93 -224t93 -224t223 -93q131 0 224.5 93.5t93.5 223.5zM589 434q0 -56 -41 -91.5
t-102 -35.5h-123l-38 -176h-33l89 405h128q52 0 86 -28t34 -74zM556 432q0 33 -25.5 52.5t-66.5 19.5h-97l-36 -165h121q47 0 75.5 26t28.5 67z" />
    <glyph glyph-name="servicemark" unicode="&#x2120;" horiz-adv-x="476" 
d="M484 447h-28l40 182l-115 -182h-8l-35 182l-40 -182h-28l48 220h42l29 -160l99 160h44zM247 511q0 -32 -23 -52t-62 -20q-69 0 -96 40l22 19q23 -33 72 -33q24 0 38 11t14 29q0 15 -18 26.5t-39 18.5t-39 21t-18 34q0 29 23.5 48.5t60.5 19.5q63 0 86 -35l-23 -17
q-20 28 -65 28q-22 0 -35 -11t-13 -26t18 -26t39.5 -17t39.5 -21t18 -37z" />
    <glyph glyph-name="trademark" unicode="&#x2122;" horiz-adv-x="454" 
d="M464 447h-28l40 182l-115 -182h-8l-35 182l-40 -182h-28l48 220h43l29 -160l99 160h43zM257 641h-62l-43 -194h-28l43 194h-62l5 26h152z" />
    <glyph glyph-name="estimated" unicode="&#x212e;" horiz-adv-x="842" 
d="M829 324h-632q-4 0 -4 -5v-190q0 -15 9 -23q98 -103 240 -103q151 0 250 115h57q-54 -63 -135 -99.5t-174 -36.5q-161 0 -275.5 103t-114.5 248t114.5 248t275.5 103t275.5 -103t114.5 -248zM687 349v191q0 14 -10 24q-97 99 -236 99t-238 -102q-10 -10 -10 -24v-188
q0 -6 5 -6h485q4 0 4 6z" />
    <glyph glyph-name="onethird" unicode="&#x2153;" horiz-adv-x="781" 
d="M661 667l-574 -667h-45l573 667h46zM703 115q0 -47 -39.5 -84.5t-103.5 -37.5q-110 0 -152 72l32 25q38 -59 119 -59q45 0 71.5 25.5t26.5 64.5q0 29 -29 48t-75 19q-21 0 -28 -1l8 38q30 -2 59 -2q45 0 72.5 20.5t27.5 56.5q0 31 -28.5 49.5t-69.5 18.5q-59 0 -109 -44
l-20 29q59 53 131 53q60 0 100.5 -26t40.5 -74q0 -45 -31.5 -73t-79.5 -32q31 -6 54 -29.5t23 -56.5zM159 267h-46l74 337l-77 -66l-22 30l119 99h40z" />
    <glyph glyph-name="twothirds" unicode="&#x2154;" horiz-adv-x="898" 
d="M778 667l-574 -667h-45l573 667h46zM820 115q0 -47 -39.5 -84.5t-103.5 -37.5q-110 0 -152 72l32 25q38 -59 119 -59q45 0 71.5 25.5t26.5 64.5q0 29 -29 48t-75 19q-21 0 -28 -1l8 38q30 -2 59 -2q45 0 72.5 20.5t27.5 56.5q0 31 -28.5 49.5t-69.5 18.5q-59 0 -109 -44
l-20 29q59 53 131 53q60 0 100.5 -26t40.5 -74q0 -45 -31.5 -73t-79.5 -32q31 -6 54 -29.5t23 -56.5zM338 267h-281l9 39q63 38 96 59t76.5 51.5t65 52t37 47.5t15.5 50q0 34 -27 51.5t-64 17.5q-71 0 -113 -47l-22 30q52 55 135 55q55 0 96 -26t41 -79q0 -28 -16 -57
t-37.5 -52.5t-62 -53t-71 -49.5t-82.5 -51h213z" />
    <glyph glyph-name="oneeighth" unicode="&#x215b;" horiz-adv-x="781" 
d="M661 667l-574 -667h-45l573 667h46zM704 106q0 -49 -42 -81t-106 -32q-63 0 -105 28t-42 77q0 43 36.5 74.5t92.5 37.5q-78 29 -78 86q0 52 42.5 81t97.5 29t98 -25.5t43 -71.5q0 -42 -30 -71.5t-89 -36.5q35 -13 58.5 -37.5t23.5 -57.5zM696 300q0 34 -27 51.5t-69 17.5
q-40 0 -68 -20.5t-28 -54.5q0 -29 27.5 -48t53.5 -25q42 3 76.5 22t34.5 57zM659 108q0 26 -22.5 47.5t-59.5 33.5q-56 -4 -89.5 -28t-33.5 -60q0 -31 30 -51.5t70 -20.5q42 0 73.5 22.5t31.5 56.5zM159 267h-46l74 337l-77 -66l-22 30l119 99h40z" />
    <glyph glyph-name="threeeighths" unicode="&#x215c;" horiz-adv-x="898" 
d="M778 667l-574 -667h-45l573 667h46zM821 106q0 -49 -42 -81t-106 -32q-63 0 -105 28t-42 77q0 43 36.5 74.5t92.5 37.5q-78 29 -78 86q0 52 42.5 81t97.5 29t98 -25.5t43 -71.5q0 -42 -30 -71.5t-89 -36.5q35 -13 58.5 -37.5t23.5 -57.5zM813 300q0 34 -27 51.5t-69 17.5
q-40 0 -68 -20.5t-28 -54.5q0 -29 27.5 -48t53.5 -25q42 3 76.5 22t34.5 57zM776 108q0 26 -22.5 47.5t-59.5 33.5q-56 -4 -89.5 -28t-33.5 -60q0 -31 30 -51.5t70 -20.5q42 0 73.5 22.5t31.5 56.5zM365 382q0 -47 -39.5 -84.5t-103.5 -37.5q-110 0 -152 72l32 25
q38 -59 119 -59q45 0 71.5 25.5t26.5 64.5q0 29 -29 48t-75 19q-21 0 -28 -1l8 38q30 -2 59 -2q45 0 72.5 20.5t27.5 56.5q0 31 -28.5 49.5t-69.5 18.5q-59 0 -109 -44l-20 29q59 53 131 53q60 0 100.5 -26t40.5 -74q0 -45 -31.5 -73t-79.5 -32q31 -6 54 -29.5t23 -56.5z
" />
    <glyph glyph-name="fiveeighths" unicode="&#x215d;" horiz-adv-x="896" 
d="M777 667l-574 -667h-45l573 667h46zM819 106q0 -49 -42 -81t-106 -32q-63 0 -105 28t-42 77q0 43 36.5 74.5t92.5 37.5q-78 29 -78 86q0 52 42.5 81t97.5 29t98 -25.5t43 -71.5q0 -42 -30 -71.5t-89 -36.5q35 -13 58.5 -37.5t23.5 -57.5zM811 300q0 34 -27 51.5t-69 17.5
q-40 0 -68 -20.5t-28 -54.5q0 -29 27.5 -48t53.5 -25q42 3 76.5 22t34.5 57zM774 108q0 26 -22.5 47.5t-59.5 33.5q-56 -4 -89.5 -28t-33.5 -60q0 -31 30 -51.5t70 -20.5q42 0 73.5 22.5t31.5 56.5zM370 409q0 -64 -44 -106.5t-111 -42.5q-106 0 -144 73l33 25
q36 -60 111 -60q48 0 78.5 30t30.5 75q0 38 -26.5 58.5t-66.5 20.5q-52 0 -94 -39l-31 14l47 210h248l-8 -38h-203l-32 -145q39 34 90 34q50 0 86 -29.5t36 -79.5z" />
    <glyph glyph-name="seveneighths" unicode="&#x215e;" horiz-adv-x="811" 
d="M692 667l-574 -667h-45l573 667h46zM734 106q0 -49 -42 -81t-106 -32q-63 0 -105 28t-42 77q0 43 36.5 74.5t92.5 37.5q-78 29 -78 86q0 52 42.5 81t97.5 29t98 -25.5t43 -71.5q0 -42 -30 -71.5t-89 -36.5q35 -13 58.5 -37.5t23.5 -57.5zM726 300q0 34 -27 51.5t-69 17.5
q-40 0 -68 -20.5t-28 -54.5q0 -29 27.5 -48t53.5 -25q42 3 76.5 22t34.5 57zM689 108q0 26 -22.5 47.5t-59.5 33.5q-56 -4 -89.5 -28t-33.5 -60q0 -31 30 -51.5t70 -20.5q42 0 73.5 22.5t31.5 56.5zM401 636l-255 -369h-50l252 362h-228l8 38h280z" />
    <glyph glyph-name="arrowleft" unicode="&#x2190;" horiz-adv-x="582" 
d="M558 211h-269l12 -130l-281 205l281 204l-12 -129h269v-150z" />
    <glyph glyph-name="arrowup" unicode="&#x2191;" horiz-adv-x="582" 
d="M236 17v269l-130 -12l205 281l204 -281l-129 12v-269h-150z" />
    <glyph glyph-name="arrowright" unicode="&#x2192;" horiz-adv-x="582" 
d="M604 286l-281 -205l12 130h-268v150h268l-12 129z" />
    <glyph glyph-name="arrowdown" unicode="&#x2193;" horiz-adv-x="582" 
d="M386 555v-269l130 12l-205 -281l-204 281l129 -12v269h150z" />
    <glyph glyph-name="partialdiff" unicode="&#x2202;" horiz-adv-x="571" 
d="M261 -12q-95 0 -155.5 58t-60.5 147q0 122 74.5 208t179.5 86q51 0 97.5 -25.5t70.5 -79.5q-57 152 -220 272l39 40q109 -79 173.5 -182t64.5 -211q0 -131 -75 -222t-188 -91zM262 35q83 0 143 72.5t60 172.5q0 64 -41 112t-120 48q-83 0 -142.5 -69.5t-59.5 -170.5
q0 -73 42.5 -119t117.5 -46z" />
    <glyph glyph-name="product" unicode="&#x220f;" horiz-adv-x="673" 
d="M453 -90h-58l156 705h-265l-156 -705h-58l156 705h-111l11 52h603l-11 -52h-111z" />
    <glyph glyph-name="summation" unicode="&#x2211;" horiz-adv-x="571" 
d="M382 293l-175 322h388l11 52h-454l-11 -52l172 -317l-318 -336l-11 -52h455l11 52h-382z" />
    <glyph glyph-name="minus" unicode="&#x2212;" horiz-adv-x="496" 
d="M482 313h-438l9 42h439z" />
    <glyph glyph-name="radical" unicode="&#x221a;" horiz-adv-x="744" 
d="M382 0h-46l-64 338l-179 -67l-6 39l219 81l64 -335l385 611h47z" />
    <glyph glyph-name="infinity" unicode="&#x221e;" horiz-adv-x="642" 
d="M177 175q-61 0 -96 35.5t-35 95.5q0 76 47.5 132.5t120.5 56.5q51 0 87 -31.5t49 -83.5q69 115 153 115q61 0 96 -35.5t35 -95.5q0 -76 -47.5 -132.5t-121.5 -56.5q-50 0 -86 31.5t-49 82.5q-69 -114 -153 -114zM468 217q55 0 89 42.5t34 102.5q0 40 -25 65.5t-67 25.5
q-43 0 -75 -32t-64 -88q8 -56 36 -86t72 -30zM181 217q75 0 140 121q-8 55 -36.5 85t-72.5 30q-55 0 -89 -42t-34 -102q0 -40 25.5 -66t66.5 -26z" />
    <glyph glyph-name="integral" unicode="&#x222b;" horiz-adv-x="337" 
d="M2 -100h-61l9 43h62q67 0 85 81l138 620q27 124 139 124h62l-10 -43h-62q-67 0 -85 -81l-138 -620q-28 -124 -139 -124z" />
    <glyph glyph-name="approxequal" unicode="&#x2248;" horiz-adv-x="496" 
d="M22 216l11 47q39 -35 102 -35q47 0 111 31t120 31q62 0 105 -29l-11 -47q-40 34 -103 34q-47 0 -111 -30.5t-120 -30.5q-61 0 -104 29zM65 407l10 47q41 -34 102 -34q47 0 111 30.5t121 30.5q60 0 104 -28l-10 -48q-41 35 -103 35q-47 0 -111 -30.5t-121 -30.5
q-63 0 -103 28z" />
    <glyph glyph-name="notequal" unicode="&#x2260;" horiz-adv-x="496" 
d="M85 93h-48l105 123h-120l10 41h145l133 154h-244l9 42h271l104 121h49l-104 -121h118l-9 -42h-145l-133 -154h244l-9 -41h-270z" />
    <glyph glyph-name="lessequal" unicode="&#x2264;" horiz-adv-x="496" 
d="M433 95l-388 225l9 38l488 227l-12 -52l-429 -197l342 -195zM413 0h-438l9 41h438z" />
    <glyph glyph-name="greaterequal" unicode="&#x2265;" horiz-adv-x="496" 
d="M484 320l-489 -225l12 51l430 195l-343 197l10 47l388 -227zM413 0h-439l9 41h438z" />
    <glyph glyph-name="triangleright" unicode="&#x22b2;" horiz-adv-x="587" 
d="M609 286l-535 -309v618z" />
    <glyph glyph-name="triangleleft" unicode="&#x22b3;" horiz-adv-x="587" 
d="M555 595v-618l-535 309z" />
    <glyph glyph-name="uni2318" unicode="&#x2318;" horiz-adv-x="667" 
d="M210 153l17 79h-86q-36 0 -61.5 -26.5t-25.5 -62.5q0 -29 19 -48.5t47 -19.5q36 0 59 20.5t31 57.5zM271 435l16 69q2 8 2 21q0 31 -19 49t-50 18q-36 0 -61.5 -25t-25.5 -61q0 -32 20.5 -51.5t52.5 -19.5h65zM269 265h137l31 137h-137zM573 161q0 32 -20.5 51.5
t-52.5 19.5h-66l-15 -69q-2 -8 -2 -21q0 -31 19 -49t50 -18q36 0 61.5 25t25.5 61zM652 524q0 29 -19 48.5t-47 19.5q-72 0 -90 -78l-17 -79h86q36 0 61.5 26.5t25.5 62.5zM607 160q0 -48 -39 -83t-89 -35q-42 0 -70 28t-28 70q0 14 3 29l15 63h-137l-20 -87
q-11 -46 -45 -74.5t-80 -28.5q-41 0 -70 28t-29 69q0 49 38 87.5t87 38.5h91l31 137h-66q-45 0 -72.5 29t-27.5 76q0 48 38.5 83t88.5 35q42 0 70 -28t28 -70q0 -14 -3 -29l-14 -63h137l19 87q11 46 45 74.5t80 28.5q42 0 71 -28t29 -69q0 -50 -38 -88t-87 -38h-91l-31 -137
h63q46 0 74.5 -29t28.5 -76z" />
    <glyph glyph-name="uni2318" unicode="&#xf8ff;" horiz-adv-x="667" 
d="M210 153l17 79h-86q-36 0 -61.5 -26.5t-25.5 -62.5q0 -29 19 -48.5t47 -19.5q36 0 59 20.5t31 57.5zM271 435l16 69q2 8 2 21q0 31 -19 49t-50 18q-36 0 -61.5 -25t-25.5 -61q0 -32 20.5 -51.5t52.5 -19.5h65zM269 265h137l31 137h-137zM573 161q0 32 -20.5 51.5
t-52.5 19.5h-66l-15 -69q-2 -8 -2 -21q0 -31 19 -49t50 -18q36 0 61.5 25t25.5 61zM652 524q0 29 -19 48.5t-47 19.5q-72 0 -90 -78l-17 -79h86q36 0 61.5 26.5t25.5 62.5zM607 160q0 -48 -39 -83t-89 -35q-42 0 -70 28t-28 70q0 14 3 29l15 63h-137l-20 -87
q-11 -46 -45 -74.5t-80 -28.5q-41 0 -70 28t-29 69q0 49 38 87.5t87 38.5h91l31 137h-66q-45 0 -72.5 29t-27.5 76q0 48 38.5 83t88.5 35q42 0 70 -28t28 -70q0 -14 -3 -29l-14 -63h137l19 87q11 46 45 74.5t80 28.5q42 0 71 -28t29 -69q0 -50 -38 -88t-87 -38h-91l-31 -137
h63q46 0 74.5 -29t28.5 -76z" />
    <glyph glyph-name="blacksquare" unicode="&#x25a0;" horiz-adv-x="661" 
d="M638 0h-571v572h571v-572z" />
    <glyph glyph-name="triagup" unicode="&#x25b2;" horiz-adv-x="616" 
d="M637 29l-619 1l309 535z" />
    <glyph glyph-name="triagdn" unicode="&#x25bc;" horiz-adv-x="616" 
d="M637 510l-310 -535l-309 535h619z" />
    <glyph glyph-name="lozenge" unicode="&#x25ca;" horiz-adv-x="375" 
d="M144 0h-21l-84 334l231 333h21l85 -333zM142 45l197 293l-67 284l-196 -292z" />
    <glyph glyph-name="circlesolid" unicode="&#x25cf;" horiz-adv-x="695" 
d="M664 285q0 -123 -87 -210t-210 -87t-210 87t-87 210t87 210t210 87t210 -87t87 -210z" />
    <glyph glyph-name="blackstar" unicode="&#x2605;" horiz-adv-x="759" 
d="M779 421l-235 -171l90 -275l-235 170l-234 -170l89 275l-234 171h290l89 276l90 -276h290z" />
    <glyph glyph-name="ballotbox" unicode="&#x2610;" horiz-adv-x="661" 
d="M636 0h-571v572h571v-572zM592 41v490h-483v-490h483z" />
    <glyph glyph-name="boxchecked" unicode="&#x2611;" horiz-adv-x="661" 
d="M711 698l-69 -126h14v-572h-571v572h509l81 150zM612 41v474l-230 -424l-202 246l33 31l163 -201l196 364h-443v-490h483z" />
    <glyph glyph-name="diamond" unicode="&#x2666;" horiz-adv-x="501" 
d="M521 285l-251 -250l-250 250l250 251z" />
    <glyph glyph-name="checkmark" unicode="&#x2713;" horiz-adv-x="531" 
d="M551 698l-329 -607l-202 246l33 31l163 -201l299 555z" />
    <glyph glyph-name="perthousand.onum" unicode="&#xf628;" horiz-adv-x="867" 
d="M328 445q0 -62 -42.5 -108.5t-104.5 -46.5q-53 0 -85.5 31.5t-32.5 84.5q0 62 42.5 109t104.5 47q53 0 85.5 -32t32.5 -85zM573 550l-505 -550h-45l504 550h46zM286 443q0 36 -20.5 60.5t-56.5 24.5q-44 0 -74.5 -36.5t-30.5 -84.5q0 -35 21 -59t57 -24q44 0 74 36t30 83
zM532 143q0 -62 -42.5 -108.5t-104.5 -46.5q-53 0 -85.5 31.5t-32.5 85.5q0 62 42.5 109t104.5 47q53 0 85.5 -32t32.5 -86zM490 142q0 36 -20 60t-57 24q-44 0 -74.5 -36.5t-30.5 -83.5q0 -35 21 -59t57 -24q44 0 74 36t30 83zM816 143q0 -62 -42.5 -108.5t-104.5 -46.5
q-53 0 -85 31.5t-32 85.5q0 62 42 109t104 47q53 0 85.5 -32t32.5 -86zM775 142q0 36 -20.5 60t-57.5 24q-44 0 -74 -36.5t-30 -83.5q0 -35 20.5 -59t57.5 -24q43 0 73.5 36t30.5 83z" />
    <glyph glyph-name="zero.tzero" unicode="&#xf638;" horiz-adv-x="604" 
d="M274 -12q-101 0 -156 68l-47 -56h-54l77 93q-31 61 -31 151q0 101 35.5 198.5t108 166t164.5 68.5q100 0 153 -66l47 56h54l-77 -93q31 -61 31 -152q0 -101 -35 -198.5t-107 -166.5t-163 -69zM278 40q54 0 101 36.5t77 94t47 124.5t17 131q0 53 -14 98l-351 -422
q40 -62 123 -62zM123 240q0 -56 13 -96l350 421q-39 60 -121 60q-54 0 -101 -36.5t-77 -93.5t-47 -124t-17 -131z" />
    <glyph glyph-name="zero.tnum" unicode="&#xf639;" horiz-adv-x="588" 
d="M266 -12q-102 0 -156.5 69t-54.5 187q0 101 35.5 198.5t108 166t164.5 68.5q102 0 155 -68t53 -187q0 -101 -35 -198.5t-107 -166.5t-163 -69zM270 40q54 0 101 36.5t77 94t47 124.5t17 131q0 91 -37.5 145t-117.5 54q-54 0 -101 -36.5t-77 -93.5t-47 -124t-17 -131
q0 -91 37.5 -145.5t117.5 -54.5z" />
    <glyph glyph-name="two.tnum" unicode="&#xf63a;" horiz-adv-x="588" 
d="M455 0h-440l14 60q78 50 127.5 82.5t111 76.5t99 77t72 71t50.5 73t16 69q0 54 -42.5 85t-111.5 31q-106 0 -173 -67l-31 40q36 36 91 57.5t115 21.5q89 0 151 -42.5t62 -123.5q0 -46 -26 -95.5t-64.5 -92t-103.5 -93.5t-120 -88.5t-137 -89.5h351z" />
    <glyph glyph-name="three.tnum" unicode="&#xf63b;" horiz-adv-x="588" 
d="M276 -12q-82 0 -149.5 39t-90.5 100l46 30q22 -54 75 -85.5t118 -31.5q80 0 128 45t48 115q0 53 -43.5 85.5t-115.5 32.5q-35 0 -57 -2l13 54q9 -1 89 -1q72 0 122.5 36t50.5 101q0 51 -44.5 85t-117.5 34q-97 0 -171 -70l-28 40q37 38 91.5 60t110.5 22q96 0 156.5 -44
t60.5 -122q0 -74 -55.5 -121t-125.5 -52q52 -12 86.5 -49t34.5 -92q0 -87 -65 -148t-167 -61z" />
    <glyph glyph-name="four.tnum" unicode="&#xf63c;" horiz-adv-x="588" 
d="M376 0h-57l40 182h-316l13 55l386 430h81l-96 -433h98l-11 -52h-98zM370 234l83 376l-340 -376h257z" />
    <glyph glyph-name="five.tnum" unicode="&#xf63d;" horiz-adv-x="588" 
d="M274 -12q-166 0 -229 135l46 33q51 -116 188 -116q76 0 130 52.5t54 129.5q0 67 -45 104.5t-116 37.5q-76 0 -146 -50l-38 22l73 331h385l-11 -52h-328l-55 -247q60 46 143 46t140.5 -49.5t57.5 -137.5q0 -98 -70.5 -168.5t-178.5 -70.5z" />
    <glyph glyph-name="six.tnum" unicode="&#xf63e;" horiz-adv-x="588" 
d="M281 -12q-103 0 -158.5 62.5t-55.5 177.5q0 55 11 114.5t36.5 119.5t61 107.5t89.5 77.5t118 30q138 0 192 -104l-43 -37q-40 89 -152 89q-51 0 -94 -25.5t-71.5 -69t-47.5 -90.5t-31 -102q-1 -3 -5 -19q31 36 86.5 64.5t113.5 28.5q89 0 144 -46.5t55 -126.5
q0 -102 -72 -176.5t-177 -74.5zM283 40q80 0 133.5 57.5t53.5 133.5q0 60 -43 95.5t-114 35.5q-103 0 -189 -96q-2 -18 -2 -53q0 -78 42 -125.5t119 -47.5z" />
    <glyph glyph-name="seven.tnum" unicode="&#xf63f;" horiz-adv-x="588" 
d="M176 0h-66l414 615h-366l11 52h437l-9 -40z" />
    <glyph glyph-name="eight.tnum" unicode="&#xf640;" horiz-adv-x="588" 
d="M274 -12q-101 0 -165 44t-64 123q0 76 57.5 127.5t151.5 68.5q-50 19 -86 56t-36 87q0 87 68.5 135t156.5 48q89 0 152 -43.5t63 -117.5q0 -73 -54 -119.5t-142 -58.5q52 -22 91.5 -62t39.5 -98q0 -82 -68 -136t-165 -54zM321 368q85 7 137.5 43.5t52.5 98.5
q0 48 -45.5 81t-110.5 33q-68 0 -116.5 -36t-48.5 -97q0 -43 41.5 -77.5t89.5 -45.5zM275 40q68 0 121 39t53 103q0 50 -44 86.5t-95 50.5q-89 -6 -146.5 -48.5t-57.5 -105.5q0 -59 48.5 -92t120.5 -33z" />
    <glyph glyph-name="nine.tnum" unicode="&#xf641;" horiz-adv-x="588" 
d="M345 678q103 0 158.5 -62.5t55.5 -177.5q0 -55 -11 -114.5t-36 -119.5t-61 -107.5t-90 -77.5t-118 -30q-137 0 -191 104l42 37q40 -89 153 -89q51 0 93.5 25.5t71 69t47.5 90.5t32 102q4 18 4 19q-31 -36 -86.5 -64.5t-113.5 -28.5q-89 0 -144 46.5t-55 126.5
q0 102 72 176.5t177 74.5zM343 626q-79 0 -133 -57.5t-54 -133.5q0 -60 43 -95.5t114 -35.5q105 0 189 96q2 18 2 53q0 78 -42 125.5t-119 47.5z" />
    <glyph glyph-name="percent.onum" unicode="&#xf642;" horiz-adv-x="582" 
d="M328 445q0 -62 -42.5 -108.5t-104.5 -46.5q-53 0 -85.5 31.5t-32.5 84.5q0 62 42.5 109t104.5 47q53 0 85.5 -32t32.5 -85zM573 550l-505 -550h-45l504 550h46zM286 443q0 36 -20.5 60.5t-56.5 24.5q-44 0 -74.5 -36.5t-30.5 -84.5q0 -35 21 -59t57 -24q44 0 74 36t30 83
zM532 143q0 -62 -42.5 -108.5t-104.5 -46.5q-53 0 -85.5 31.5t-32.5 85.5q0 62 42.5 109t104.5 47q53 0 85.5 -32t32.5 -86zM490 142q0 36 -20 60t-57 24q-44 0 -74.5 -36.5t-30.5 -83.5q0 -35 21 -59t57 -24q44 0 74 36t30 83z" />
    <glyph glyph-name="zero.tonum" unicode="&#xf643;" horiz-adv-x="588" 
d="M554 328q0 -53 -18 -110.5t-51.5 -109.5t-89 -86t-121.5 -34q-112 0 -170 62.5t-58 171.5q0 53 18 110.5t51.5 109.5t89 86t122.5 34q111 0 169 -62.5t58 -171.5zM494 325q0 89 -42 137t-126 48q-53 0 -97 -29t-69.5 -73.5t-39.5 -92.5t-14 -90q0 -89 42 -137t126 -48
q43 0 80.5 19.5t62.5 50t43 69t26 76t8 70.5z" />
    <glyph glyph-name="one.tonum" unicode="&#xf644;" horiz-adv-x="588" 
d="M318 0h-57l103 472l-131 -114l-27 37l181 155h52z" />
    <glyph glyph-name="two.tonum" unicode="&#xf645;" horiz-adv-x="588" 
d="M442 0h-415l10 50q215 85 328.5 166.5t113.5 170.5q0 55 -42.5 89t-107.5 34q-109 0 -190 -78l-30 39q91 91 224 91q89 0 147.5 -44.5t58.5 -122.5q0 -53 -31.5 -104t-88.5 -94t-122 -78t-145 -67h301z" />
    <glyph glyph-name="three.tonum" unicode="&#xf646;" horiz-adv-x="588" 
d="M250 -138q-82 0 -149.5 39t-90.5 100l46 30q22 -54 75 -85.5t118 -31.5q80 0 128 45t48 115q0 53 -43.5 85.5t-115.5 32.5q-35 0 -57 -2l13 54q9 -1 89 -1q72 0 122.5 36t50.5 101q0 51 -44.5 85t-117.5 34q-97 0 -171 -70l-28 40q37 38 91.5 60t110.5 22q96 0 156.5 -44
t60.5 -122q0 -74 -55.5 -121t-125.5 -52q52 -12 86.5 -49t34.5 -92q0 -87 -65 -148t-167 -61z" />
    <glyph glyph-name="four.tonum" unicode="&#xf647;" horiz-adv-x="588" 
d="M488 66h-97l-41 -183h-57l40 183h-316l12 52l391 432h77l-95 -432h97zM344 118l83 375l-340 -375h257z" />
    <glyph glyph-name="five.tonum" unicode="&#xf648;" horiz-adv-x="588" 
d="M248 -129q-166 0 -229 135l46 33q51 -116 188 -116q76 0 130 52.5t54 129.5q0 67 -45 104.5t-116 37.5q-76 0 -146 -50l-38 22l73 331h385l-11 -52h-328l-55 -247q60 46 143 46t140.5 -49.5t57.5 -137.5q0 -98 -70.5 -168.5t-178.5 -70.5z" />
    <glyph glyph-name="six.tonum" unicode="&#xf649;" horiz-adv-x="588" 
d="M281 -12q-103 0 -158.5 62.5t-55.5 177.5q0 55 11 114.5t36.5 119.5t61 107.5t89.5 77.5t118 30q138 0 192 -104l-43 -37q-40 89 -152 89q-51 0 -94 -25.5t-71.5 -69t-47.5 -90.5t-31 -102q-1 -3 -5 -19q31 36 86.5 64.5t113.5 28.5q89 0 144 -46.5t55 -126.5
q0 -102 -72 -176.5t-177 -74.5zM283 40q80 0 133.5 57.5t53.5 133.5q0 60 -43 95.5t-114 35.5q-103 0 -189 -96q-2 -18 -2 -53q0 -78 42 -125.5t119 -47.5z" />
    <glyph glyph-name="seven.tonum" unicode="&#xf64a;" horiz-adv-x="588" 
d="M150 -117h-66l414 615h-366l11 52h437l-9 -40z" />
    <glyph glyph-name="eight.tonum" unicode="&#xf64b;" horiz-adv-x="588" 
d="M274 -12q-101 0 -165 44t-64 123q0 76 57.5 127.5t151.5 68.5q-50 19 -86 56t-36 87q0 87 68.5 135t156.5 48q89 0 152 -43.5t63 -117.5q0 -73 -54 -119.5t-142 -58.5q52 -22 91.5 -62t39.5 -98q0 -82 -68 -136t-165 -54zM321 368q85 7 137.5 43.5t52.5 98.5
q0 48 -45.5 81t-110.5 33q-68 0 -116.5 -36t-48.5 -97q0 -43 41.5 -77.5t89.5 -45.5zM275 40q68 0 121 39t53 103q0 50 -44 86.5t-95 50.5q-89 -6 -146.5 -48.5t-57.5 -105.5q0 -59 48.5 -92t120.5 -33z" />
    <glyph glyph-name="nine.tonum" unicode="&#xf64c;" horiz-adv-x="588" 
d="M319 561q103 0 158.5 -62.5t55.5 -177.5q0 -55 -11 -114.5t-36 -119.5t-61 -107.5t-90 -77.5t-118 -30q-137 0 -191 104l42 37q40 -89 153 -89q51 0 93.5 25.5t71 69t47.5 90.5t32 102q4 18 4 19q-31 -36 -86.5 -64.5t-113.5 -28.5q-89 0 -144 46.5t-55 126.5
q0 102 72 176.5t177 74.5zM317 509q-79 0 -133 -57.5t-54 -133.5q0 -60 43 -95.5t114 -35.5q105 0 189 96q2 18 2 53q0 78 -42 125.5t-119 47.5z" />
    <glyph glyph-name="colonmonetary.onum" unicode="&#xf64d;" horiz-adv-x="581" 
d="M184 -53l32 58q-30 11 -55 26l-47 -84h-37l58 104q-81 68 -81 186q0 132 96.5 228.5t227.5 96.5q20 0 40 -3l23 40h36l-26 -47q34 -10 56 -23l39 70h38l-49 -88q33 -25 56 -61l-47 -24q-13 22 -35 39l-236 -424q21 -4 50 -4q100 0 170 71l38 -31q-92 -89 -209 -89
q-37 0 -75 8l-27 -49h-36zM111 240q0 -84 52 -139l229 411q-5 1 -15 1q-106 0 -186 -80t-80 -193zM187 79q24 -18 54 -29l241 434q-27 16 -56 23z" />
    <glyph glyph-name="Euro.onum" unicode="&#xf64e;" horiz-adv-x="610" 
d="M431 318h-280q-11 -39 -11 -78v-9h272l-8 -37h-260q15 -72 71.5 -114.5t136.5 -42.5q100 0 170 71l38 -31q-92 -89 -209 -89q-106 0 -178.5 55.5t-86.5 150.5h-62l7 37h52v6q0 44 10 81h-42l8 38h47q37 91 120 148.5t181 57.5q68 0 125 -30.5t88 -81.5l-47 -24
q-25 40 -70.5 63.5t-96.5 23.5q-76 0 -141.5 -43t-98.5 -114h274z" />
    <glyph glyph-name="florin.onum" unicode="&#xf64f;" horiz-adv-x="354" 
d="M30 -119h-58l76 340h-54v41h62l34 150q33 149 141 149q48 0 79 -30l-28 -41q-15 19 -45 19q-67 0 -89 -102l-33 -145h117v-41h-126z" />
    <glyph glyph-name="numbersign.onum" unicode="&#xf650;" horiz-adv-x="488" 
d="M496 390l-19 -37h-92l-84 -152h93l-21 -39h-94l-90 -162h-45l90 162h-96l-89 -162h-45l89 162h-88l21 39h90l84 152h-90l19 37h91l90 160h45l-90 -160h95l91 160h45l-91 -160h91zM339 353h-94l-85 -152h96z" />
    <glyph glyph-name="sterling.onum" unicode="&#xf651;" horiz-adv-x="415" 
d="M9 223l9 39h89q-37 70 -37 115q0 78 55 131t134 53q55 0 102 -27.5t62 -74.5l-47 -19q-10 38 -42.5 58.5t-72.5 20.5q-56 0 -96.5 -38t-40.5 -95q0 -17 4.5 -36t8.5 -28.5t14.5 -32.5t12.5 -27h134l-9 -39h-110q4 -15 4 -32q0 -36 -26 -73t-57 -55q10 3 23 3
q30 0 75 -15.5t66 -15.5q44 0 76 32l18 -40q-41 -39 -99 -39q-37 0 -84.5 17.5t-82.5 17.5q-36 0 -92 -32l-11 44q64 25 103.5 66.5t39.5 83.5q0 15 -7 38h-116z" />
    <glyph glyph-name="yen.onum" unicode="&#xf652;" horiz-adv-x="539" 
d="M245 0h-55l25 116h-221l8 38h222l18 80h-222l9 39h193l-143 277h64l135 -266l249 266h67l-262 -277h189l-9 -39h-216l-18 -80h216l-8 -38h-216z" />
    <glyph glyph-name="cent.onum" unicode="&#xf654;" horiz-adv-x="581" 
d="M322 -12h-15l-19 -84h-43l19 89q-95 15 -152.5 80.5t-57.5 163.5q0 132 96.5 228.5t227.5 96.5h13l12 55h44l-14 -61q107 -22 158 -106l-47 -24q-40 63 -122 82l-104 -471h5q100 0 170 71l38 -31q-92 -89 -209 -89zM111 240q0 -78 45 -131t119 -68l105 472h-3
q-106 0 -186 -80t-80 -193z" />
    <glyph glyph-name="zero.dnom" unicode="&#xf655;" 
d="M345 251q0 -36 -10.5 -77.5t-31.5 -83.5t-60 -69.5t-89 -27.5q-66 0 -101 42.5t-35 112.5q0 36 10.5 77.5t31.5 83.5t60 69.5t89 27.5q66 0 101 -42t35 -113zM299 252q0 116 -91 116q-38 0 -68 -23t-45.5 -59t-23 -71.5t-7.5 -67.5q0 -116 91 -116q38 0 68 23t45.5 59
t23 71.5t7.5 67.5z" />
    <glyph glyph-name="one.dnom" unicode="&#xf656;" horiz-adv-x="214" 
d="M100 0h-46l74 337l-77 -66l-22 30l119 99h40z" />
    <glyph glyph-name="two.dnom" unicode="&#xf657;" 
d="M279 0h-281l9 39q63 38 96 59t76.5 51.5t65 52t37 47.5t15.5 50q0 34 -27 51.5t-64 17.5q-71 0 -113 -47l-22 30q52 55 135 55q55 0 96 -26t41 -79q0 -28 -16 -57t-37.5 -52.5t-62 -53t-71 -49.5t-82.5 -51h213z" />
    <glyph glyph-name="three.dnom" unicode="&#xf658;" 
d="M306 115q0 -47 -39.5 -84.5t-103.5 -37.5q-110 0 -152 72l32 25q38 -59 119 -59q45 0 71.5 25.5t26.5 64.5q0 29 -29 48t-75 19q-21 0 -28 -1l8 38q30 -2 59 -2q45 0 72.5 20.5t27.5 56.5q0 31 -28.5 49.5t-69.5 18.5q-59 0 -109 -44l-20 29q59 53 131 53q60 0 100.5 -26
t40.5 -74q0 -45 -31.5 -73t-79.5 -32q31 -6 54 -29.5t23 -56.5z" />
    <glyph glyph-name="four.dnom" unicode="&#xf659;" 
d="M313 107h-60l-24 -107h-44l23 107h-196l8 35l236 258h61l-57 -256h60zM216 144l47 211l-196 -211h149z" />
    <glyph glyph-name="five.dnom" unicode="&#xf65a;" 
d="M311 142q0 -64 -44 -106.5t-111 -42.5q-106 0 -144 73l33 25q36 -60 111 -60q48 0 78.5 30t30.5 75q0 38 -26.5 58.5t-66.5 20.5q-52 0 -94 -39l-31 14l47 210h248l-8 -38h-203l-32 -145q39 34 90 34q50 0 86 -29.5t36 -79.5z" />
    <glyph glyph-name="six.dnom" unicode="&#xf65b;" 
d="M317 142q0 -60 -41 -104.5t-111 -44.5t-106 39t-36 104q0 109 56.5 189.5t140.5 80.5q40 0 74 -13.5t50 -36.5l-29 -31q-26 43 -96 43q-46 0 -82 -37t-51 -76.5t-15 -64.5v-4q55 65 121 65q53 0 89 -28.5t36 -80.5zM271 136q0 37 -26 57.5t-69 20.5q-56 0 -108 -64
q-2 -5 -2 -22q0 -45 27 -71t71 -26q49 0 78 31.5t29 73.5z" />
    <glyph glyph-name="seven.dnom" unicode="&#xf65c;" horiz-adv-x="359" 
d="M342 369l-255 -369h-50l252 362h-228l8 38h280z" />
    <glyph glyph-name="eight.dnom" unicode="&#xf65d;" 
d="M307 106q0 -49 -42 -81t-106 -32q-63 0 -105 28t-42 77q0 43 36.5 74.5t92.5 37.5q-78 29 -78 86q0 52 42.5 81t97.5 29t98 -25.5t43 -71.5q0 -42 -30 -71.5t-89 -36.5q35 -13 58.5 -37.5t23.5 -57.5zM299 300q0 34 -27 51.5t-69 17.5q-40 0 -68 -20.5t-28 -54.5
q0 -29 27.5 -48t53.5 -25q42 3 76.5 22t34.5 57zM262 108q0 26 -22.5 47.5t-59.5 33.5q-56 -4 -89.5 -28t-33.5 -60q0 -31 30 -51.5t70 -20.5q42 0 73.5 22.5t31.5 56.5z" />
    <glyph glyph-name="nine.dnom" unicode="&#xf65e;" 
d="M47 258q0 60 41 104.5t112 44.5q70 0 105.5 -39t35.5 -104q0 -109 -56 -189.5t-140 -80.5q-88 0 -125 50l30 31q26 -43 95 -43q46 0 82 37t51 76.5t15 64.5v4q-55 -65 -121 -65q-53 0 -89 28.5t-36 80.5zM93 264q0 -37 26.5 -57.5t69.5 -20.5q55 0 107 64q2 5 2 22
q0 45 -26.5 71t-71.5 26q-49 0 -78 -31.5t-29 -73.5z" />
    <glyph glyph-name="zero.numr" unicode="&#xf661;" 
d="M404 518q0 -36 -10.5 -77.5t-31.5 -83.5t-60 -69.5t-89 -27.5q-66 0 -101 42.5t-35 112.5q0 36 10.5 77.5t31.5 83.5t60 69.5t89 27.5q66 0 101 -42t35 -113zM358 519q0 116 -91 116q-38 0 -68 -23t-45.5 -59t-23 -71.5t-7.5 -67.5q0 -116 91 -116q38 0 68 23t45.5 59
t23 71.5t7.5 67.5z" />
    <glyph glyph-name="one.numr" unicode="&#xf662;" horiz-adv-x="214" 
d="M159 267h-46l74 337l-77 -66l-22 30l119 99h40z" />
    <glyph glyph-name="two.numr" unicode="&#xf663;" 
d="M338 267h-281l9 39q63 38 96 59t76.5 51.5t65 52t37 47.5t15.5 50q0 34 -27 51.5t-64 17.5q-71 0 -113 -47l-22 30q52 55 135 55q55 0 96 -26t41 -79q0 -28 -16 -57t-37.5 -52.5t-62 -53t-71 -49.5t-82.5 -51h213z" />
    <glyph glyph-name="three.numr" unicode="&#xf664;" 
d="M365 382q0 -47 -39.5 -84.5t-103.5 -37.5q-110 0 -152 72l32 25q38 -59 119 -59q45 0 71.5 25.5t26.5 64.5q0 29 -29 48t-75 19q-21 0 -28 -1l8 38q30 -2 59 -2q45 0 72.5 20.5t27.5 56.5q0 31 -28.5 49.5t-69.5 18.5q-59 0 -109 -44l-20 29q59 53 131 53q60 0 100.5 -26
t40.5 -74q0 -45 -31.5 -73t-79.5 -32q31 -6 54 -29.5t23 -56.5z" />
    <glyph glyph-name="four.numr" unicode="&#xf665;" 
d="M372 374h-60l-24 -107h-44l23 107h-196l8 35l236 258h61l-57 -256h60zM275 411l47 211l-196 -211h149z" />
    <glyph glyph-name="five.numr" unicode="&#xf666;" 
d="M370 409q0 -64 -44 -106.5t-111 -42.5q-106 0 -144 73l33 25q36 -60 111 -60q48 0 78.5 30t30.5 75q0 38 -26.5 58.5t-66.5 20.5q-52 0 -94 -39l-31 14l47 210h248l-8 -38h-203l-32 -145q39 34 90 34q50 0 86 -29.5t36 -79.5z" />
    <glyph glyph-name="six.numr" unicode="&#xf667;" 
d="M376 409q0 -60 -41 -104.5t-111 -44.5t-106 39t-36 104q0 109 56.5 189.5t140.5 80.5q40 0 74 -13.5t50 -36.5l-29 -31q-26 43 -96 43q-46 0 -82 -37t-51 -76.5t-15 -64.5v-4q55 65 121 65q53 0 89 -28.5t36 -80.5zM330 403q0 37 -26 57.5t-69 20.5q-56 0 -108 -64
q-2 -5 -2 -22q0 -45 27 -71t71 -26q49 0 78 31.5t29 73.5z" />
    <glyph glyph-name="seven.numr" unicode="&#xf668;" horiz-adv-x="359" 
d="M401 636l-255 -369h-50l252 362h-228l8 38h280z" />
    <glyph glyph-name="eight.numr" unicode="&#xf669;" 
d="M366 373q0 -49 -42 -81t-106 -32q-63 0 -105 28t-42 77q0 43 36.5 74.5t92.5 37.5q-78 29 -78 86q0 52 42.5 81t97.5 29t98 -25.5t43 -71.5q0 -42 -30 -71.5t-89 -36.5q35 -13 58.5 -37.5t23.5 -57.5zM358 567q0 34 -27 51.5t-69 17.5q-40 0 -68 -20.5t-28 -54.5
q0 -29 27.5 -48t53.5 -25q42 3 76.5 22t34.5 57zM321 375q0 26 -22.5 47.5t-59.5 33.5q-56 -4 -89.5 -28t-33.5 -60q0 -31 30 -51.5t70 -20.5q42 0 73.5 22.5t31.5 56.5z" />
    <glyph glyph-name="nine.numr" unicode="&#xf66a;" 
d="M106 525q0 60 41 104.5t112 44.5q70 0 105.5 -39t35.5 -104q0 -109 -56 -189.5t-140 -80.5q-88 0 -125 50l30 31q26 -43 95 -43q46 0 82 37t51 76.5t15 64.5v4q-55 -65 -121 -65q-53 0 -89 28.5t-36 80.5zM152 531q0 -37 26.5 -57.5t69.5 -20.5q55 0 107 64q2 5 2 22
q0 45 -26.5 71t-71.5 26q-49 0 -78 -31.5t-29 -73.5z" />
    <glyph glyph-name="Abreve.smcp" unicode="&#xf66d;" horiz-adv-x="562" 
d="M316 550h64l116 -550h-60l-28 133h-300l-85 -133h-65zM400 182l-63 308l-200 -308h263zM556 694q-85 -88 -194 -88q-53 0 -94 23.5t-63 64.5l33 25q38 -75 130 -75q93 0 163 75z" />
    <glyph glyph-name="Amacron.smcp" unicode="&#xf66e;" horiz-adv-x="562" 
d="M316 550h64l116 -550h-60l-28 133h-300l-85 -133h-65zM400 182l-63 308l-200 -308h263zM548 630h-362l8 38h362z" />
    <glyph glyph-name="Aogonek.smcp" unicode="&#xf66f;" horiz-adv-x="562" 
d="M316 550h64l116 -550h-1q-104 -45 -104 -110q0 -43 46 -43q35 0 59 43l26 -18q-36 -58 -90 -58q-34 0 -55.5 18.5t-21.5 51.5q0 72 80 118l-27 131h-300l-85 -133h-65zM400 182l-63 308l-200 -308h263z" />
    <glyph glyph-name="AEacute.smcp" unicode="&#xf670;" horiz-adv-x="811" 
d="M680 750l-204 -144h-45l186 144h63zM701 0h-369l30 133h-225l-114 -133h-65l476 550h388l-10 -49h-314l-43 -194h307l-10 -49h-308l-46 -209h314zM372 182l69 308l-266 -308h197z" />
    <glyph glyph-name="Cacute.smcp" unicode="&#xf671;" horiz-adv-x="581" 
d="M322 -12q-118 0 -193 68t-75 181q0 132 96.5 228.5t227.5 96.5q68 0 125 -30.5t88 -81.5l-47 -24q-25 40 -70.5 63.5t-96.5 23.5q-106 0 -186 -80t-80 -193q0 -91 60 -147t152 -56q100 0 170 71l38 -31q-92 -89 -209 -89zM613 750l-204 -144h-45l186 144h63z" />
    <glyph glyph-name="Ccaron.smcp" unicode="&#xf672;" horiz-adv-x="581" 
d="M322 -12q-118 0 -193 68t-75 181q0 132 96.5 228.5t227.5 96.5q68 0 125 -30.5t88 -81.5l-47 -24q-25 40 -70.5 63.5t-96.5 23.5q-106 0 -186 -80t-80 -193q0 -91 60 -147t152 -56q100 0 170 71l38 -31q-92 -89 -209 -89zM456 606h-54l-68 144h38l61 -113l109 113h42z
" />
    <glyph glyph-name="Ccircumflex.smcp" unicode="&#xf673;" horiz-adv-x="581" 
d="M322 -12q-118 0 -193 68t-75 181q0 132 96.5 228.5t227.5 96.5q68 0 125 -30.5t88 -81.5l-47 -24q-25 40 -70.5 63.5t-96.5 23.5q-106 0 -186 -80t-80 -193q0 -91 60 -147t152 -56q100 0 170 71l38 -31q-92 -89 -209 -89zM552 606h-38l-62 113l-108 -113h-42l129 144h54z
" />
    <glyph glyph-name="Cdotaccent.smcp" unicode="&#xf674;" horiz-adv-x="581" 
d="M322 -12q-118 0 -193 68t-75 181q0 132 96.5 228.5t227.5 96.5q68 0 125 -30.5t88 -81.5l-47 -24q-25 40 -70.5 63.5t-96.5 23.5q-106 0 -186 -80t-80 -193q0 -91 60 -147t152 -56q100 0 170 71l38 -31q-92 -89 -209 -89zM480 677q0 -17 -13 -29.5t-30 -12.5
q-14 0 -24 9.5t-10 24.5q0 17 13 29.5t30 12.5q14 0 24 -10t10 -24z" />
    <glyph glyph-name="Dcaron.smcp" unicode="&#xf675;" horiz-adv-x="611" 
d="M210 0h-197l121 550h166q113 0 184.5 -69.5t71.5 -168.5q0 -57 -22 -111.5t-63 -100t-109 -73t-152 -27.5zM220 49q128 0 203 78.5t75 181.5q0 84 -56.5 138t-149.5 54h-114l-100 -452h142zM401 606h-54l-68 144h38l61 -113l109 113h42z" />
    <glyph glyph-name="Dcroat.smcp" unicode="&#xf676;" horiz-adv-x="622" 
d="M222 0h-197l57 260h-68l10 41h67l55 249h166q113 0 184.5 -69.5t71.5 -168.5q0 -57 -22 -111.5t-63 -100t-109 -73t-152 -27.5zM232 49q128 0 203 78.5t75 181.5q0 84 -56.5 138t-149.5 54h-114l-45 -200h142l-9 -41h-142l-46 -211h142z" />
    <glyph glyph-name="Ebreve.smcp" unicode="&#xf677;" horiz-adv-x="505" 
d="M395 0h-368l121 550h368l-11 -49h-312l-44 -194h308l-11 -49h-308l-46 -209h313zM537 694q-85 -88 -194 -88q-53 0 -94 23.5t-63 64.5l33 25q37 -75 130 -75t163 75z" />
    <glyph glyph-name="Ecaron.smcp" unicode="&#xf678;" horiz-adv-x="505" 
d="M395 0h-368l121 550h368l-11 -49h-312l-44 -194h308l-11 -49h-308l-46 -209h313zM375 606h-54l-68 144h38l61 -113l109 113h42z" />
    <glyph glyph-name="Edotaccent.smcp" unicode="&#xf679;" horiz-adv-x="505" 
d="M395 0h-368l121 550h368l-11 -49h-312l-44 -194h308l-11 -49h-308l-46 -209h313zM403 677q0 -17 -13 -29.5t-30 -12.5q-14 0 -24 9.5t-10 24.5q0 17 13 29.5t30 12.5q14 0 24 -10t10 -24z" />
    <glyph glyph-name="Emacron.smcp" unicode="&#xf67a;" horiz-adv-x="505" 
d="M395 0h-368l121 550h368l-11 -49h-312l-44 -194h308l-11 -49h-308l-46 -209h313zM528 630h-362l8 38h362z" />
    <glyph glyph-name="Eng.smcp" unicode="&#xf67b;" horiz-adv-x="625" 
d="M292 -196q-110 0 -153 78l39 35q34 -64 111 -64q60 0 94.5 33.5t45.5 90.5l5 25l-249 469l-103 -471h-55l121 550h56l250 -464l102 464h55l-127 -579q-36 -167 -192 -167z" />
    <glyph glyph-name="Eogonek.smcp" unicode="&#xf67c;" horiz-adv-x="505" 
d="M395 -110l26 -18q-36 -58 -90 -58q-34 0 -55.5 18.5t-21.5 51.5q0 68 76 116h-303l121 550h368l-11 -49h-312l-44 -194h308l-11 -49h-308l-46 -209h313l-10 -49h-1q-104 -45 -104 -110q0 -43 46 -43q35 0 59 43z" />
    <glyph glyph-name="Gbreve.smcp" unicode="&#xf67d;" horiz-adv-x="630" 
d="M323 -12q-116 0 -193 67.5t-77 177.5q0 132 94.5 230.5t231.5 98.5q67 0 125.5 -29.5t93.5 -79.5l-47 -27q-25 36 -73 61.5t-102 25.5q-112 0 -188.5 -83t-76.5 -194q0 -87 61 -143.5t152 -56.5q84 0 147 44l33 150h-186l10 47h241l-48 -223q-86 -66 -198 -66zM620 694
q-85 -88 -194 -88q-53 0 -94 23.5t-63 64.5l33 25q38 -75 130 -75q93 0 163 75z" />
    <glyph glyph-name="Gcircumflex.smcp" unicode="&#xf67e;" horiz-adv-x="630" 
d="M323 -12q-116 0 -193 67.5t-77 177.5q0 132 94.5 230.5t231.5 98.5q67 0 125.5 -29.5t93.5 -79.5l-47 -27q-25 36 -73 61.5t-102 25.5q-112 0 -188.5 -83t-76.5 -194q0 -87 61 -143.5t152 -56.5q84 0 147 44l33 150h-186l10 47h241l-48 -223q-86 -66 -198 -66zM550 606
h-38l-62 113l-108 -113h-42l129 144h54z" />
    <glyph glyph-name="Gcommaaccent.smcp" unicode="&#xf67f;" horiz-adv-x="630" 
d="M323 -12q-116 0 -193 67.5t-77 177.5q0 132 94.5 230.5t231.5 98.5q67 0 125.5 -29.5t93.5 -79.5l-47 -27q-25 36 -73 61.5t-102 25.5q-112 0 -188.5 -83t-76.5 -194q0 -87 61 -143.5t152 -56.5q84 0 147 44l33 150h-186l10 47h241l-48 -223q-86 -66 -198 -66zM309 -122
q0 -38 -28.5 -77.5t-67.5 -59.5l-22 24q27 14 47.5 36.5t26.5 44.5h-7q-12 0 -21.5 10t-9.5 23q0 18 13 30.5t30 12.5t28 -11.5t11 -32.5z" />
    <glyph glyph-name="Gdotaccent.smcp" unicode="&#xf680;" horiz-adv-x="630" 
d="M323 -12q-116 0 -193 67.5t-77 177.5q0 132 94.5 230.5t231.5 98.5q67 0 125.5 -29.5t93.5 -79.5l-47 -27q-25 36 -73 61.5t-102 25.5q-112 0 -188.5 -83t-76.5 -194q0 -87 61 -143.5t152 -56.5q84 0 147 44l33 150h-186l10 47h241l-48 -223q-86 -66 -198 -66zM480 677
q0 -17 -13 -29.5t-30 -12.5q-14 0 -24 9.5t-10 24.5q0 17 13 29.5t30 12.5q14 0 24 -10t10 -24z" />
    <glyph glyph-name="Hcircumflex.smcp" unicode="&#xf681;" horiz-adv-x="629" 
d="M494 0h-54l57 259h-358l-57 -259h-55l121 550h55l-54 -243h358l54 243h54zM517 606h-38l-62 113l-108 -113h-42l129 144h54z" />
    <glyph glyph-name="Hbar.smcp" unicode="&#xf682;" horiz-adv-x="650" 
d="M505 0h-54l57 259h-358l-57 -259h-55l90 411h-80l9 38h80l22 101h55l-23 -101h358l23 101h54l-22 -101h78l-8 -38h-79zM160 307h358l23 104h-358z" />
    <glyph glyph-name="Ibreve.smcp" unicode="&#xf683;" horiz-adv-x="215" 
d="M82 0h-55l121 550h55zM379 694q-85 -88 -194 -88q-53 0 -94 23.5t-63 64.5l33 25q37 -75 130 -75t163 75z" />
    <glyph glyph-name="IJ.smcp" unicode="&#xf684;" horiz-adv-x="633" 
d="M82 0h-55l121 550h55zM341 -12q-110 0 -153 78l39 35q35 -64 111 -64q113 0 140 123l86 390h55l-86 -392q-38 -170 -192 -170z" />
    <glyph glyph-name="Imacron.smcp" unicode="&#xf685;" horiz-adv-x="215" 
d="M82 0h-55l121 550h55zM375 630h-362l8 38h362z" />
    <glyph glyph-name="Iogonek.smcp" unicode="&#xf686;" horiz-adv-x="215" 
d="M83 -110l26 -18q-36 -58 -90 -58q-34 0 -55.5 18.5t-21.5 51.5q0 73 86 121l120 545h55l-121 -550q-104 -45 -104 -110q0 -43 46 -43q35 0 59 43z" />
    <glyph glyph-name="Itilde.smcp" unicode="&#xf687;" horiz-adv-x="215" 
d="M82 0h-55l121 550h55zM256 593q-25 0 -41.5 16t-23 35t-20 35t-32.5 16q-46 0 -69 -96h-36q12 60 40.5 97t71.5 37q25 0 41.5 -16t23.5 -35t20 -35t32 -16q46 0 70 96h36q-13 -60 -41.5 -97t-71.5 -37z" />
    <glyph glyph-name="Jcircumflex.smcp" unicode="&#xf688;" horiz-adv-x="417" 
d="M125 -12q-110 0 -153 78l39 35q35 -64 111 -64q113 0 140 123l86 390h55l-86 -392q-38 -170 -192 -170zM513 606h-38l-62 113l-108 -113h-42l129 144h54z" />
    <glyph glyph-name="Kcommaaccent.smcp" unicode="&#xf689;" horiz-adv-x="521" 
d="M447 0h-68l-180 257l-75 -66l-42 -191h-55l121 550h55l-64 -291l334 291h72l-305 -262zM226 -122q0 -38 -28.5 -77.5t-67.5 -59.5l-22 24q27 14 47.5 36.5t26.5 44.5h-7q-12 0 -21.5 10t-9.5 23q0 18 13 30.5t30 12.5t28 -11.5t11 -32.5z" />
    <glyph glyph-name="Lacute.smcp" unicode="&#xf68a;" horiz-adv-x="454" 
d="M359 0h-332l121 550h55l-111 -501h278zM519 750l-204 -144h-45l186 144h63z" />
    <glyph glyph-name="Lcaron.smcp" unicode="&#xf68b;" horiz-adv-x="454" 
d="M359 0h-332l121 550h55l-111 -501h278zM365 516q0 -38 -28.5 -77.5t-67.5 -59.5l-22 24q27 14 47.5 36.5t26.5 44.5h-7q-12 0 -21.5 10t-9.5 23q0 18 13 30.5t30 12.5t28 -11.5t11 -32.5z" />
    <glyph glyph-name="Lcommaaccent.smcp" unicode="&#xf68c;" horiz-adv-x="454" 
d="M359 0h-332l121 550h55l-111 -501h278zM207 -122q0 -38 -28.5 -77.5t-67.5 -59.5l-22 24q27 14 47.5 36.5t26.5 44.5h-7q-12 0 -21.5 10t-9.5 23q0 18 13 30.5t30 12.5t28 -11.5t11 -32.5z" />
    <glyph glyph-name="Ldot.smcp" unicode="&#xf68d;" horiz-adv-x="461" 
d="M359 0h-332l121 550h55l-111 -501h278zM349 246q-17 0 -29 11.5t-12 28.5q0 20 14.5 33.5t34.5 13.5q17 0 28.5 -11.5t11.5 -28.5q0 -19 -14 -33t-34 -14z" />
    <glyph glyph-name="Nacute.smcp" unicode="&#xf68e;" horiz-adv-x="625" 
d="M490 0h-54l-251 471l-103 -471h-55l121 550h56l250 -464l102 464h55zM579 750l-204 -144h-45l186 144h63z" />
    <glyph glyph-name="Ncaron.smcp" unicode="&#xf68f;" horiz-adv-x="625" 
d="M490 0h-54l-251 471l-103 -471h-55l121 550h56l250 -464l102 464h55zM422 606h-54l-68 144h38l61 -113l109 113h42z" />
    <glyph glyph-name="Ncommaaccent.smcp" unicode="&#xf690;" horiz-adv-x="625" 
d="M490 0h-54l-251 471l-103 -471h-55l121 550h56l250 -464l102 464h55zM270 -122q0 -38 -28.5 -77.5t-67.5 -59.5l-22 24q27 14 47.5 36.5t26.5 44.5h-7q-12 0 -21.5 10t-9.5 23q0 18 13 30.5t30 12.5t28 -11.5t11 -32.5z" />
    <glyph glyph-name="Obreve.smcp" unicode="&#xf691;" horiz-adv-x="666" 
d="M313 -12q-120 0 -189.5 69.5t-69.5 180.5q0 130 90 227t221 97q120 0 189.5 -69.5t69.5 -180.5q0 -130 -90 -227t-221 -97zM313 37q111 0 182.5 81.5t71.5 191.5q0 89 -54.5 146t-148.5 57q-110 0 -182 -81.5t-72 -191.5q0 -89 54.5 -146t148.5 -57zM607 694
q-85 -88 -194 -88q-53 0 -94 23.5t-63 64.5l33 25q37 -75 130 -75t163 75z" />
    <glyph glyph-name="Ohungarumlaut.smcp" unicode="&#xf692;" horiz-adv-x="666" 
d="M313 -12q-120 0 -189.5 69.5t-69.5 180.5q0 130 90 227t221 97q120 0 189.5 -69.5t69.5 -180.5q0 -130 -90 -227t-221 -97zM313 37q111 0 182.5 81.5t71.5 191.5q0 89 -54.5 146t-148.5 57q-110 0 -182 -81.5t-72 -191.5q0 -89 54.5 -146t148.5 -57zM496 750l-147 -144
h-39l129 144h57zM635 750l-147 -144h-39l129 144h57z" />
    <glyph glyph-name="Omacron.smcp" unicode="&#xf693;" horiz-adv-x="666" 
d="M313 -12q-120 0 -189.5 69.5t-69.5 180.5q0 130 90 227t221 97q120 0 189.5 -69.5t69.5 -180.5q0 -130 -90 -227t-221 -97zM313 37q111 0 182.5 81.5t71.5 191.5q0 89 -54.5 146t-148.5 57q-110 0 -182 -81.5t-72 -191.5q0 -89 54.5 -146t148.5 -57zM599 638h-362l8 38
h362z" />
    <glyph glyph-name="Oslashacute.smcp" unicode="&#xf694;" horiz-adv-x="666" 
d="M313 -12q-102 0 -170 52l-38 -40h-51l61 66q-61 67 -61 172q0 130 90 227t221 97q100 0 167 -51l37 39h51l-60 -64q64 -67 64 -174q0 -130 -90 -227t-221 -97zM313 37q111 0 182.5 81.5t71.5 191.5q0 81 -45 135l-342 -365q53 -43 133 -43zM110 240q0 -79 43 -134
l342 365q-55 42 -131 42q-110 0 -182 -81.5t-72 -191.5zM603 750l-204 -144h-45l186 144h63z" />
    <glyph glyph-name="Racute.smcp" unicode="&#xf695;" horiz-adv-x="533" 
d="M430 0h-66l-108 224h-125l-49 -224h-55l121 550h198q74 0 119.5 -40t45.5 -101q0 -74 -49.5 -127t-147.5 -56zM301 273h9q67 0 105 38t38 95q0 43 -32 69t-83 26h-145l-51 -228h159zM526 750l-204 -144h-45l186 144h63z" />
    <glyph glyph-name="Rcaron.smcp" unicode="&#xf696;" horiz-adv-x="533" 
d="M430 0h-66l-108 224h-125l-49 -224h-55l121 550h198q74 0 119.5 -40t45.5 -101q0 -74 -49.5 -127t-147.5 -56zM301 273h9q67 0 105 38t38 95q0 43 -32 69t-83 26h-145l-51 -228h159zM368 606h-54l-68 144h38l61 -113l109 113h42z" />
    <glyph glyph-name="Rcommaaccent.smcp" unicode="&#xf697;" horiz-adv-x="533" 
d="M430 0h-66l-108 224h-125l-49 -224h-55l121 550h198q74 0 119.5 -40t45.5 -101q0 -74 -49.5 -127t-147.5 -56zM301 273h9q67 0 105 38t38 95q0 43 -32 69t-83 26h-145l-51 -228h159zM226 -122q0 -38 -28.5 -77.5t-67.5 -59.5l-22 24q27 14 47.5 36.5t26.5 44.5h-7
q-12 0 -21.5 10t-9.5 23q0 18 13 30.5t30 12.5t28 -11.5t11 -32.5z" />
    <glyph glyph-name="Sacute.smcp" unicode="&#xf698;" horiz-adv-x="499" 
d="M236 -12q-157 0 -226 98l41 36q27 -39 77 -62t110 -23q74 0 108 33.5t34 80.5q0 35 -30 59.5t-72.5 40.5t-85.5 33.5t-73 48.5t-30 75q0 64 59 109t138 45q65 0 117.5 -24.5t82.5 -64.5l-39 -36q-23 35 -68 55.5t-94 20.5q-56 0 -96.5 -30t-40.5 -74q0 -31 30 -53.5
t72.5 -37.5t85.5 -32.5t73 -51t30 -81.5q0 -67 -51 -116t-152 -49zM518 750l-204 -144h-45l186 144h63z" />
    <glyph glyph-name="Scedilla.smcp" unicode="&#xf699;" horiz-adv-x="499" 
d="M165 -189q-65 0 -104 37l23 30q33 -34 83 -34q32 0 49 14.5t17 36.5q0 15 -11 24.5t-29 9.5q-22 0 -37 -18l-24 16l39 67q-108 18 -161 92l41 36q27 -39 77 -62t110 -23q74 0 108 33.5t34 80.5q0 35 -30 59.5t-72.5 40.5t-85.5 33.5t-73 48.5t-30 75q0 64 59 109t138 45
q65 0 117.5 -24.5t82.5 -64.5l-39 -36q-23 35 -68 55.5t-94 20.5q-56 0 -96.5 -30t-40.5 -74q0 -31 30 -53.5t72.5 -37.5t85.5 -32.5t73 -51t30 -81.5q0 -67 -51 -116t-152 -49q-5 0 -15.5 0.5t-15.5 0.5l-27 -45q15 11 34 11q26 0 42 -15t16 -42q0 -38 -29 -62.5t-76 -24.5
z" />
    <glyph glyph-name="Scircumflex.smcp" unicode="&#xf69a;" horiz-adv-x="499" 
d="M236 -12q-157 0 -226 98l41 36q27 -39 77 -62t110 -23q74 0 108 33.5t34 80.5q0 35 -30 59.5t-72.5 40.5t-85.5 33.5t-73 48.5t-30 75q0 64 59 109t138 45q65 0 117.5 -24.5t82.5 -64.5l-39 -36q-23 35 -68 55.5t-94 20.5q-56 0 -96.5 -30t-40.5 -74q0 -31 30 -53.5
t72.5 -37.5t85.5 -32.5t73 -51t30 -81.5q0 -67 -51 -116t-152 -49zM456 606h-38l-62 113l-108 -113h-42l129 144h54z" />
    <glyph glyph-name="Scommaaccent.smcp" unicode="&#xf69b;" horiz-adv-x="499" 
d="M236 -12q-157 0 -226 98l41 36q27 -39 77 -62t110 -23q74 0 108 33.5t34 80.5q0 35 -30 59.5t-72.5 40.5t-85.5 33.5t-73 48.5t-30 75q0 64 59 109t138 45q65 0 117.5 -24.5t82.5 -64.5l-39 -36q-23 35 -68 55.5t-94 20.5q-56 0 -96.5 -30t-40.5 -74q0 -31 30 -53.5
t72.5 -37.5t85.5 -32.5t73 -51t30 -81.5q0 -67 -51 -116t-152 -49zM215 -122q0 -38 -28.5 -77.5t-67.5 -59.5l-22 24q27 14 47.5 36.5t26.5 44.5h-7q-12 0 -21.5 10t-9.5 23q0 18 13 30.5t30 12.5t28 -11.5t11 -32.5z" />
    <glyph glyph-name="Tbar.smcp" unicode="&#xf69c;" horiz-adv-x="465" 
d="M206 0h-55l56 256h-122l9 38h121l46 207h-176l11 49h408l-11 -49h-177l-46 -207h125l-9 -38h-124z" />
    <glyph glyph-name="Tcaron.smcp" unicode="&#xf69d;" horiz-adv-x="465" 
d="M206 0h-55l110 501h-176l11 49h408l-11 -49h-177zM342 606h-54l-68 144h38l61 -113l109 113h42z" />
    <glyph glyph-name="Tcommaaccent.smcp" unicode="&#xf69e;" horiz-adv-x="465" 
d="M206 0h-55l110 501h-176l11 49h408l-11 -49h-177zM194 -122q0 -38 -28.5 -77.5t-67.5 -59.5l-22 24q27 14 47.5 36.5t26.5 44.5h-7q-12 0 -21.5 10t-9.5 23q0 18 13 30.5t30 12.5t28 -11.5t11 -32.5z" />
    <glyph glyph-name="Ubreve.smcp" unicode="&#xf69f;" horiz-adv-x="613" 
d="M287 -12q-104 0 -162.5 46.5t-58.5 129.5q0 16 6 46l76 340h55l-75 -338q-4 -28 -4 -40q0 -65 43.5 -100t118.5 -35q76 0 120 43.5t63 131.5l75 338h55l-75 -340q-24 -111 -79.5 -166.5t-157.5 -55.5zM579 694q-85 -88 -194 -88q-53 0 -94 23.5t-63 64.5l33 25
q37 -75 130 -75t163 75z" />
    <glyph glyph-name="Uhungarumlaut.smcp" unicode="&#xf6a0;" horiz-adv-x="613" 
d="M287 -12q-104 0 -162.5 46.5t-58.5 129.5q0 16 6 46l76 340h55l-75 -338q-4 -28 -4 -40q0 -65 43.5 -100t118.5 -35q76 0 120 43.5t63 131.5l75 338h55l-75 -340q-24 -111 -79.5 -166.5t-157.5 -55.5zM467 750l-147 -144h-39l129 144h57zM606 750l-147 -144h-39l129 144
h57z" />
    <glyph glyph-name="Umacron.smcp" unicode="&#xf6a1;" horiz-adv-x="613" 
d="M287 -12q-104 0 -162.5 46.5t-58.5 129.5q0 16 6 46l76 340h55l-75 -338q-4 -28 -4 -40q0 -65 43.5 -100t118.5 -35q76 0 120 43.5t63 131.5l75 338h55l-75 -340q-24 -111 -79.5 -166.5t-157.5 -55.5zM575 630h-362l8 38h362z" />
    <glyph glyph-name="Uogonek.smcp" unicode="&#xf6a2;" horiz-adv-x="613" 
d="M287 -12q-104 0 -162.5 46.5t-58.5 129.5q0 16 6 46l76 340h55l-75 -338q-4 -28 -4 -40q0 -65 43.5 -100t118.5 -35q76 0 120 43.5t63 131.5l75 338h55l-75 -340q-38 -173 -153 -210q-104 -45 -104 -110q0 -43 46 -43q35 0 59 43l26 -18q-36 -58 -90 -58
q-34 0 -55.5 18.5t-21.5 51.5q0 60 58 104h-2z" />
    <glyph glyph-name="Uring.smcp" unicode="&#xf6a3;" horiz-adv-x="613" 
d="M287 -12q-104 0 -162.5 46.5t-58.5 129.5q0 16 6 46l76 340h55l-75 -338q-4 -28 -4 -40q0 -65 43.5 -100t118.5 -35q76 0 120 43.5t63 131.5l75 338h55l-75 -340q-24 -111 -79.5 -166.5t-157.5 -55.5zM400 607q-38 0 -62.5 24.5t-24.5 62.5q0 42 31 73.5t74 31.5
q38 0 62.5 -24.5t24.5 -62.5q0 -43 -31.5 -74t-73.5 -31zM401 639q29 0 50.5 21t21.5 49q0 26 -15.5 42t-40.5 16q-29 0 -50.5 -21t-21.5 -49q0 -26 15.5 -42t40.5 -16z" />
    <glyph glyph-name="Utilde.smcp" unicode="&#xf6a4;" horiz-adv-x="613" 
d="M287 -12q-104 0 -162.5 46.5t-58.5 129.5q0 16 6 46l76 340h55l-75 -338q-4 -28 -4 -40q0 -65 43.5 -100t118.5 -35q76 0 120 43.5t63 131.5l75 338h55l-75 -340q-24 -111 -79.5 -166.5t-157.5 -55.5zM456 604q-25 0 -41.5 16t-23 35t-20 35t-32.5 16q-46 0 -69 -96h-36
q12 60 40.5 97t71.5 37q25 0 41.5 -16t23.5 -35t20 -35t32 -16q46 0 70 96h36q-13 -60 -41.5 -97t-71.5 -37z" />
    <glyph glyph-name="Wcircumflex.smcp" unicode="&#xf6a6;" horiz-adv-x="749" 
d="M580 606h-38l-62 113l-108 -113h-42l129 144h54zM515 0h-58l-35 463l-238 -463h-58l-44 550h59l32 -471l243 471h49l35 -472l240 472h61z" />
    <glyph glyph-name="Ycircumflex.smcp" unicode="&#xf6a9;" horiz-adv-x="539" 
d="M245 0h-55l52 235l-163 315h64l135 -266l249 266h67l-298 -315zM477 606h-38l-62 113l-108 -113h-42l129 144h54z" />
    <glyph glyph-name="Zacute.smcp" unicode="&#xf6ab;" horiz-adv-x="513" 
d="M418 0h-431l9 43l452 458h-350l10 49h424l-9 -44l-452 -457h357zM524 750l-204 -144h-45l186 144h63z" />
    <glyph glyph-name="Zdotaccent.smcp" unicode="&#xf6ac;" horiz-adv-x="513" 
d="M418 0h-431l9 43l452 458h-350l10 49h424l-9 -44l-452 -457h357zM395 677q0 -17 -13 -29.5t-30 -12.5q-14 0 -24 9.5t-10 24.5q0 17 13 29.5t30 12.5q14 0 24 -10t10 -24z" />
    <glyph glyph-name="Idotaccent.smcp" unicode="&#xf6ad;" horiz-adv-x="188" 
d="M68 0h-55l121 550h55zM227 677q0 -17 -13 -29.5t-30 -12.5q-14 0 -24 9.5t-10 24.5q0 17 13 29.5t30 12.5q14 0 24 -10t10 -24z" />
    <glyph glyph-name="parenleft.case" unicode="&#xf6ae;" horiz-adv-x="227" 
d="M137 -89l-36 -20q-56 132 -56 283q0 316 251 601l26 -26q-221 -297 -221 -599q0 -104 36 -239z" />
    <glyph glyph-name="parenright.case" unicode="&#xf6af;" horiz-adv-x="227" 
d="M129 755l36 20q56 -132 56 -283q0 -316 -251 -601l-26 26q221 297 221 599q0 104 -36 239z" />
    <glyph glyph-name="bracketleft.case" unicode="&#xf6b0;" horiz-adv-x="228" 
d="M134 -100h-173l192 868h174l-10 -43h-129l-174 -782h129z" />
    <glyph glyph-name="bracketright.case" unicode="&#xf6b1;" horiz-adv-x="228" 
d="M114 -100h-173l10 43h128l174 782h-130l10 43h174z" />
    <glyph glyph-name="braceleft.case" unicode="&#xf6b2;" horiz-adv-x="249" 
d="M155 -100h-49q-40 0 -70.5 27t-30.5 70q0 16 4 27l49 219q2 12 2 18q0 22 -10.5 37.5t-28.5 15.5l9 40q53 0 68 71l49 219q14 61 50.5 92.5t88.5 31.5h62l-10 -43h-62q-33 0 -55 -21t-30 -60l-51 -227q-15 -69 -64 -87q29 -15 29 -54q0 -18 -4 -34l-48 -218
q-2 -12 -2 -21q0 -26 16.5 -43t41.5 -17h56z" />
    <glyph glyph-name="braceright.case" unicode="&#xf6b3;" horiz-adv-x="249" 
d="M133 768h49q40 0 70 -27t30 -70q0 -18 -3 -27l-49 -219q-2 -12 -2 -18q0 -22 10.5 -37.5t28.5 -15.5l-9 -40q-53 0 -68 -71l-49 -219q-14 -61 -50.5 -92.5t-88.5 -31.5h-62l10 43h61q69 0 86 81l50 227q15 68 65 88q-29 14 -29 53q0 18 4 34l48 218q2 12 2 21
q0 26 -16.5 43t-41.5 17h-56z" />
    <glyph glyph-name="exclamdown.case" unicode="&#xf6b4;" horiz-adv-x="219" 
d="M143 493h41l-96 -493h-67zM198 677q17 0 28.5 -12t11.5 -29q0 -19 -14 -33t-34 -14q-17 0 -28.5 11.5t-11.5 28.5q0 20 14 34t34 14z" />
    <glyph glyph-name="questiondown.case" unicode="&#xf6b5;" horiz-adv-x="464" 
d="M258 462l46 24q26 -32 26 -71q0 -40 -26.5 -69.5t-64 -49l-75 -39t-64 -49.5t-26.5 -70q0 -45 37 -72.5t102 -27.5q98 0 167 72l28 -39q-86 -85 -200 -85q-88 0 -142 40t-54 105q0 50 27.5 87t66.5 59t78 41t66.5 43.5t27.5 55.5q0 25 -20 45zM330 672q17 0 28.5 -11.5
t11.5 -28.5q0 -20 -14 -33.5t-34 -13.5q-16 0 -28 11.5t-12 28.5q0 20 14 33.5t34 13.5z" />
    <glyph glyph-name="guillemotleft.case" unicode="&#xf6b6;" horiz-adv-x="402" 
d="M224 162h-53l-120 180l200 177h61l-204 -182zM349 162h-53l-120 180l200 177h61l-204 -182z" />
    <glyph glyph-name="guillemotright.case" unicode="&#xf6b7;" horiz-adv-x="402" 
d="M99 519h53l120 -180l-200 -177h-61l204 182zM224 519h53l120 -180l-200 -177h-62l205 182z" />
    <glyph glyph-name="guilsinglleft.case" unicode="&#xf6b8;" horiz-adv-x="277" 
d="M224 162h-53l-120 180l200 177h61l-204 -182z" />
    <glyph glyph-name="guilsinglright.case" unicode="&#xf6b9;" horiz-adv-x="277" 
d="M99 519h53l120 -180l-200 -177h-61l204 182z" />
    <glyph glyph-name="hyphen.case" unicode="&#xf6ba;" horiz-adv-x="300" 
d="M286 317h-240l10 48h240z" />
    <glyph glyph-name="endash.case" unicode="&#xf6bb;" horiz-adv-x="593" 
d="M579 317h-533l10 48h533z" />
    <glyph glyph-name="emdash.case" unicode="&#xf6bc;" horiz-adv-x="833" 
d="M819 317h-773l10 48h773z" />
    <glyph glyph-name="periodcentered.case" unicode="&#xf6bd;" horiz-adv-x="219" 
d="M127 299q-17 0 -29 11.5t-12 28.5q0 20 14.5 33.5t34.5 13.5q17 0 28.5 -11.5t11.5 -28.5q0 -19 -14 -33t-34 -14z" />
    <glyph glyph-name="bullet.case" unicode="&#xf6be;" horiz-adv-x="358" 
d="M305 351q0 -45 -34.5 -78.5t-80.5 -33.5q-40 0 -66.5 26.5t-26.5 66.5q0 45 34.5 78.5t80.5 33.5q40 0 66.5 -26.5t26.5 -66.5z" />
    <glyph glyph-name="cent.case" unicode="&#xf6bf;" horiz-adv-x="494" 
d="M281 79h-18l-19 -88h-44l21 94q-71 16 -113 70t-42 138q0 120 77 206t189 87l16 70h44l-17 -73q90 -13 132 -85l-40 -30q-33 58 -102 69l-91 -411h12q79 0 131 62l30 -36q-71 -73 -166 -73zM121 292q0 -64 29.5 -104.5t80.5 -54.5l91 405q-90 -6 -145.5 -78t-55.5 -168z
" />
    <glyph glyph-name="commaaccent" unicode="&#xf6c3;" horiz-adv-x="219" 
d="M70 -122q0 -38 -28.5 -77.5t-67.5 -59.5l-22 24q27 14 47.5 36.5t26.5 44.5h-7q-12 0 -21.5 10t-9.5 23q0 18 13 30.5t30 12.5t28 -11.5t11 -32.5z" />
    <glyph glyph-name="one.tnum" unicode="&#xf6dc;" horiz-adv-x="588" 
d="M318 0h-57l129 589l-131 -114l-27 37l181 155h52z" />
    <glyph glyph-name="rupiah" unicode="&#xf6dd;" horiz-adv-x="1103" 
d="M489 0h-65l-126 276h-151l-61 -276h-57l147 667h229q72 0 126.5 -46t54.5 -122q0 -94 -62.5 -155.5t-165.5 -64.5zM343 328h2q84 0 131.5 48.5t47.5 119.5q0 51 -38 85t-87 34h-177l-63 -287h184zM807 -12q-58 0 -103 25.5t-71 68.5l-59 -266h-52l148 667h52l-16 -73
q65 85 166 85q84 0 136 -53t52 -145q0 -126 -71 -217.5t-182 -91.5zM802 35q88 0 144.5 76t56.5 176q0 74 -40 117.5t-106 43.5q-49 0 -93 -26.5t-71 -66.5l-51 -232q19 -38 61.5 -63t98.5 -25z" />
    <glyph glyph-name="centinferior" unicode="&#xf6df;" horiz-adv-x="305" 
d="M71 -151l12 57q-45 11 -71 44t-26 82q0 70 47.5 121.5t115.5 52.5l10 42h33l-10 -45q56 -10 81 -54l-33 -21q-18 34 -55 42l-52 -235h1q45 0 80 39l25 -25q-45 -47 -106 -47h-8l-11 -53h-33zM29 33q0 -74 62 -93l51 231q-49 -4 -81 -45t-32 -93z" />
    <glyph glyph-name="centsuperior" unicode="&#xf6e0;" horiz-adv-x="305" 
d="M196 416l12 57q-45 11 -71 44t-26 82q0 70 47.5 121.5t115.5 52.5l10 42h33l-10 -45q56 -10 81 -54l-33 -21q-18 34 -55 42l-52 -235h1q45 0 80 39l25 -25q-45 -47 -106 -47h-8l-11 -53h-33zM154 600q0 -75 62 -94l51 232q-49 -4 -81 -45t-32 -93z" />
    <glyph glyph-name="commainferior" unicode="&#xf6e1;" horiz-adv-x="131" 
d="M12 -120q0 -28 -21 -57t-46 -44l-17 20q42 24 48 52q-2 -1 -4 -1q-9 0 -16 7.5t-7 19.5q0 15 10.5 24.5t24.5 9.5q12 0 20 -8.5t8 -22.5z" />
    <glyph glyph-name="commasuperior" unicode="&#xf6e2;" horiz-adv-x="131" 
d="M137 447q0 -28 -21 -57t-46 -44l-17 20q42 24 48 52q-2 -1 -4 -1q-9 0 -16 7.5t-7 19.5q0 15 10.5 24.5t24.5 9.5q12 0 20 -8.5t8 -22.5z" />
    <glyph glyph-name="dollarinferior" unicode="&#xf6e3;" horiz-adv-x="365" 
d="M128 -153h-13l-11 -53h-33l12 57q-85 13 -121 69l34 28q33 -49 95 -61l35 155q-26 9 -41.5 16.5t-34 20t-27.5 30t-9 39.5q0 45 40.5 78.5t104.5 33.5q10 0 14 -1l13 56h33l-14 -61q70 -16 101 -61l-32 -25q-23 37 -76 52l-32 -144q52 -19 81 -43t29 -67
q0 -48 -37.5 -83.5t-110.5 -35.5zM228 -38q0 25 -18.5 40t-53.5 28l-33 -147h5q46 0 73 22t27 57zM62 152q0 -23 19 -37t55 -27l30 137h-7q-41 0 -69 -20.5t-28 -52.5z" />
    <glyph glyph-name="dollarsuperior" unicode="&#xf6e4;" horiz-adv-x="365" 
d="M253 414h-13l-11 -53h-33l12 56q-87 14 -121 70l34 28q33 -50 95 -62l35 156q-26 9 -41.5 16.5t-34 20t-27.5 30t-9 39.5q0 45 40.5 78.5t104.5 33.5q10 0 14 -1l13 56h33l-14 -61q70 -16 101 -61l-32 -25q-23 37 -76 52l-32 -144q52 -19 81 -43t29 -67
q0 -48 -37.5 -83.5t-110.5 -35.5zM353 529q0 24 -18.5 39.5t-53.5 28.5l-33 -147h5q46 0 73 22t27 57zM187 719q0 -23 19 -37t55 -27l30 137h-7q-41 0 -69 -20.5t-28 -52.5z" />
    <glyph glyph-name="hypheninferior" unicode="&#xf6e5;" horiz-adv-x="184" 
d="M120 35h-148l7 36h148z" />
    <glyph glyph-name="hyphensuperior" unicode="&#xf6e6;" horiz-adv-x="184" 
d="M245 603h-148l7 36h148z" />
    <glyph glyph-name="periodinferior" unicode="&#xf6e7;" horiz-adv-x="136" 
d="M18 -117q0 -13 -11 -23.5t-25 -10.5q-12 0 -20 8t-8 20q0 13 11 23.5t25 10.5q12 0 20 -8t8 -20z" />
    <glyph glyph-name="periodsuperior" unicode="&#xf6e8;" horiz-adv-x="136" 
d="M143 450q0 -13 -11 -23.5t-25 -10.5q-12 0 -20 8t-8 20q0 13 11 23.5t25 10.5q12 0 20 -8t8 -20z" />
    <glyph glyph-name="asuperior" unicode="&#xf6e9;" horiz-adv-x="375" 
d="M267 613q-55 0 -93 -46.5t-38 -110.5q0 -49 26 -76t68 -27q59 0 108 57l34 152q-13 23 -41.5 37t-63.5 14zM389 640h43l-70 -314h-43l11 50q-47 -58 -113 -58q-53 0 -89.5 35t-36.5 100q0 78 49 136.5t121 58.5q80 0 117 -57z" />
    <glyph glyph-name="bsuperior" unicode="&#xf6ea;" horiz-adv-x="408" 
d="M248 353q54 0 92 46.5t38 110.5q0 49 -26 76t-68 27q-58 0 -108 -56l-33 -152q13 -24 41.5 -38t63.5 -14zM126 326h-43l96 434h43l-38 -170q49 58 113 58q54 0 90 -35t36 -100q0 -79 -48.5 -137t-121.5 -58q-80 0 -117 57z" />
    <glyph glyph-name="dsuperior" unicode="&#xf6eb;" horiz-adv-x="409" 
d="M267 613q-55 0 -93 -46.5t-38 -110.5q0 -49 26 -76t68 -27q59 0 108 57l34 152q-13 23 -41.5 37t-63.5 14zM415 760h43l-96 -434h-43l11 50q-47 -58 -113 -58q-53 0 -89.5 35t-36.5 100q0 78 49 136.5t121 58.5q80 0 117 -57z" />
    <glyph glyph-name="esuperior" unicode="&#xf6ec;" horiz-adv-x="401" 
d="M249 318q-71 0 -113.5 38.5t-42.5 104.5q0 75 54 131t128 56q62 0 100 -37.5t38 -98.5q0 -27 -4 -43h-271q-1 -6 -1 -12q0 -45 31 -75.5t83 -30.5q57 0 101 36l15 -28q-54 -41 -118 -41zM373 502h1q1 1 1 9q0 45 -28 74.5t-74 29.5q-51 0 -86 -34t-45 -79h231z" />
    <glyph glyph-name="isuperior" unicode="&#xf6ed;" horiz-adv-x="152" 
d="M176 690q-10 0 -18 8t-8 18q0 14 10.5 24.5t24.5 10.5q11 0 18.5 -8t7.5 -19q0 -14 -10.5 -24t-24.5 -10zM115 326h-43l69 314h43z" />
    <glyph glyph-name="lsuperior" unicode="&#xf6ee;" horiz-adv-x="172" 
d="M126 326h-43l96 434h43z" />
    <glyph glyph-name="msuperior" unicode="&#xf6ef;" horiz-adv-x="561" 
d="M514 326h-42l47 214q3 12 3 22q0 50 -58 50q-47 0 -94 -55l-50 -231h-42l47 214q3 12 3 22q0 50 -59 50q-44 0 -93 -55l-50 -231h-43l69 314h43l-10 -47q16 20 44.5 37.5t60.5 17.5q33 0 56 -16.5t28 -42.5q47 59 111 59q35 0 58 -19.5t23 -55.5q0 -14 -3 -26z" />
    <glyph glyph-name="osuperior" unicode="&#xf6f0;" horiz-adv-x="405" 
d="M238 318q-66 0 -105.5 39t-39.5 102q0 77 52 133t127 56q66 0 105.5 -39t39.5 -102q0 -77 -52 -133t-127 -56zM239 355q59 0 96.5 45t37.5 107q0 46 -28 74.5t-73 28.5q-59 0 -96.5 -45t-37.5 -106q0 -46 28 -75t73 -29z" />
    <glyph glyph-name="rsuperior" unicode="&#xf6f1;" horiz-adv-x="233" 
d="M126 326h-43l69 314h43l-12 -52q31 31 58.5 45t63.5 14l-10 -43q-4 2 -18 2q-27 0 -56 -15.5t-46 -37.5z" />
    <glyph glyph-name="ssuperior" unicode="&#xf6f2;" horiz-adv-x="328" 
d="M197 318q-86 0 -132 60l27 23q15 -22 43 -36.5t62 -14.5q36 0 59 17t23 41q0 21 -18 35t-43 22.5t-50.5 18.5t-43.5 28t-18 45q0 36 33 63.5t88 27.5q81 0 121 -54l-26 -24q-34 46 -97 46q-35 0 -55.5 -16t-20.5 -41q0 -22 27 -36t59.5 -21.5t59.5 -30.5t27 -60
q0 -35 -33.5 -64t-91.5 -29z" />
    <glyph glyph-name="tsuperior" unicode="&#xf6f3;" horiz-adv-x="193" 
d="M158 318q-65 0 -65 54q0 9 2 19l47 216h-53l7 33h54l19 86h42l-19 -86h66l-8 -33h-65l-46 -211q-2 -10 -2 -16q0 -27 31 -27q17 0 33 12l7 -31q-21 -16 -50 -16z" />
    <glyph glyph-name="Lslash.smcp" unicode="&#xf6f9;" horiz-adv-x="482" 
d="M-3 185l12 53l112 57l56 255h55l-50 -223l114 58l-12 -53l-113 -58l-50 -225h278l-11 -49h-332l53 242z" />
    <glyph glyph-name="OE.smcp" unicode="&#xf6fa;" horiz-adv-x="964" 
d="M854 0h-369l21 96q-73 -108 -202 -108q-115 0 -182.5 69t-67.5 181q0 130 89.5 227t221.5 97q74 0 131 -34.5t82 -106.5l28 129h369l-11 -49h-313l-44 -194h308l-11 -49h-307l-46 -209h313zM526 190l38 169q-18 79 -73 116.5t-126 37.5q-107 0 -181 -80t-74 -193
q0 -93 57 -148t146 -55q70 0 126.5 39.5t86.5 113.5z" />
    <glyph glyph-name="Scaron.smcp" unicode="&#xf6fd;" horiz-adv-x="499" 
d="M236 -12q-157 0 -226 98l41 36q27 -39 77 -62t110 -23q74 0 108 33.5t34 80.5q0 35 -30 59.5t-72.5 40.5t-85.5 33.5t-73 48.5t-30 75q0 64 59 109t138 45q65 0 117.5 -24.5t82.5 -64.5l-39 -36q-23 35 -68 55.5t-94 20.5q-56 0 -96.5 -30t-40.5 -74q0 -31 30 -53.5
t72.5 -37.5t85.5 -32.5t73 -51t30 -81.5q0 -67 -51 -116t-152 -49zM360 606h-54l-68 144h38l61 -113l109 113h42z" />
    <glyph glyph-name="Zcaron.smcp" unicode="&#xf6ff;" horiz-adv-x="513" 
d="M418 0h-431l9 43l452 458h-350l10 49h424l-9 -44l-452 -457h357zM362 606h-54l-68 144h38l61 -113l109 113h42z" />
    <glyph glyph-name="exclam.smcp" unicode="&#xf721;" horiz-adv-x="176" 
d="M187 550l-101 -401h-39l75 401h65zM37 -10q-17 0 -28.5 12t-11.5 29q0 20 14 33.5t34 13.5q17 0 28.5 -12t11.5 -28q0 -20 -14 -34t-34 -14z" />
    <glyph glyph-name="dollar.onum" unicode="&#xf724;" horiz-adv-x="499" 
d="M236 -12q-14 0 -20 1l-14 -63h-43l15 67q-112 18 -164 93l41 36q42 -63 134 -80l50 225q-33 13 -54.5 23.5t-45 27t-35 39t-11.5 51.5q0 64 59 109t138 45q3 0 7.5 -0.5t6.5 -0.5l15 67h43l-16 -72q95 -18 144 -83l-39 -36q-36 54 -116 71l-45 -203q34 -13 56.5 -24
t47 -28.5t37 -42.5t12.5 -57q0 -67 -51 -116t-152 -49zM380 151q0 35 -27.5 57t-78.5 43l-47 -214h11q74 0 108 33.5t34 80.5zM148 409q0 -31 25.5 -51t73.5 -38l42 193h-4q-56 0 -96.5 -30t-40.5 -74z" />
    <glyph glyph-name="ampersand.smcp" unicode="&#xf726;" horiz-adv-x="552" 
d="M449 0h-66q-32 39 -43 53q-80 -65 -165 -65q-76 0 -123 39t-47 108q0 71 44 111.5t123 70.5q-23 55 -23 96q0 63 46 106t107 43q50 0 85.5 -25.5t35.5 -74.5q0 -20 -6 -37.5t-13.5 -30t-25 -26t-28 -20.5t-36 -18.5t-36 -15.5t-40.5 -15q17 -33 53 -85q37 -56 62 -90
q57 59 100 141l40 -22q-59 -97 -115 -155q13 -18 71 -88zM180 30q64 0 134 57q-33 44 -67 96q-30 44 -58 97q-62 -25 -96 -57t-34 -84q0 -48 32.5 -78.5t88.5 -30.5zM200 413q0 -31 21 -79q38 14 59 23t46 24.5t36.5 34.5t11.5 44q0 30 -18.5 46t-51.5 16q-45 0 -74.5 -30.5
t-29.5 -78.5z" />
    <glyph glyph-name="zero.onum" unicode="&#xf730;" horiz-adv-x="608" 
d="M564 328q0 -53 -18 -110.5t-51.5 -109.5t-89 -86t-121.5 -34q-112 0 -170 62.5t-58 171.5q0 53 18 110.5t51.5 109.5t89 86t122.5 34q111 0 169 -62.5t58 -171.5zM504 325q0 89 -42 137t-126 48q-53 0 -97 -29t-69.5 -73.5t-39.5 -92.5t-14 -90q0 -89 42 -137t126 -48
q43 0 80.5 19.5t62.5 50t43 69t26 76t8 70.5z" />
    <glyph glyph-name="one.onum" unicode="&#xf731;" horiz-adv-x="308" 
d="M171 0h-57l103 472l-131 -114l-27 37l181 155h52z" />
    <glyph glyph-name="two.onum" unicode="&#xf732;" horiz-adv-x="576" 
d="M425 0h-415l10 50q215 85 328.5 166.5t113.5 170.5q0 55 -42.5 89t-107.5 34q-109 0 -190 -78l-30 39q91 91 224 91q89 0 147.5 -44.5t58.5 -122.5q0 -53 -31.5 -104t-88.5 -94t-122 -78t-145 -67h301z" />
    <glyph glyph-name="three.onum" unicode="&#xf733;" horiz-adv-x="542" 
d="M213 -129q-82 0 -149.5 39t-90.5 100l46 30q22 -54 75 -85.5t118 -31.5q80 0 128 45t48 115q0 53 -43.5 85.5t-115.5 32.5q-35 0 -57 -2l13 54q9 -1 89 -1q72 0 122.5 36t50.5 101q0 51 -44.5 85t-117.5 34q-97 0 -171 -70l-28 40q37 38 91.5 60t110.5 22q96 0 156.5 -44
t60.5 -122q0 -74 -55.5 -121t-125.5 -52q52 -12 86.5 -49t34.5 -92q0 -87 -65 -148t-167 -61z" />
    <glyph glyph-name="four.onum" unicode="&#xf734;" horiz-adv-x="541" 
d="M466 66h-97l-41 -183h-57l40 183h-316l12 52l391 432h77l-95 -432h97zM322 118l83 375l-340 -375h257z" />
    <glyph glyph-name="five.onum" unicode="&#xf735;" horiz-adv-x="582" 
d="M245 -129q-166 0 -229 135l46 33q51 -116 188 -116q76 0 130 52.5t54 129.5q0 67 -45 104.5t-116 37.5q-76 0 -146 -50l-38 22l73 331h385l-11 -52h-328l-55 -247q60 46 143 46t140.5 -49.5t57.5 -137.5q0 -98 -70.5 -168.5t-178.5 -70.5z" />
    <glyph glyph-name="six.onum" unicode="&#xf736;" horiz-adv-x="584" 
d="M275 -12q-103 0 -158.5 62.5t-55.5 177.5q0 55 11 114.5t36.5 119.5t61 107.5t89.5 77.5t118 30q138 0 192 -104l-43 -37q-40 89 -152 89q-51 0 -94 -25.5t-71.5 -69t-47.5 -90.5t-31 -102q-1 -3 -5 -19q31 36 86.5 64.5t113.5 28.5q89 0 144 -46.5t55 -126.5
q0 -102 -72 -176.5t-177 -74.5zM277 40q80 0 133.5 57.5t53.5 133.5q0 60 -43 95.5t-114 35.5q-103 0 -189 -96q-2 -18 -2 -53q0 -78 42 -125.5t119 -47.5z" />
    <glyph glyph-name="seven.onum" unicode="&#xf737;" horiz-adv-x="502" 
d="M107 -117h-66l414 615h-366l11 52h437l-9 -40z" />
    <glyph glyph-name="eight.onum" unicode="&#xf738;" horiz-adv-x="571" 
d="M266 -12q-101 0 -165 44t-64 123q0 76 57.5 127.5t151.5 68.5q-50 19 -86 56t-36 87q0 87 68.5 135t156.5 48q89 0 152 -43.5t63 -117.5q0 -73 -54 -119.5t-142 -58.5q52 -22 91.5 -62t39.5 -98q0 -82 -68 -136t-165 -54zM313 368q85 7 137.5 43.5t52.5 98.5
q0 48 -45.5 81t-110.5 33q-68 0 -116.5 -36t-48.5 -97q0 -43 41.5 -77.5t89.5 -45.5zM267 40q68 0 121 39t53 103q0 50 -44 86.5t-95 50.5q-89 -6 -146.5 -48.5t-57.5 -105.5q0 -59 48.5 -92t120.5 -33z" />
    <glyph glyph-name="nine.onum" unicode="&#xf739;" horiz-adv-x="584" 
d="M321 561q103 0 158.5 -62.5t55.5 -177.5q0 -55 -11 -114.5t-36 -119.5t-61 -107.5t-90 -77.5t-118 -30q-137 0 -191 104l42 37q40 -89 153 -89q51 0 93.5 25.5t71 69t47.5 90.5t32 102q4 18 4 19q-31 -36 -86.5 -64.5t-113.5 -28.5q-89 0 -144 46.5t-55 126.5
q0 102 72 176.5t177 74.5zM319 509q-79 0 -133 -57.5t-54 -133.5q0 -60 43 -95.5t114 -35.5q105 0 189 96q2 18 2 53q0 78 -42 125.5t-119 47.5z" />
    <glyph glyph-name="question.smcp" unicode="&#xf73f;" horiz-adv-x="397" 
d="M412 438q0 -41 -23.5 -71.5t-57 -48t-67.5 -32.5t-57.5 -33.5t-23.5 -42.5q0 -19 22 -38l-42 -21q-28 26 -28 57q0 33 22.5 57.5t55 40l65 31t55 39.5t22.5 56q0 39 -32.5 61t-88.5 22q-85 0 -155 -70l-26 37q77 79 186 79q78 0 125.5 -34.5t47.5 -88.5zM138 -10
q-17 0 -28.5 12t-11.5 29q0 19 14.5 33t34.5 14q17 0 28.5 -12t11.5 -28q0 -20 -14.5 -34t-34.5 -14z" />
    <glyph glyph-name="A.smcp" unicode="&#xf761;" horiz-adv-x="562" 
d="M316 550h64l116 -550h-60l-28 133h-300l-85 -133h-65zM400 182l-63 308l-200 -308h263z" />
    <glyph glyph-name="B.smcp" unicode="&#xf762;" horiz-adv-x="541" 
d="M283 0h-256l121 550h213q68 0 113.5 -31.5t45.5 -92.5q0 -53 -33.5 -94.5t-91.5 -52.5q34 -12 56.5 -44.5t22.5 -69.5q0 -73 -51 -119t-140 -46zM92 49h193q56 0 93.5 33t37.5 84q0 41 -27.5 66.5t-75.5 25.5h-175zM327 307h17q54 0 85.5 33.5t31.5 78.5q0 41 -31 61.5
t-80 20.5h-157l-45 -194h179z" />
    <glyph glyph-name="C.smcp" unicode="&#xf763;" horiz-adv-x="581" 
d="M322 -12q-118 0 -193 68t-75 181q0 132 96.5 228.5t227.5 96.5q68 0 125 -30.5t88 -81.5l-47 -24q-25 40 -70.5 63.5t-96.5 23.5q-106 0 -186 -80t-80 -193q0 -91 60 -147t152 -56q100 0 170 71l38 -31q-92 -89 -209 -89z" />
    <glyph glyph-name="D.smcp" unicode="&#xf764;" horiz-adv-x="611" 
d="M224 0h-197l121 550h166q113 0 184.5 -69.5t71.5 -168.5q0 -57 -22 -111.5t-63 -100t-109 -73t-152 -27.5zM234 49q128 0 203 78.5t75 181.5q0 84 -56.5 138t-149.5 54h-114l-100 -452h142z" />
    <glyph glyph-name="E.smcp" unicode="&#xf765;" horiz-adv-x="505" 
d="M395 0h-368l121 550h368l-11 -49h-312l-44 -194h308l-11 -49h-308l-46 -209h313z" />
    <glyph glyph-name="F.smcp" unicode="&#xf766;" horiz-adv-x="483" 
d="M82 0h-55l121 550h368l-11 -49h-312l-44 -194h308l-11 -49h-308z" />
    <glyph glyph-name="G.smcp" unicode="&#xf767;" horiz-adv-x="630" 
d="M323 -12q-116 0 -193 67.5t-77 177.5q0 132 94.5 230.5t231.5 98.5q67 0 125.5 -29.5t93.5 -79.5l-47 -27q-25 36 -73 61.5t-102 25.5q-112 0 -188.5 -83t-76.5 -194q0 -87 61 -143.5t152 -56.5q84 0 147 44l33 150h-186l10 47h241l-48 -223q-86 -66 -198 -66z" />
    <glyph glyph-name="H.smcp" unicode="&#xf768;" horiz-adv-x="629" 
d="M494 0h-54l57 259h-358l-57 -259h-55l121 550h55l-54 -243h358l54 243h54z" />
    <glyph glyph-name="I.smcp" unicode="&#xf769;" horiz-adv-x="216" 
d="M82 0h-55l121 550h55z" />
    <glyph glyph-name="J.smcp" unicode="&#xf76a;" horiz-adv-x="417" 
d="M125 -12q-110 0 -153 78l39 35q35 -64 111 -64q113 0 140 123l86 390h55l-86 -392q-38 -170 -192 -170z" />
    <glyph glyph-name="K.smcp" unicode="&#xf76b;" horiz-adv-x="521" 
d="M447 0h-68l-180 257l-75 -66l-42 -191h-55l121 550h55l-64 -291l334 291h72l-305 -262z" />
    <glyph glyph-name="L.smcp" unicode="&#xf76c;" horiz-adv-x="454" 
d="M359 0h-332l121 550h55l-111 -501h278z" />
    <glyph glyph-name="M.smcp" unicode="&#xf76d;" horiz-adv-x="703" 
d="M568 0h-55l105 475l-309 -475h-23l-99 475l-105 -475h-55l121 550h75l94 -452l294 452h78z" />
    <glyph glyph-name="N.smcp" unicode="&#xf76e;" horiz-adv-x="625" 
d="M490 0h-54l-251 471l-103 -471h-55l121 550h56l250 -464l102 464h55z" />
    <glyph glyph-name="O.smcp" unicode="&#xf76f;" horiz-adv-x="666" 
d="M313 -12q-120 0 -189.5 69.5t-69.5 180.5q0 130 90 227t221 97q120 0 189.5 -69.5t69.5 -180.5q0 -130 -90 -227t-221 -97zM313 37q111 0 182.5 81.5t71.5 191.5q0 89 -54.5 146t-148.5 57q-110 0 -182 -81.5t-72 -191.5q0 -89 54.5 -146t148.5 -57z" />
    <glyph glyph-name="P.smcp" unicode="&#xf770;" horiz-adv-x="509" 
d="M82 0h-55l121 550h195q76 0 121.5 -38.5t45.5 -100.5q0 -77 -54.5 -132t-144.5 -55h-180zM312 273h2q63 0 100.5 39t37.5 97q0 43 -31 67.5t-86 24.5h-142l-51 -228h170z" />
    <glyph glyph-name="Q.smcp" unicode="&#xf771;" horiz-adv-x="666" 
d="M313 -12q-120 0 -189.5 69.5t-69.5 180.5q0 130 90 227t221 97q120 0 189.5 -69.5t69.5 -180.5q0 -77 -34.5 -146.5t-93.5 -114.5l35 -49l-42 -29l-36 50q-62 -35 -140 -35zM313 37q62 0 112 26l-70 100l41 30l71 -102q47 39 73.5 97t26.5 122q0 89 -54.5 146t-148.5 57
q-110 0 -182 -81.5t-72 -191.5q0 -89 54.5 -146t148.5 -57z" />
    <glyph glyph-name="R.smcp" unicode="&#xf772;" horiz-adv-x="533" 
d="M430 0h-66l-108 224h-125l-49 -224h-55l121 550h198q74 0 119.5 -40t45.5 -101q0 -74 -49.5 -127t-147.5 -56zM301 273h9q67 0 105 38t38 95q0 43 -32 69t-83 26h-145l-51 -228h159z" />
    <glyph glyph-name="S.smcp" unicode="&#xf773;" horiz-adv-x="499" 
d="M236 -12q-157 0 -226 98l41 36q27 -39 77 -62t110 -23q74 0 108 33.5t34 80.5q0 35 -30 59.5t-72.5 40.5t-85.5 33.5t-73 48.5t-30 75q0 64 59 109t138 45q65 0 117.5 -24.5t82.5 -64.5l-39 -36q-23 35 -68 55.5t-94 20.5q-56 0 -96.5 -30t-40.5 -74q0 -31 30 -53.5
t72.5 -37.5t85.5 -32.5t73 -51t30 -81.5q0 -67 -51 -116t-152 -49z" />
    <glyph glyph-name="T.smcp" unicode="&#xf774;" horiz-adv-x="465" 
d="M206 0h-55l110 501h-176l11 49h408l-11 -49h-177z" />
    <glyph glyph-name="U.smcp" unicode="&#xf775;" horiz-adv-x="613" 
d="M287 -12q-104 0 -162.5 46.5t-58.5 129.5q0 16 6 46l76 340h55l-75 -338q-4 -28 -4 -40q0 -65 43.5 -100t118.5 -35q76 0 120 43.5t63 131.5l75 338h55l-75 -340q-24 -111 -79.5 -166.5t-157.5 -55.5z" />
    <glyph glyph-name="V.smcp" unicode="&#xf776;" horiz-adv-x="562" 
d="M259 0h-64l-116 550h61l99 -488l315 488h63z" />
    <glyph glyph-name="W.smcp" unicode="&#xf777;" horiz-adv-x="749" 
d="M515 0h-58l-35 463l-238 -463h-58l-44 550h59l32 -471l243 471h49l35 -472l240 472h61z" />
    <glyph glyph-name="X.smcp" unicode="&#xf778;" horiz-adv-x="560" 
d="M492 0h-66l-145 244l-251 -244h-70l294 282l-160 268h66l134 -229l236 229h70l-278 -267z" />
    <glyph glyph-name="Y.smcp" unicode="&#xf779;" horiz-adv-x="539" 
d="M245 0h-55l52 235l-163 315h64l135 -266l249 266h67l-298 -315z" />
    <glyph glyph-name="Z.smcp" unicode="&#xf77a;" horiz-adv-x="513" 
d="M418 0h-431l9 43l452 458h-350l10 49h424l-9 -44l-452 -457h357z" />
    <glyph glyph-name="exclamdown.smcp" unicode="&#xf7a1;" horiz-adv-x="176" 
d="M-11 0l101 401h39l-75 -401h-65zM139 560q17 0 28.5 -12t11.5 -29q0 -20 -14 -33.5t-34 -13.5q-17 0 -28.5 12t-11.5 28q0 20 14 34t34 14z" />
    <glyph glyph-name="questiondown.smcp" unicode="&#xf7b8;" horiz-adv-x="397" 
d="M-15 112q0 41 23.5 71.5t57.5 48t67.5 32.5t57 33.5t23.5 42.5q0 19 -22 38l42 21q28 -26 28 -57q0 -33 -22.5 -57.5t-55 -40l-65 -31t-55 -39.5t-22.5 -56q0 -39 32.5 -61t88.5 -22q85 0 155 70l26 -37q-77 -79 -186 -79q-78 0 -125.5 34.5t-47.5 88.5zM259 560
q17 0 28.5 -12t11.5 -29q0 -19 -14.5 -33t-34.5 -14q-16 0 -28 12t-12 28q0 20 14.5 34t34.5 14z" />
    <glyph glyph-name="Agrave.smcp" unicode="&#xf7e0;" horiz-adv-x="562" 
d="M316 550h64l116 -550h-60l-28 133h-300l-85 -133h-65zM400 182l-63 308l-200 -308h263zM422 606h-44l-140 144h62z" />
    <glyph glyph-name="Aacute.smcp" unicode="&#xf7e1;" horiz-adv-x="562" 
d="M316 550h64l116 -550h-60l-28 133h-300l-85 -133h-65zM400 182l-63 308l-200 -308h263zM550 750l-204 -144h-45l186 144h63z" />
    <glyph glyph-name="Acircumflex.smcp" unicode="&#xf7e2;" horiz-adv-x="562" 
d="M316 550h64l116 -550h-60l-28 133h-300l-85 -133h-65zM400 182l-63 308l-200 -308h263zM488 606h-38l-62 113l-108 -113h-42l129 144h54z" />
    <glyph glyph-name="Atilde.smcp" unicode="&#xf7e3;" horiz-adv-x="562" 
d="M316 550h64l116 -550h-60l-28 133h-300l-85 -133h-65zM400 182l-63 308l-200 -308h263zM431 604q-25 0 -41.5 16t-23 35t-19.5 35t-33 16q-46 0 -69 -96h-36q12 60 40.5 97t71.5 37q25 0 41.5 -16t23.5 -35t20 -35t32 -16q46 0 70 96h36q-13 -60 -41.5 -97t-71.5 -37z
" />
    <glyph glyph-name="Adieresis.smcp" unicode="&#xf7e4;" horiz-adv-x="562" 
d="M316 550h64l116 -550h-60l-28 133h-300l-85 -133h-65zM400 182l-63 308l-200 -308h263zM511 658q0 -16 -12.5 -28.5t-28.5 -12.5q-14 0 -24 9.5t-10 23.5q0 16 12.5 28.5t29.5 12.5q14 0 23.5 -9.5t9.5 -23.5zM307 658q0 -17 -12.5 -29t-29.5 -12q-14 0 -23.5 9.5
t-9.5 23.5q0 16 12.5 28.5t29.5 12.5q14 0 23.5 -9.5t9.5 -23.5z" />
    <glyph glyph-name="Aring.smcp" unicode="&#xf7e5;" horiz-adv-x="562" 
d="M316 550h64l116 -550h-60l-28 133h-300l-85 -133h-65zM400 182l-63 308l-200 -308h263zM373 607q-38 0 -62.5 24.5t-24.5 62.5q0 42 31 73.5t74 31.5q38 0 62.5 -24.5t24.5 -62.5q0 -43 -31.5 -74t-73.5 -31zM374 639q29 0 50.5 21t21.5 49q0 26 -15.5 42t-40.5 16
q-29 0 -50.5 -21t-21.5 -49q0 -26 15.5 -42t40.5 -16z" />
    <glyph glyph-name="AE.smcp" unicode="&#xf7e6;" horiz-adv-x="811" 
d="M701 0h-369l30 133h-225l-114 -133h-65l476 550h388l-10 -49h-314l-43 -194h307l-10 -49h-308l-46 -209h314zM372 182l69 308l-266 -308h197z" />
    <glyph glyph-name="Ccedilla.smcp" unicode="&#xf7e7;" horiz-adv-x="581" 
d="M263 -189q-65 0 -104 37l23 30q33 -34 83 -34q32 0 49 14.5t17 36.5q0 15 -11 24.5t-29 9.5q-22 0 -37 -18l-24 16l38 65q-97 15 -155.5 80.5t-58.5 164.5q0 132 96.5 228.5t227.5 96.5q68 0 125 -30.5t88 -81.5l-47 -24q-25 40 -70.5 63.5t-96.5 23.5q-106 0 -186 -80
t-80 -193q0 -91 60 -147t152 -56q100 0 170 71l38 -31q-92 -89 -209 -89q-13 0 -19 1l-27 -45q15 11 34 11q26 0 42 -15t16 -42q0 -38 -29 -62.5t-76 -24.5z" />
    <glyph glyph-name="Egrave.smcp" unicode="&#xf7e8;" horiz-adv-x="505" 
d="M395 0h-368l121 550h368l-11 -49h-312l-44 -194h308l-11 -49h-308l-46 -209h313zM408 606h-44l-140 144h62z" />
    <glyph glyph-name="Eacute.smcp" unicode="&#xf7e9;" horiz-adv-x="505" 
d="M395 0h-368l121 550h368l-11 -49h-312l-44 -194h308l-11 -49h-308l-46 -209h313zM536 750l-204 -144h-45l186 144h63z" />
    <glyph glyph-name="Ecircumflex.smcp" unicode="&#xf7ea;" horiz-adv-x="505" 
d="M395 0h-368l121 550h368l-11 -49h-312l-44 -194h308l-11 -49h-308l-46 -209h313zM474 606h-38l-62 113l-108 -113h-42l129 144h54z" />
    <glyph glyph-name="Edieresis.smcp" unicode="&#xf7eb;" horiz-adv-x="505" 
d="M395 0h-368l121 550h368l-11 -49h-312l-44 -194h308l-11 -49h-308l-46 -209h313zM493 658q0 -16 -12.5 -28.5t-28.5 -12.5q-14 0 -24 9.5t-10 23.5q0 16 12.5 28.5t29.5 12.5q14 0 23.5 -9.5t9.5 -23.5zM289 658q0 -17 -12.5 -29t-29.5 -12q-14 0 -23.5 9.5t-9.5 23.5
q0 16 12.5 28.5t29.5 12.5q14 0 23.5 -9.5t9.5 -23.5z" />
    <glyph glyph-name="Igrave.smcp" unicode="&#xf7ec;" horiz-adv-x="215" 
d="M82 0h-55l121 550h55zM248 606h-44l-140 144h62z" />
    <glyph glyph-name="Iacute.smcp" unicode="&#xf7ed;" horiz-adv-x="215" 
d="M82 0h-55l121 550h55zM377 750l-204 -144h-45l186 144h63z" />
    <glyph glyph-name="Icircumflex.smcp" unicode="&#xf7ee;" horiz-adv-x="215" 
d="M82 0h-55l121 550h55zM314 606h-38l-62 113l-108 -113h-42l129 144h54z" />
    <glyph glyph-name="Idieresis.smcp" unicode="&#xf7ef;" horiz-adv-x="215" 
d="M82 0h-55l121 550h55zM338 658q0 -16 -12 -28.5t-29 -12.5q-14 0 -24 9.5t-10 23.5q0 16 12.5 28.5t29.5 12.5q14 0 23.5 -9.5t9.5 -23.5zM134 658q0 -17 -12.5 -29t-29.5 -12q-14 0 -23.5 9.5t-9.5 23.5q0 16 12.5 28.5t29.5 12.5q14 0 23.5 -9.5t9.5 -23.5z" />
    <glyph glyph-name="Eth.smcp" unicode="&#xf7f0;" horiz-adv-x="622" 
d="M222 0h-197l57 260h-68l10 41h67l55 249h166q113 0 184.5 -69.5t71.5 -168.5q0 -57 -22 -111.5t-63 -100t-109 -73t-152 -27.5zM232 49q128 0 203 78.5t75 181.5q0 84 -56.5 138t-149.5 54h-114l-45 -200h142l-9 -41h-142l-46 -211h142z" />
    <glyph glyph-name="Ntilde.smcp" unicode="&#xf7f1;" horiz-adv-x="625" 
d="M490 0h-54l-251 471l-103 -471h-55l121 550h56l250 -464l102 464h55zM461 604q-25 0 -41.5 16t-23 35t-19.5 35t-33 16q-46 0 -69 -96h-36q12 60 40.5 97t71.5 37q25 0 41.5 -16t23.5 -35t20 -35t32 -16q46 0 70 96h36q-13 -60 -41.5 -97t-71.5 -37z" />
    <glyph glyph-name="Ograve.smcp" unicode="&#xf7f2;" horiz-adv-x="666" 
d="M313 -12q-120 0 -189.5 69.5t-69.5 180.5q0 130 90 227t221 97q120 0 189.5 -69.5t69.5 -180.5q0 -130 -90 -227t-221 -97zM313 37q111 0 182.5 81.5t71.5 191.5q0 89 -54.5 146t-148.5 57q-110 0 -182 -81.5t-72 -191.5q0 -89 54.5 -146t148.5 -57zM473 606h-44
l-140 144h62z" />
    <glyph glyph-name="Oacute.smcp" unicode="&#xf7f3;" horiz-adv-x="666" 
d="M313 -12q-120 0 -189.5 69.5t-69.5 180.5q0 130 90 227t221 97q120 0 189.5 -69.5t69.5 -180.5q0 -130 -90 -227t-221 -97zM313 37q111 0 182.5 81.5t71.5 191.5q0 89 -54.5 146t-148.5 57q-110 0 -182 -81.5t-72 -191.5q0 -89 54.5 -146t148.5 -57zM603 750l-204 -144
h-45l186 144h63z" />
    <glyph glyph-name="Ocircumflex.smcp" unicode="&#xf7f4;" horiz-adv-x="666" 
d="M313 -12q-120 0 -189.5 69.5t-69.5 180.5q0 130 90 227t221 97q120 0 189.5 -69.5t69.5 -180.5q0 -130 -90 -227t-221 -97zM313 37q111 0 182.5 81.5t71.5 191.5q0 89 -54.5 146t-148.5 57q-110 0 -182 -81.5t-72 -191.5q0 -89 54.5 -146t148.5 -57zM540 606h-38l-62 113
l-108 -113h-42l129 144h54z" />
    <glyph glyph-name="Otilde.smcp" unicode="&#xf7f5;" horiz-adv-x="666" 
d="M313 -12q-120 0 -189.5 69.5t-69.5 180.5q0 130 90 227t221 97q120 0 189.5 -69.5t69.5 -180.5q0 -130 -90 -227t-221 -97zM313 37q111 0 182.5 81.5t71.5 191.5q0 89 -54.5 146t-148.5 57q-110 0 -182 -81.5t-72 -191.5q0 -89 54.5 -146t148.5 -57zM485 604
q-25 0 -41.5 16t-23 35t-19.5 35t-33 16q-46 0 -69 -96h-36q12 60 40.5 97t71.5 37q25 0 41.5 -16t23.5 -35t20 -35t32 -16q46 0 70 96h36q-13 -60 -41.5 -97t-71.5 -37z" />
    <glyph glyph-name="Odieresis.smcp" unicode="&#xf7f6;" horiz-adv-x="666" 
d="M313 -12q-120 0 -189.5 69.5t-69.5 180.5q0 130 90 227t221 97q120 0 189.5 -69.5t69.5 -180.5q0 -130 -90 -227t-221 -97zM313 37q111 0 182.5 81.5t71.5 191.5q0 89 -54.5 146t-148.5 57q-110 0 -182 -81.5t-72 -191.5q0 -89 54.5 -146t148.5 -57zM564 658
q0 -16 -12 -28.5t-29 -12.5q-14 0 -24 9.5t-10 23.5q0 16 12.5 28.5t29.5 12.5q14 0 23.5 -9.5t9.5 -23.5zM360 658q0 -17 -12.5 -29t-29.5 -12q-14 0 -23.5 9.5t-9.5 23.5q0 16 12.5 28.5t29.5 12.5q14 0 23.5 -9.5t9.5 -23.5z" />
    <glyph glyph-name="Oslash.smcp" unicode="&#xf7f8;" horiz-adv-x="666" 
d="M313 -12q-100 0 -169 51l-37 -39h-54l62 66q-61 67 -61 172q0 130 90 227t221 97q98 0 166 -50l36 38h54l-60 -65q63 -68 63 -173q0 -130 -90 -227t-221 -97zM313 37q111 0 182.5 81.5t71.5 191.5q0 80 -44 135l-342 -366q51 -42 132 -42zM110 240q0 -80 42 -133l342 365
q-54 41 -130 41q-110 0 -182 -81.5t-72 -191.5z" />
    <glyph glyph-name="Ugrave.smcp" unicode="&#xf7f9;" horiz-adv-x="613" 
d="M287 -12q-104 0 -162.5 46.5t-58.5 129.5q0 16 6 46l76 340h55l-75 -338q-4 -28 -4 -40q0 -65 43.5 -100t118.5 -35q76 0 120 43.5t63 131.5l75 338h55l-75 -340q-24 -111 -79.5 -166.5t-157.5 -55.5zM446 606h-44l-140 144h62z" />
    <glyph glyph-name="Uacute.smcp" unicode="&#xf7fa;" horiz-adv-x="613" 
d="M287 -12q-104 0 -162.5 46.5t-58.5 129.5q0 16 6 46l76 340h55l-75 -338q-4 -28 -4 -40q0 -65 43.5 -100t118.5 -35q76 0 120 43.5t63 131.5l75 338h55l-75 -340q-24 -111 -79.5 -166.5t-157.5 -55.5zM577 750l-204 -144h-45l186 144h63z" />
    <glyph glyph-name="Ucircumflex.smcp" unicode="&#xf7fb;" horiz-adv-x="613" 
d="M287 -12q-104 0 -162.5 46.5t-58.5 129.5q0 16 6 46l76 340h55l-75 -338q-4 -28 -4 -40q0 -65 43.5 -100t118.5 -35q76 0 120 43.5t63 131.5l75 338h55l-75 -340q-24 -111 -79.5 -166.5t-157.5 -55.5zM512 606h-38l-62 113l-108 -113h-42l129 144h54z" />
    <glyph glyph-name="Udieresis.smcp" unicode="&#xf7fc;" horiz-adv-x="613" 
d="M287 -12q-104 0 -162.5 46.5t-58.5 129.5q0 16 6 46l76 340h55l-75 -338q-4 -28 -4 -40q0 -65 43.5 -100t118.5 -35q76 0 120 43.5t63 131.5l75 338h55l-75 -340q-24 -111 -79.5 -166.5t-157.5 -55.5zM536 658q0 -16 -12 -28.5t-29 -12.5q-14 0 -24 9.5t-10 23.5
q0 16 12.5 28.5t29.5 12.5q14 0 23.5 -9.5t9.5 -23.5zM332 658q0 -17 -12.5 -29t-29.5 -12q-14 0 -23.5 9.5t-9.5 23.5q0 16 12.5 28.5t29.5 12.5q14 0 23.5 -9.5t9.5 -23.5z" />
    <glyph glyph-name="Yacute.smcp" unicode="&#xf7fd;" horiz-adv-x="539" 
d="M245 0h-55l52 235l-163 315h64l135 -266l249 266h67l-298 -315zM540 750l-204 -144h-45l186 144h63z" />
    <glyph glyph-name="Thorn.smcp" unicode="&#xf7fe;" horiz-adv-x="509" 
d="M82 0h-55l121 550h55l-21 -97h139q75 0 121 -38t46 -101q0 -76 -54 -131.5t-145 -55.5h-179zM279 176h13q63 0 100.5 39t37.5 96q0 45 -32 69t-85 24h-142l-51 -228h159z" />
    <glyph glyph-name="Ydieresis.smcp" unicode="&#xf7ff;" horiz-adv-x="539" 
d="M245 0h-55l52 235l-163 315h64l135 -266l249 266h67l-298 -315zM501 658q0 -16 -12.5 -28.5t-28.5 -12.5q-14 0 -24 9.5t-10 23.5q0 16 12.5 28.5t29.5 12.5q14 0 23.5 -9.5t9.5 -23.5zM297 658q0 -17 -12.5 -29t-29.5 -12q-14 0 -23.5 9.5t-9.5 23.5q0 16 12.5 28.5
t29.5 12.5q14 0 23.5 -9.5t9.5 -23.5z" />
    <glyph glyph-name="f.alt1" horiz-adv-x="265" 
d="M97 0h-53l97 437h-80l10 46h80l9 44q33 150 150 150q44 0 76 -21l-23 -42q-20 16 -52 16q-76 0 -98 -103l-10 -44h99l-11 -46h-98z" />
    <glyph glyph-name="l.alt1" horiz-adv-x="256" 
d="M140 -12q-44 0 -70 19.5t-26 54.5q0 15 3 32l127 573h52l-125 -565q-3 -15 -3 -25q0 -20 13.5 -31t36.5 -11q29 0 51 18l10 -42q-29 -23 -69 -23z" />
    <glyph glyph-name="a.alt1" horiz-adv-x="521" 
d="M390 0h-53l12 54q-69 -66 -153 -66q-68 0 -115.5 36t-47.5 104q0 83 52.5 132t128.5 49q112 0 174 -76l21 92q3 12 3 31q0 42 -36.5 68t-97.5 26q-82 0 -146 -62l-22 38q81 69 175 69q79 0 130 -33.5t51 -97.5q0 -17 -5 -42zM214 29q82 0 144 64l23 105q-20 34 -61 52
t-92 18q-61 0 -100 -38.5t-39 -96.5q0 -50 34.5 -77t90.5 -27z" />
    <glyph glyph-name="y.alt1" horiz-adv-x="540" 
d="M181 -196q-75 0 -124.5 19.5t-83.5 62.5l38 39q45 -74 170 -74q137 0 172 153l16 72q-92 -83 -173 -83q-61 0 -100.5 28.5t-39.5 87.5q0 21 5 43l73 331h52l-72 -323q-4 -28 -4 -37q0 -83 106 -83q43 0 87 24t77 60l80 359h52l-106 -479q-45 -200 -225 -200z" />
    <glyph glyph-name="G.alt1" horiz-adv-x="711" 
d="M355 -12q-128 0 -208 79.5t-80 209.5q0 176 113 288.5t268 112.5q82 0 147.5 -36.5t101.5 -100.5l-51 -26q-30 54 -85.5 82.5t-121.5 28.5q-57 0 -112 -24.5t-99.5 -68t-71.5 -110.5t-27 -144q0 -109 64.5 -174t170.5 -65q110 0 182 66.5t104 173.5h-303l11 52h363
q-33 -163 -126 -253.5t-240 -90.5z" />
    <glyph glyph-name="G.smcp.alt1" horiz-adv-x="647" 
d="M325 -12q-120 0 -195.5 69t-75.5 176q0 139 96 234t226 95q143 0 226 -112l-47 -29q-27 43 -75.5 67.5t-102.5 24.5q-105 0 -185.5 -78t-80.5 -196q0 -90 62 -146.5t152 -56.5q80 0 144.5 53.5t82.5 139.5h-234l10 47h287q-11 -120 -93.5 -204t-196.5 -84z" />
    <glyph glyph-name="Gbreve.alt1" horiz-adv-x="746" 
d="M699 813q-85 -88 -194 -88q-53 0 -94 23.5t-63 64.5l33 25q37 -75 130 -75t163 75zM355 -12q-128 0 -208 79.5t-80 209.5q0 176 113 288.5t268 112.5q82 0 147.5 -36.5t101.5 -100.5l-51 -26q-30 54 -85.5 82.5t-121.5 28.5q-57 0 -112 -24.5t-99.5 -68t-71.5 -110.5
t-27 -144q0 -109 64.5 -174t170.5 -65q110 0 182 66.5t104 173.5h-303l11 52h363q-33 -163 -126 -253.5t-240 -90.5z" />
    <glyph glyph-name="Gbreve.smcp.alt1" horiz-adv-x="646" 
d="M620 694q-85 -88 -194 -88q-53 0 -94 23.5t-63 64.5l33 25q38 -75 130 -75q93 0 163 75zM325 -12q-120 0 -195.5 69t-75.5 176q0 139 96 234t226 95q143 0 226 -112l-47 -29q-27 43 -75.5 67.5t-102.5 24.5q-105 0 -185.5 -78t-80.5 -196q0 -90 62 -146.5t152 -56.5
q80 0 144.5 53.5t82.5 139.5h-234l10 47h287q-11 -120 -93.5 -204t-196.5 -84z" />
    <glyph glyph-name="Gcommaaccent.alt1" horiz-adv-x="746" 
d="M359 -122q0 -38 -28.5 -77.5t-67.5 -59.5l-22 24q27 14 47.5 36.5t26.5 44.5h-7q-12 0 -21.5 10t-9.5 23q0 18 13 30.5t30 12.5t28 -11.5t11 -32.5zM355 -12q-128 0 -208 79.5t-80 209.5q0 176 113 288.5t268 112.5q82 0 147.5 -36.5t101.5 -100.5l-51 -26
q-30 54 -85.5 82.5t-121.5 28.5q-57 0 -112 -24.5t-99.5 -68t-71.5 -110.5t-27 -144q0 -109 64.5 -174t170.5 -65q110 0 182 66.5t104 173.5h-303l11 52h363q-33 -163 -126 -253.5t-240 -90.5z" />
    <glyph glyph-name="Gcommaaccent.smcp.alt1" horiz-adv-x="647" 
d="M309 -122q0 -38 -28.5 -77.5t-67.5 -59.5l-22 24q27 14 47.5 36.5t26.5 44.5h-7q-12 0 -21.5 10t-9.5 23q0 18 13 30.5t30 12.5t28 -11.5t11 -32.5zM325 -12q-120 0 -195.5 69t-75.5 176q0 139 96 234t226 95q143 0 226 -112l-47 -29q-27 43 -75.5 67.5t-102.5 24.5
q-105 0 -185.5 -78t-80.5 -196q0 -90 62 -146.5t152 -56.5q80 0 144.5 53.5t82.5 139.5h-234l10 47h287q-11 -120 -93.5 -204t-196.5 -84z" />
    <glyph glyph-name="lslash.alt1" horiz-adv-x="287" 
d="M9 238l11 46l114 58l72 325h52l-66 -295l115 58l-10 -46l-115 -58l-49 -224q-3 -15 -3 -25q0 -20 13.5 -31t36.5 -11q29 0 51 18l10 -42q-29 -23 -69 -23q-44 0 -70 19.5t-26 54.5q0 15 3 32l45 202z" />
    <glyph glyph-name="lacute.alt1" horiz-adv-x="256" 
d="M402 872l-204 -144h-45l186 144h63zM140 -12q-44 0 -70 19.5t-26 54.5q0 15 3 32l127 573h52l-125 -565q-3 -15 -3 -25q0 -20 13.5 -31t36.5 -11q29 0 51 18l10 -42q-29 -23 -69 -23z" />
    <glyph glyph-name="lcommaaccent.alt1" horiz-adv-x="256" 
d="M91 -122q0 -38 -28.5 -77.5t-67.5 -59.5l-22 24q27 14 47.5 36.5t26.5 44.5h-7q-12 0 -21.5 10t-9.5 23q0 18 13 30.5t30 12.5t28 -11.5t11 -32.5zM140 -12q-44 0 -70 19.5t-26 54.5q0 15 3 32l127 573h52l-125 -565q-3 -15 -3 -25q0 -20 13.5 -31t36.5 -11q29 0 51 18
l10 -42q-29 -23 -69 -23z" />
    <glyph glyph-name="lcaron.alt1" horiz-adv-x="269" 
d="M369 635q0 -38 -28.5 -77.5t-67.5 -59.5l-22 24q27 14 47.5 36.5t26.5 44.5h-7q-12 0 -21.5 10t-9.5 23q0 18 13 30.5t30 12.5t28 -11.5t11 -32.5zM140 -12q-44 0 -70 19.5t-26 54.5q0 15 3 32l127 573h52l-125 -565q-3 -15 -3 -25q0 -20 13.5 -31t36.5 -11q29 0 51 18
l10 -42q-29 -23 -69 -23z" />
    <glyph glyph-name="aacute.alt1" horiz-adv-x="521" 
d="M526 700l-204 -144h-45l186 144h63zM390 0h-53l12 54q-69 -66 -153 -66q-68 0 -115.5 36t-47.5 104q0 83 52.5 132t128.5 49q112 0 174 -76l21 92q3 12 3 31q0 42 -36.5 68t-97.5 26q-82 0 -146 -62l-22 38q81 69 175 69q79 0 130 -33.5t51 -97.5q0 -17 -5 -42zM214 29
q82 0 144 64l23 105q-20 34 -61 52t-92 18q-61 0 -100 -38.5t-39 -96.5q0 -50 34.5 -77t90.5 -27z" />
    <glyph glyph-name="agrave.alt1" horiz-adv-x="521" 
d="M399 556h-44l-140 144h62zM390 0h-53l12 54q-69 -66 -153 -66q-68 0 -115.5 36t-47.5 104q0 83 52.5 132t128.5 49q112 0 174 -76l21 92q3 12 3 31q0 42 -36.5 68t-97.5 26q-82 0 -146 -62l-22 38q81 69 175 69q79 0 130 -33.5t51 -97.5q0 -17 -5 -42zM214 29
q82 0 144 64l23 105q-20 34 -61 52t-92 18q-61 0 -100 -38.5t-39 -96.5q0 -50 34.5 -77t90.5 -27z" />
    <glyph glyph-name="acircumflex.alt1" horiz-adv-x="521" 
d="M466 556h-38l-62 113l-108 -113h-42l129 144h54zM390 0h-53l12 54q-69 -66 -153 -66q-68 0 -115.5 36t-47.5 104q0 83 52.5 132t128.5 49q112 0 174 -76l21 92q3 12 3 31q0 42 -36.5 68t-97.5 26q-82 0 -146 -62l-22 38q81 69 175 69q79 0 130 -33.5t51 -97.5
q0 -17 -5 -42zM214 29q82 0 144 64l23 105q-20 34 -61 52t-92 18q-61 0 -100 -38.5t-39 -96.5q0 -50 34.5 -77t90.5 -27z" />
    </font>
</defs>
</svg>
